osu file format v5

[General]
AudioFilename: OUENDAN 2 COUNTDOWN.mp3
AudioLeadIn: 0
PreviewTime: 56470
Countdown: 1
SampleSet: Normal
StackLeniency: 0.7
Mode: 0
LetterboxInBreaks: 1
EditorBookmarks: 28785,84300

[Metadata]
Title:COUNTDOWN
Artist:Hyde
Creator:mattyu007
Version:Easy
Source:
Tags:

[Difficulty]
HPDrainRate:2
CircleSize:3
OverallDifficulty:1
SliderMultiplier:1.2
SliderTickRate:2

[Events]
//Background and Video events
0,0,"Picture 2 copy.png"
//Break Periods
2,37955,55452
2,75676,83467
//Storyboard Layer 0 (Background)
//Storyboard Layer 1 (Failing)
//Storyboard Layer 2 (Passing)
//Storyboard Layer 3 (Foreground)
//Storyboard Sound Samples
//Background Colour Transformations
3,100,163,162,255

[TimingPoints]
19300,292.682926829268,4,1,0,100,1,0
56470,-100,4,1,0,100,0,1
73153,-100,4,1,0,100,0,0
75495,-100,4,1,0,100,0,1
75641,-100,4,1,0,100,0,0
84568,-100,4,1,0,100,0,1
103592,-100,4,1,0,100,0,0
105787,-100,4,1,0,100,0,1

[Colours]
Combo1 : 240,5,5
Combo2 : 255,150,0
Combo3 : 5,240,5
Combo4 : 5,5,240

[HitObjects]
157,165,19300,2,4,B|224:248|304:240|368:152,1,240
352,48,20178,1,4
256,120,20470,1,2
72,40,20909,1,4
32,240,21348,2,2,B|128:360|264:352,1,240,2|6
512,344,22519,5,4
472,232,22812,1,2
512,112,23104,1,4
472,0,23397,1,2
379,164,23982,6,6,B|336:320|256:256|160:320|131:146,2,360
256,128,26031,5,0
256,16,26324,1,2
80,80,26763,1,4
72,272,27202,2,2,B|160:384|312:376|408:312,1,360,2|6
355,165,28665,6,4,B|288:248|208:240|144:152,1,240
160,48,29543,1,4
256,120,29835,1,2
440,40,30274,1,4
480,240,30713,2,2,B|384:360|248:352,1,240,2|6
0,344,31884,5,4
40,232,32177,1,2
0,112,32469,1,4
40,0,32762,1,2
156,228,33348,6,2,B|264:344|368:216,1,240,2|6
376,101,34226,2,2,B|344:-24|264:-32|144:-24|128:120,1,360,2|6
256,80,35690,5,2
256,240,36129,1,4
370,335,36568,2,2,B|281:384|193:368|112:323,1,240,2|6
152,216,37446,1,4
256,152,37739,1,6
248,224,56617,6,6,B|112:199|202:87|144:8|312:40|336:0|448:136|432:256|320:320|272:320|224:320|128:304|96:208,1,780,2|6
160,0,58959,2,6,B|336:-69|424:80,1,300,2|6
256,64,60129,5,2
256,192,60421,1,4
256,320,60714,1,2
56,200,61299,2,2,B|-64:224|-40:344|0:368|56:368|120:344,1,300,2|6
112,80,62617,5,2
400,80,63202,1,2
396,266,63641,2,6,B|320:328|192:328|114:264,1,300
136,0,64958,5,2
256,0,65251,1,6
376,0,65543,1,2
248,224,65982,6,6,B|112:199|202:87|144:8|312:40|336:0|448:136|432:256|320:320|272:320|224:320|128:304|96:208,1,780,2|6
160,0,68324,2,6,B|336:-69|424:80,1,300,2|6
256,64,69495,5,2
256,192,69787,1,4
256,320,70080,1,2
56,200,70665,2,2,B|-64:224|-40:344|0:368|56:368|120:344,1,300,2|6
112,80,71982,5,2
400,80,72568,1,2
256,192,73153,12,6,75495
264,224,84714,6,6,B|400:199|310:87|368:8|200:40|176:0|64:136|80:256|192:320|240:320|288:320|384:304|416:208,1,780,2|6
352,0,87056,2,6,B|176:-69|88:80,1,300,2|6
256,80,88226,5,6
168,168,88519,1,4
256,256,88812,1,6
344,168,89104,1,4
456,200,89397,2,2,B|576:224|552:344|512:368|456:368|392:344,1,300,2|6
400,80,90714,5,2
112,80,91299,1,2
116,266,91739,2,6,B|192:328|320:328|398:264,1,300
376,0,93056,5,2
256,0,93348,1,6
136,0,93641,1,6
264,224,94080,6,6,B|400:199|310:87|368:8|200:40|176:0|64:136|80:256|192:320|240:320|288:320|384:304|416:208,1,780,2|6
352,0,96422,2,6,B|176:-69|88:80,1,300,2|6
256,80,97592,5,6
168,168,97885,1,4
256,256,98178,1,6
344,168,98470,1,4
456,200,98763,2,6,B|576:224|552:344|512:368|456:368|392:344,1,300,2|6
256,104,100080,5,6
160,176,100373,1,4
256,248,100665,1,6
328,352,100958,1,4
184,352,101251,2,6,B|72:304|24:208|56:112|72:40|152:-8|192:0|264:-16|312:-32|360:16|424:88|424:120,1,720
256,192,103446,12,6,105787
