osu file format v9

[General]
AudioFilename: 33 - Pinch Daisuki!.mp3
AudioLeadIn: 1500
PreviewTime: 47505
Countdown: 0
SampleSet: Soft
StackLeniency: 0.7
Mode: 0
LetterboxInBreaks: 1

[Editor]
DistanceSpacing: 0.9
BeatDivisor: 4
GridSize: 8

[Metadata]
Title:Pinch Daisuki!
Artist:Hyakkoku Hajime
Creator:Saten-san
Version:Daisuki
Source:K-ON!
Tags:wmfchris jameskong1 YGOkid8

[Difficulty]
HPDrainRate:5
CircleSize:3
OverallDifficulty:5
ApproachRate:6
SliderMultiplier:1.4
SliderTickRate:0.5

[Events]
//Background and Video events
0,0,"k-on.jpg"
//Break Periods
2,20170,22009
2,36053,40538
2,60758,61273
2,68700,72303
//Storyboard Layer 0 (Background)
//Storyboard Layer 1 (Fail)
//Storyboard Layer 2 (Pass)
//Storyboard Layer 3 (Foreground)
//Storyboard Sound Samples
//Background Colour Transformations
3,100,163,162,255

[TimingPoints]
559,441.176470588235,4,2,0,40,1,0
23389,-100,4,1,0,40,0,0
23500,-100,4,1,0,40,0,1
35853,-100,4,1,0,40,0,0
41478,-100,4,2,0,40,0,0
48095,-100,4,1,0,40,0,0
48206,-100,4,1,0,40,0,0
62213,-100,4,2,0,40,0,0
78095,-100,4,1,0,40,0,0
78206,-100,4,1,0,40,0,1
90558,-100,4,1,0,40,0,0
90669,-100,4,2,0,80,0,0
91441,-100,4,2,0,60,0,0
92323,-100,4,2,0,40,0,0
93206,-100,4,2,0,20,0,0
94088,-100,4,2,0,0,0,0

[Colours]
Combo1 : 220,155,255
Combo2 : 251,197,189
Combo3 : 250,114,137
Combo4 : 255,231,147

[HitObjects]
256,336,559,5,2
464,192,1441,1,2
256,48,2323,1,2
48,192,3206,1,2
48,64,3647,1,2
168,32,4088,5,4
232,32,4309,2,0,B|280:32,2,35,0|0|0
264,88,4750,2,0,B|312:88,2,35
232,144,5191,22,0,B|168:144,6,35,0|0|0|0|0|0|4
280,192,6073,22,0,B|328:192,2,35
248,248,6514,2,0,B|296:248,2,35
216,304,6956,1,0
152,304,7176,6,0,B|80:304,1,70
16,304,7617,1,4
112,224,8058,1,0
168,192,8279,1,0
184,128,8500,1,2
304,96,8941,5,0
360,128,9161,1,0
376,192,9382,1,2
360,256,9603,1,0
312,296,9823,2,0,B|248:296,1,35,2|0
224,256,10154,1,2
48,344,10706,5,0
16,288,10926,1,0
48,232,11147,1,2
112,344,11588,1,0
144,288,11809,1,0
112,232,12029,1,2
56,120,12470,5,0
80,64,12691,1,0
144,64,12911,1,2
168,120,13132,1,0
112,144,13353,2,0,B|112:184,1,35,2|0
112,240,13684,1,2
256,304,14235,5,2
256,240,14456,1,0
256,176,14676,1,0
256,48,15117,1,2
256,112,15338,1,0
256,176,15559,1,0
368,112,16000,5,0
416,72,16220,1,0
464,112,16441,1,2
416,152,16661,1,0
416,216,16882,2,0,B|416:256,1,35,2|0
416,312,17213,1,2
256,312,17764,37,0
256,248,17985,1,0
256,184,18206,2,0,B|208:120,1,70,2|0
168,80,18647,2,0,B|112:80|112:136,1,70,2|0
112,176,19088,2,0,B|112:272,1,70,2|0
160,288,19529,1,4
208,328,19750,1,0
272,344,19970,1,2
480,48,23059,5,0
480,112,23279,1,0
480,112,23500,1,4
368,48,23941,1,0
368,112,24161,1,0
368,112,24382,1,8
424,224,24823,6,0,B|424:128,2,70,0|0|8
392,280,25485,1,0
344,320,25706,2,0,B|304:320,1,35,8|0
248,320,26036,1,0
64,304,26588,21,0
64,240,26809,1,0
64,240,27029,1,8
176,304,27470,1,0
176,240,27691,1,0
176,240,27911,1,8
120,128,28353,6,0,B|120:208,2,70,0|0|8
152,72,29014,1,0
216,56,29235,2,0,B|256:56,1,35,8|0
312,56,29566,1,0
472,56,30117,37,0
472,120,30338,1,0
472,120,30559,1,8
472,248,31000,1,0
472,184,31220,1,0
472,184,31441,1,8
352,152,31882,6,0,B|424:152,2,70,0|0|8
288,152,32544,1,0
224,152,32764,2,0,B|176:152,1,35,8|0
128,152,33095,1,0
64,296,33647,5,0
64,232,33867,1,0
64,168,34088,2,0,B|64:120|112:120,1,70,2|0
168,120,34529,2,0,B|264:120,1,70,2|0
304,120,34970,2,0,B|352:120|352:168,1,70,2|0
352,224,35411,1,2
312,272,35632,1,0
248,280,35853,1,4
256,72,41588,22,0,B|256:144,1,70,2|0
256,208,42029,2,0,B|256:256,1,35,2|0
304,280,42360,1,2
208,280,42691,1,0
160,240,42911,6,0,B|216:184,3,70,2|0|0|0
344,248,43794,2,0,B|288:176,3,70,2|0|0|0
256,240,44676,5,2
256,176,44897,1,2
256,112,45117,2,2,B|256:42,5,70,2|2|2|2|2|2
192,40,46441,5,0
184,104,46661,1,0
200,168,46882,1,2
256,192,47103,1,0
312,168,47323,1,4
448,128,47764,5,0
448,192,47985,2,0,B|448:264,1,70,0|12
376,160,48647,1,0
376,224,48867,2,0,B|376:320,1,70,0|8
304,192,49529,5,0
304,256,49750,2,0,B|304:328,2,70,0|8|0
304,192,50411,2,0,B|304:128,1,35,8|0
304,96,50742,1,0
176,192,51294,5,0
112,192,51514,2,0,B|32:192,1,70,0|8
144,264,52176,1,0
208,264,52397,2,0,B|280:264,1,70,0|8
176,192,53058,5,0
176,128,53279,2,0,B|176:48,2,70,0|8|0
176,192,53941,2,0,B|176:232,1,35,8|0
176,288,54272,1,0
304,192,54823,5,0
368,192,55044,2,0,B|448:192,1,70,0|8
336,120,55706,1,0
272,120,55926,2,0,B|192:120,1,70,0|8
304,192,56588,5,0
256,232,56808,2,0,B|184:288,2,70,0|8|0
304,192,57470,2,0,B|344:160,1,35,8|0
384,128,57801,1,0
256,40,58353,5,0
256,40,58573,1,0
256,104,58794,2,0,B|256:176,3,70,8|0|8|0
256,240,59676,2,0,B|256:312,4,70,8|0|0|0|4
384,80,62323,5,2
440,192,62764,1,2
384,304,63206,1,2
288,304,63536,2,4,B|240:304,1,35
192,304,63867,1,4
128,304,64088,5,2
80,192,64529,1,2
128,72,64970,1,2
256,64,65411,1,2
256,192,65853,5,0
256,320,66294,1,0
256,192,66735,1,0
352,192,67066,2,4,B|400:192,1,35
448,192,67397,1,4
448,192,67617,1,2
352,192,67948,6,4,B|304:192,1,35
256,192,68279,1,4
256,192,68500,1,2
328,192,73353,6,0,B|400:192,1,70
464,192,73794,2,0,B|512:192,1,35
496,256,74125,2,0,B|392:256,1,105
352,304,74676,6,0,B|352:352|296:352,1,70,4|0
256,320,75117,1,4
216,272,75338,1,2
184,216,75558,2,0,B|184:144,1,70,4|0
216,88,76000,1,4
256,40,76220,1,2
296,88,76441,2,0,B|344:88|344:128,1,70,4|0
328,192,76882,2,0,B|240:192,2,70,8|0|4
256,296,77764,6,0,B|160:296,1,70
120,288,78206,2,0,B|71:203|132:144,1,140,4|0
184,136,78867,2,0,B|254:136,1,70,0|8
368,200,79529,6,0,B|296:200,3,70,0|0|8|0
232,200,80411,2,0,B|184:200,1,35,8|0
136,200,80742,2,0,B|136:312|280:312,1,175
312,304,81514,6,0,B|312:224,1,70,0|8
312,104,82176,2,0,B|360:104|360:40,1,70
424,56,82617,2,0,B|424:216,1,140,8|0
360,192,83279,2,0,B|312:192|312:248,2,70,0|8|0
360,128,83941,2,0,B|360:88,1,35,8|0
360,32,84272,2,0,B|232:32|232:160,1,175
232,192,85044,6,0,B|232:264,1,70,0|8
360,264,85706,2,0,B|408:264|408:216,1,70
408,160,86147,2,0,B|312:160|312:80,1,140,8|0
376,80,86809,2,0,B|472:80,2,70,0|8|0
312,80,87470,2,0,B|264:80,1,35,8|0
216,80,87801,2,0,B|139:161|221:238,1,175
256,288,88573,6,0,B|304:288|304:248,1,70,0|2
304,184,89014,2,0,B|304:112,1,70,0|2
304,48,89456,2,0,B|336:16|368:48,1,70,0|2
368,112,89897,2,0,B|368:184,1,70,0|8
368,248,90338,2,0,B|368:320,1,70,0|6
256,192,90669,12,4,94088
