osu file format v5

[General]
AudioFilename: ww.mp3
AudioLeadIn: 0
PreviewTime: 9935
Countdown: 0
SampleSet: Normal
StackLeniency: 0.7
Mode: 0
LetterboxInBreaks: 1

[Metadata]
Title:World Warrior
Artist:Hyadain
Creator:mtmcl
Version:Round 2
Source:
Tags:

[Difficulty]
HPDrainRate:5
CircleSize:6
OverallDifficulty:8
SliderMultiplier:1.9
SliderTickRate:1

[Events]
//Background and Video events
//Break Periods
2,24135,25685
2,90385,97435
2,162385,169435
//Storyboard Layer 0 (Background)
//Storyboard Layer 1 (Failing)
//Storyboard Layer 2 (Passing)
//Storyboard Layer 3 (Foreground)
//Storyboard Sound Samples
//Background Colour Transformations
3,100,163,162,255

[TimingPoints]
2185,500,4,1,0,50,1
216185,250,4,1,0,50,1

[Colours]
Combo1 : 199,49,5
Combo2 : 167,164,18
Combo3 : 15,104,176

[HitObjects]
256,192,10185,1,0
64,192,10685,1,0
160,32,11185,1,2
160,176,11560,1,2
160,320,11935,1,2
304,320,12310,5,0
304,224,12560,1,0
304,176,12685,1,0
304,128,12810,1,0
304,80,12935,1,0
256,80,13060,1,0
208,80,13185,1,2
112,80,13435,1,2
112,128,13560,1,2
256,128,13935,1,2
352,128,14185,5,0
352,320,14685,1,0
192,224,15185,1,2
336,224,15560,1,2
480,224,15935,1,2
480,128,16185,5,0
384,128,16435,1,0
288,128,16685,1,0
192,128,16935,1,0
192,32,17185,1,6
288,32,17435,1,6
384,32,17685,1,6
480,32,17935,1,6
480,128,18185,5,0
480,320,18685,1,0
320,224,19185,1,2
176,224,19560,1,2
32,224,19935,1,2
112,112,20310,5,0
208,112,20560,1,0
256,112,20685,1,0
304,112,20810,1,0
352,112,20935,1,0
336,64,21060,1,0
288,64,21185,1,2
192,64,21435,1,2
240,64,21560,1,2
336,160,21935,1,2
240,160,22185,5,0
432,160,22685,1,0
336,320,23185,1,2
336,176,23560,1,2
336,32,23935,1,2
216,104,26435,5,2
256,88,26560,1,0
296,104,26685,1,2
256,192,26935,1,0
280,280,27185,5,2
320,264,27310,1,2
384,192,27560,1,0
320,136,27810,1,4
408,112,28060,1,0
104,112,28435,5,0
192,136,28685,1,4
256,192,28935,1,0
232,280,29185,1,2
192,264,29310,1,2
120,192,29560,1,0
256,72,29935,1,6
472,160,30435,6,0,B|472:213|424:256,1,95
368,304,30935,1,0
280,336,31185,2,2,B|255:338|224:336,1,47.5
144,304,31560,1,0
76,245,31810,2,0,B|40:213|40:160,1,95
176,200,32435,1,2
256,200,32685,1,0
336,200,32935,1,2
296,136,33185,1,2
216,136,33435,1,2
256,72,33685,1,6
208,176,34185,6,0,B|240:112,1,47.5
272,128,34435,2,0,B|304:176,1,47.5
336,144,34685,2,4,B|368:192|336:240,1,95
288,288,35185,2,4,B|211:331|160:256,1,142.5
80,192,35935,5,2
80,192,36060,1,2
96,120,36310,1,0
128,136,36435,1,0
160,120,36560,1,0
200,136,36685,1,0
232,120,36810,1,0
264,136,36935,1,4
312,192,37185,6,6,B|392:192|392:304,2,142.5
144,192,38435,6,4,B|64:192,2,47.5
224,192,38935,1,0
272,128,39185,6,2,B|388:192|272:272,1,190
128,272,40060,5,0
128,192,40310,1,2
128,112,40560,1,0
128,112,40685,1,4
256,192,40810,12,4,41185
184,72,42185,6,0,B|236:38|312:72,1,95
280,136,42685,2,0,B|228:102|160:168,1,95
168,216,43185,1,0
208,216,43310,1,0
280,216,43560,2,0,B|325:257|448:256,1,142.5
440,104,44435,5,0
440,104,44560,1,0
400,104,44685,1,0
400,104,44810,1,0
360,104,44935,1,0
360,104,45060,1,0
320,104,45185,2,0,B|176:104,1,142.5
64,104,45935,1,0
32,176,46185,6,0,B|32:272,1,95
96,312,46685,1,0
96,312,46810,1,0
96,312,46935,1,0
168,312,47185,1,0
168,312,47310,2,0,B|288:312,1,95
376,304,47935,6,0,B|452:284|456:192,1,142.5
455,198,48435,1,0
456,120,48685,1,0
376,120,48935,1,0
296,120,49185,2,0,B|200:120,2,95
480,32,50185,5,0
480,32,50310,1,0
480,32,50435,1,0
434,92,50685,1,0
434,92,50810,1,0
434,92,50935,1,0
381,147,51185,1,0
381,147,51435,2,0,L|347:198,1,47.5
293,231,51810,1,0
217,241,52060,5,0
179,242,52185,1,0
141,241,52310,1,0
103,241,52435,1,0
65,240,52560,1,0
27,238,52685,1,0
75,179,52935,1,0
124,121,53185,1,0
124,121,53310,1,0
124,121,53435,1,0
124,121,53560,2,0,L|219:121,1,95
331,137,54185,5,0
292,204,54435,1,0
343,259,54685,1,0
288,312,54935,1,0
212,319,55185,2,0,L|154:319,1,47.5
88,322,55560,1,0
132,260,55810,1,0
94,260,55935,1,0
56,260,56060,1,0
18,260,56185,1,0
46,189,56435,1,0
121,188,56685,1,0
82,122,56935,1,0
157,121,57185,1,0
308,123,57685,1,4
433,36,58185,6,0,L|434:104,1,47.5
433,121,58435,1,0
432,158,58560,1,0
432,195,58685,2,0,L|432:253,1,47.5
411,274,58935,1,0
448,274,59060,1,0
430,307,59185,2,0,L|430:362|377:363,3,95
314,358,60185,5,0
285,334,60310,1,0
254,313,60435,2,0,L|202:270,1,47.5
188,258,60685,1,0
157,236,60810,1,0
152,198,60935,2,0,L|152:147,1,47.5
150,112,61185,2,0,L|261:112,2,95
256,48,61935,5,0
256,120,62185,1,0
256,192,62435,1,0
256,192,62560,1,0
256,264,62810,1,0
192,312,63060,2,0,B|261:379|336:296,1,142.5
392,304,63685,1,0
464,304,63935,1,0
464,224,64185,5,0
464,144,64435,1,0
464,64,64685,1,0
384,64,64935,1,0
384,64,65060,2,0,C|336:32|309:92|320:128,1,142.5
416,192,65685,6,0,B|465:167|512:194,2,95
336,192,66435,1,0
256,192,66685,1,0
176,192,66935,1,4
176,192,67060,1,4
208,80,67435,6,0,B|336:80,2,95
128,112,68185,2,0,B|33:191|128:272,1,190
176,216,68935,2,4,B|176:168,1,47.5
160,104,69435,5,2
256,80,69685,1,0
352,104,69935,1,0
376,192,70185,5,0
344,192,70310,1,2
312,192,70435,1,0
280,192,70560,2,0,B|224:192,1,47.5,0|2
200,192,70810,1,0
168,192,70935,1,0
136,192,71060,1,2
160,280,71435,5,0
256,304,71685,1,0
352,280,71935,1,2
256,192,72185,12,6,73185
256,192,74185,1,0
128,48,74685,1,0
320,48,75185,2,2,B|176:48,2,142.5,2|0|0
320,192,76310,5,0
224,192,76560,2,0,B|160:192,1,47.5
224,192,76810,2,0,B|272:192,1,47.5
224,192,77060,2,2,B|224:144,1,47.5
224,48,77435,2,2,B|224:96,1,47.5,2|2
368,96,77935,1,2
272,96,78185,6,0,B|464:96,1,190
272,144,79185,2,2,B|272:0,2,142.5
176,144,80185,5,0
176,336,80685,1,0
368,336,81185,1,6
368,240,81435,1,6
368,144,81685,1,6
368,48,81935,1,6
288,96,82185,5,0
288,288,82685,1,0
128,192,83185,1,2
272,192,83560,2,2,B|432:192,2,142.5
176,192,84560,6,0,B|128:192,1,47.5
176,192,84810,2,0,B|224:192,1,47.5
176,192,85060,2,2,B|176:240,1,47.5,2|2
176,144,85435,2,2,B|176:80,1,47.5,2|2
32,96,85935,1,2
128,96,86185,5,0
320,96,86685,1,0
320,288,87185,1,2
176,288,87560,1,2
256,176,87935,1,2
352,176,88185,6,6,B|352:64,1,95
272,32,88685,2,6,B|368:32,1,95
304,96,89185,2,6,B|304:208,1,95
384,240,89685,2,6,B|272:240,1,95
224,176,90185,1,6
256,336,98185,6,0,B|304:295|240:264,1,95
240,200,98685,2,0,B|164:228|264:272,1,95
240,200,99185,2,0,B|288:159|224:128,1,95
296,104,99685,5,0
368,128,99935,2,0,B|436:121|440:208,1,95
392,240,100435,1,0
320,208,100685,5,0
248,184,100935,1,0
168,176,101185,2,0,B|100:200|96:128,4,95
216,32,102685,5,0
224,104,102935,2,0,B|296:176,1,95
208,184,103685,1,0
160,240,103935,5,0
184,312,104185,1,0
256,336,104435,1,0
328,312,104685,5,0
344,240,104935,1,0
288,184,105185,1,0
152,40,106185,6,0,B|96:112,2,71.25
192,72,106685,2,0,B|272:48,2,71.25
208,120,107185,2,0,B|144:176,2,71.25
248,152,107685,2,0,B|328:136,2,71.25
256,200,108185,5,4
392,224,108560,1,0
392,224,108685,1,0
312,272,108935,1,0
328,176,109185,1,0
144,224,109685,6,0,B|82:223|112:160,1,47.5
72,112,110060,1,0
72,112,110185,1,0
168,96,110435,1,0
216,88,110560,1,0
264,80,110685,1,0
168,96,110935,1,0
264,80,111185,1,0
200,208,111560,1,0
272,328,111935,6,0,B|304:344|320:320,1,47.5
344,288,112185,1,0
408,216,112435,2,0,B|432:200|456:224,1,47.5
472,264,112685,1,2
472,168,112935,1,0
472,264,113185,1,4
256,192,114185,6,0,C|160:192,1,95
112,192,114685,1,0
80,240,114935,1,0
112,288,115185,2,0,C|256:288,1,142.5
288,304,115685,1,0
320,320,115810,1,0
352,336,115935,1,0
448,320,116185,6,0,C|448:192,1,95
480,160,116685,1,0
416,112,116935,1,0
384,112,117060,1,0
352,112,117185,2,0,C|160:112,1,190
144,48,117935,1,0
224,48,118185,1,0
256,32,118310,1,0
288,48,118435,2,0,C|400:48,1,95
400,80,118810,1,0
384,112,118935,1,0
400,144,119060,1,0
384,176,119185,1,0
400,208,119310,1,0
304,272,119560,1,0
208,336,119810,2,0,C|112:336,1,95
56,256,120310,5,0
64,224,120435,1,0
80,200,120560,1,0
104,184,120685,1,0
136,176,120810,1,0
160,192,120935,1,0
176,216,121060,1,0
184,248,121185,1,0
168,136,122185,6,4,B|256:74|360:144,1,190
256,192,122935,1,0
169,248,123185,2,4,B|256:310|346:248,1,190
432,192,123935,1,0
344,104,124185,2,4,B|344:296,1,190
256,192,124935,1,0
168,294,125185,2,4,B|168:104,1,190
256,64,125935,5,0
312,144,126185,2,0,B|336:200|272:240,1,95
288,228,126560,1,0
200,192,126810,1,0
200,192,126935,1,0
64,192,127185,5,2
256,0,127685,1,2
448,192,128185,1,2
256,384,128685,1,2
256,192,129185,5,6
256,192,129310,12,0,129685
168,320,130185,2,0,B|96:304|96:224,1,95
100,260,130560,1,4
96,168,130810,1,2
96,168,130935,1,2
96,168,131060,1,2
96,168,131185,2,4,B|104:80|208:64,1,142.5
408,192,131935,5,0
336,256,132185,2,2,B|336:120,1,95
304,128,132560,2,2,B|304:224,1,95
264,200,132935,2,4,B|264:136,2,47.5
120,184,133560,1,4
256,192,133935,5,0
224,112,134185,2,0,C|112:112,1,95
112,147,134560,1,0
138,171,134685,2,0,C|138:219,1,47.5
112,240,134935,1,0
138,270,135060,2,0,C|282:270,1,142.5
336,192,135685,1,0
272,112,135935,1,0
336,32,136185,1,0
400,112,136435,1,0
432,144,136560,1,0
464,176,136685,1,0
464,304,136935,1,0
464,304,137060,1,0
384,64,137435,6,0,B|416:112|376:160,1,95
312,216,137935,1,0
272,192,138060,1,0
232,168,138185,1,4
136,136,138435,2,0,B|72:136|56:192,1,95
64,272,138935,1,0
64,272,139060,1,0
144,320,139310,1,0
232,208,139685,5,0
232,208,139810,1,0
232,208,139935,1,0
320,248,140185,2,0,B|368:272,2,47.5
232,208,140685,2,0,B|152:160,1,47.5
104,136,141060,1,0
96,208,141435,6,0,B|85:88|208:64,1,190
272,64,142185,1,0
344,64,142435,2,0,B|344:168,1,95
344,232,142935,5,0
264,232,143185,1,0
184,232,143435,2,0,B|80:232,2,95
136,168,144185,1,0
88,112,144435,5,0
136,168,144685,1,0
184,112,144935,1,0
232,56,145185,1,0
304,56,145435,2,0,B|304:192,2,95
256,192,146185,5,0
448,192,146685,1,0
256,192,147185,1,2
112,192,147560,1,2
112,48,147935,1,2
256,48,148310,5,0
192,112,148560,1,0
192,160,148685,1,0
192,208,148810,1,0
192,256,148935,1,0
192,304,149060,1,0
192,352,149185,1,2
96,352,149435,1,2
96,304,149560,1,2
96,160,149935,1,2
192,160,150185,5,0
384,160,150685,1,0
384,352,151185,1,2
384,208,151560,1,2
384,352,151935,1,2
384,256,152185,5,0
384,64,152685,1,0
192,64,153185,1,6
192,160,153435,1,6
240,80,153685,1,6
240,176,153935,1,6
336,176,154185,5,0
336,368,154685,1,0
144,368,155185,1,2
240,272,155560,1,2
240,128,155935,1,2
384,128,156310,5,0
384,224,156560,1,0
336,224,156685,1,0
288,224,156810,1,0
240,224,156935,1,0
192,224,157060,1,0
144,224,157185,1,2
144,128,157435,1,2
144,80,157560,1,2
288,80,157935,1,2
384,80,158185,5,0
384,272,158685,1,0
256,144,159185,1,2
256,288,159560,1,2
256,144,159935,1,2
304,64,160185,6,6,B|208:64,1,95
208,160,160685,2,6,B|304:160,1,95
208,160,161185,2,6,B|208:48,1,95,0|0
304,64,161685,2,6,B|304:160,1,95
256,112,162185,1,6
128,48,170185,5,2
104,80,170310,1,0
96,120,170435,1,0
104,160,170560,1,0
128,192,170685,1,2
152,160,170810,1,0
192,144,170935,1,0
232,160,171060,1,0
256,192,171185,1,2
256,320,171560,1,2
256,96,171935,5,4
384,48,172185,5,2
408,80,172310,1,0
416,120,172435,1,0
408,160,172560,1,0
384,192,172685,1,2
360,160,172810,1,0
320,144,172935,1,0
280,160,173060,1,0
256,192,173185,1,2
256,320,173560,1,2
256,96,173935,5,4
184,160,174185,1,0
232,232,174435,2,0,B|280:232,1,47.5
328,160,174810,1,0
256,96,175060,1,4
112,144,175435,5,0
112,240,175685,1,0
256,240,175935,1,2
256,192,176060,1,2
256,144,176185,1,2
400,144,176435,1,0
400,240,176685,1,0
280,320,176935,1,6
232,320,177060,1,6
256,192,177435,5,0
256,288,177685,1,0
352,336,177935,1,0
432,272,178185,2,0,C|432:176,1,95
432,176,178560,1,0
432,176,178685,1,0
304,128,178935,1,0
304,128,179060,2,0,C|128:128,1,142.5
64,176,179685,5,0
160,256,179935,1,0
256,192,180185,2,0,C|384:192,1,95
384,160,180560,1,0
356,131,180685,1,0
448,64,180935,1,0
448,64,181060,1,0
352,104,181435,5,2
256,80,181685,1,0
160,104,181935,1,0
136,192,182185,5,0
168,192,182310,1,2
200,192,182435,1,0
232,192,182560,2,0,B|288:192,1,47.5,0|2
312,192,182810,1,0
344,192,182935,1,0
376,192,183060,1,2
352,280,183435,5,0
256,304,183685,1,0
160,280,183935,1,2
256,192,184185,12,6,185185
256,192,185435,1,6
256,192,185685,1,6
256,192,185935,1,6
256,192,186185,5,0
448,192,186685,1,0
352,32,187185,1,2
208,32,187560,1,2
64,32,187935,1,2
128,160,188310,5,0
224,160,188560,1,0
256,192,188685,1,0
288,160,188810,1,0
320,192,188935,1,0
352,160,189060,1,0
384,192,189185,1,0
480,192,189435,1,0
448,224,189560,1,0
448,80,189935,1,0
352,80,190185,5,0
352,272,190685,1,0
192,176,191185,1,2
336,176,191560,1,2
480,176,191935,1,2
256,192,192185,12,4,193685
256,192,194185,5,0
448,192,194685,1,0
288,96,195185,2,2,B|288:160|368:192|352:240,3,142.5
352,320,196560,5,0
304,320,196685,1,0
256,320,196810,1,0
208,320,196935,1,0
160,320,197060,1,0
112,320,197185,1,0
112,224,197435,1,0
160,224,197560,1,0
304,224,197935,1,0
304,128,198185,5,0
112,128,198685,1,0
208,288,199185,1,2
352,288,199560,1,2
272,176,199935,1,2
320,96,200185,6,0,B|432:96,1,95
416,192,200685,2,0,B|416:96,1,95
512,96,201185,2,0,B|416:96,1,95
416,0,201685,2,0,B|416:96,1,95
416,96,202185,5,0
224,96,202685,1,0
32,96,203185,1,2
176,96,203560,1,2
32,96,203935,1,2
128,192,204310,5,0
224,192,204560,2,0,B|224:144,1,47.5,0|0
224,96,204810,2,0,B|176:96,1,47.5
128,96,205060,2,0,B|128:144,1,47.5
128,240,205435,2,0,B|176:240,1,47.5
320,240,205935,1,0
416,240,206185,6,2,B|224:240,2,190
416,96,207560,1,2
272,96,207935,1,2
256,192,208185,12,6,208685
256,192,208935,12,6,209685
256,192,210185,5,0
256,384,210685,1,0
304,208,211185,1,2
304,64,211560,1,2
432,128,211935,1,2
288,128,212310,6,0,B|192:128,1,95
256,192,212685,1,0
224,224,212810,2,0,B|224:176,1,47.5,0|0
176,176,213060,1,0
128,176,213185,1,0
48,240,213435,1,0
48,192,213560,2,0,B|48:48,1,142.5
96,128,214185,5,0
288,128,214685,1,0
288,320,215185,1,0
432,320,215560,1,0
352,208,215935,1,0
352,16,216185,6,6,B|160:16,1,190
160,208,216685,2,6,B|352:208,1,190
160,208,217185,2,6,B|160:16,1,190
352,16,217685,2,6,B|352:208,1,190
256,112,218185,5,6
496,368,218685,1,0
16,368,219185,1,0
16,176,219435,1,0
208,176,219685,1,0
480,176,220060,1,0
256,336,220435,1,0
256,48,220810,1,0
400,288,221185,1,0
400,96,221435,1,0
400,288,221685,1,0
32,192,222185,5,0
400,192,222685,1,0
64,336,223185,1,0
256,336,223435,1,0
448,336,223685,1,0
256,16,224185,1,6
256,208,224435,1,6
16,64,224810,1,6
288,64,225185,1,6
