osu file format v5

[General]
AudioFilename: Hyadain - The World Warrior (Street Fighter II).mp3
AudioLeadIn: 0
PreviewTime: -1
Countdown: 1
SampleSet: Normal
EditorBookmarks: 7548,24045,41542,57538,73535,96031,113527,129524,141022,145771,168516,201760

[Metadata]
Title:The World Warrior
Artist:Hyadain
Creator:ryoga316
Version:Hard

[Difficulty]
HPDrainRate:7
CircleSize:5
OverallDifficulty:7
SliderMultiplier:1.4
SliderTickRate:1

[Events]
//Background and Video events
0,0,"sfposter.jpg"
//Break Periods
2,15997,17146
2,23995,25395
2,79984,81133
2,87982,97130
2,151719,153269
2,162217,169266
2,191962,193111
2,199960,201110
2,207708,209258
//Storyboard Layer 0 (Background)
//Storyboard Layer 1 (Failing)
//Storyboard Layer 2 (Passing)
//Storyboard Layer 3 (Foreground)
//Storyboard Sound Samples
//Background Colour Transformations
3,100,163,162,255

[TimingPoints]
2050,499.9,4,1,0,70

[HitObjects]
160,64,10048,1,0
192,96,10298,1,0
192,64,10548,1,0
192,32,10798,1,0
224,64,11048,2,0,B|372:64|384:64,1,140
384,128,12297,1,0
375,128,12547,1,0
368,128,12714,1,0
360,128,13047,2,0,B|200:128,1,140
160,128,14047,1,0
128,160,14297,1,0
96,128,14547,1,0
64,160,14797,1,0
96,192,15047,1,0
64,224,15297,1,0
96,224,15547,1,0
96,256,15797,1,0
160,160,18046,5,0
192,192,18296,1,0
192,160,18546,1,0
192,128,18796,1,0
224,160,19046,2,0,B|372:160|384:160,1,140
384,224,20295,1,0
375,224,20545,1,0
368,224,20712,1,0
360,224,21045,2,0,B|200:224,1,140
160,224,22045,1,0
128,256,22295,1,0
96,224,22545,1,0
64,256,22795,1,0
96,288,23045,1,0
64,320,23295,1,0
96,320,23545,1,0
96,352,23795,1,0
192,320,26295,5,0
224,288,26545,1,0
256,320,26795,1,0
288,288,27045,1,0
320,320,27294,1,0
352,320,27544,1,0
384,320,27794,1,0
416,288,28044,1,0
384,256,28294,1,0
416,224,28544,1,0
384,192,28794,1,0
416,160,29044,1,0
384,128,29294,1,0
416,96,29544,1,0
384,64,29794,1,0
320,64,30294,5,0
288,96,30544,1,0
256,128,30794,1,0
224,160,31044,1,0
192,192,31294,1,0
160,224,31544,1,0
128,256,31794,1,0
160,256,32044,1,0
192,256,32293,1,0
224,224,32543,1,0
256,192,32793,1,0
288,160,33043,1,0
256,128,33293,1,0
224,96,33543,1,4
160,64,34043,5,0
128,64,34293,1,0
96,64,34543,1,0
64,64,35043,2,0,B|160:160|172:183,1,140
224,160,36043,1,0
256,160,36293,1,0
288,160,36543,1,0
320,160,36793,1,0
352,160,37043,2,0,B|480:256,1,140
416,256,38292,5,0
384,288,38542,1,0
352,320,38792,1,0
320,320,39042,1,0
288,320,39292,1,0
256,288,39542,1,0
224,256,39792,1,0
192,256,40042,1,0
160,256,40292,1,0
128,224,40542,2,4,B|63:162|128:96,1,140
180,64,42042,6,2,B|340:96,1,140
320,128,43041,2,2,B|160:160,1,140
181,192,44041,2,2,B|341:224,1,140
320,256,45041,2,2,B|160:288,1,140
224,320,46041,5,0
256,320,46291,2,2,B|257:254|256:244,1,70
256,224,46791,1,0
288,224,47041,1,0
320,224,47290,2,2,B|320:141,1,70
320,128,47790,1,0
288,128,48040,1,0
256,128,48290,1,0
224,128,48540,2,6,L|143:128|142:233|143:233,1,163.333333333333
160,192,50040,6,2,L|160:271|228:272|228:188|287:188|287:264|346:264|346:188,2,490
128,96,54039,6,2,L|204:95|204:168|210:172,1,140
288,160,55039,2,2,L|375:160|375:224|384:224,1,140
288,224,56039,2,2,L|214:224,1,70
160,224,56539,1,0
192,192,56789,1,0
128,192,57039,1,6
64,32,58038,5,0
160,96,58538,1,0
256,32,59038,1,0
352,96,59538,1,0
448,32,60038,1,0
352,96,60538,1,0
256,160,61038,1,0
160,96,61538,1,0
128,192,62038,6,2,L|192:320,1,140
190,317,63037,2,2,L|350:317,1,140
331,317,64037,2,2,L|395:190,1,140
256,192,65037,1,2
192,128,65537,5,0
160,96,65787,1,0
192,64,66037,1,0
224,96,66287,1,0
256,128,66537,1,0
288,96,66787,1,0
320,64,67037,1,0
352,96,67286,1,0
320,128,67536,1,0
320,192,68036,2,2,L|224:192|224:288|128:288,1,280
256,128,69536,5,0
160,128,70036,1,0
352,128,70536,1,0
208,64,71036,1,0
304,64,71536,1,0
114,64,72036,2,6,L|402:64,1,280
160,64,74035,5,0
192,96,74285,1,0
192,64,74535,1,0
192,32,74785,1,0
224,64,75035,2,0,B|372:64|384:64,1,140
384,128,76284,1,0
375,128,76534,1,0
368,128,76701,1,0
360,128,77034,2,0,B|200:128,1,140
160,128,78034,1,0
128,160,78284,1,0
96,128,78534,1,0
64,160,78784,1,0
96,192,79034,1,0
64,224,79284,1,0
96,224,79534,1,0
96,256,79784,1,0
160,160,82033,5,0
192,192,82283,1,0
192,160,82533,1,0
192,128,82783,1,0
224,160,83033,2,0,B|372:160|384:160,1,140
384,224,84282,1,0
375,224,84532,1,0
368,224,84699,1,0
360,224,85032,2,0,B|200:224,1,140
160,224,86032,1,0
128,256,86282,1,0
96,224,86532,1,0
64,256,86782,1,0
96,288,87032,1,0
64,320,87282,1,0
96,320,87532,1,0
96,352,87782,1,0
64,128,98030,5,0
96,160,98280,1,0
128,192,98530,1,0
160,192,98780,1,0
192,160,99030,1,0
224,128,99280,1,0
256,160,99530,1,0
288,128,99780,1,0
320,128,100030,1,0
352,160,100280,1,0
384,128,100530,1,0
416,160,100780,1,0
448,192,101030,1,0
416,224,101280,2,0,L|320:224|256:192,1,140
224,96,102279,6,0,L|308:96|313:96,3,70
288,192,103279,1,0
256,160,103529,1,0
224,192,103779,1,0
256,224,104029,1,0
224,256,104279,2,0,L|308:256|313:256,3,70
256,192,105279,1,4
160,192,106029,6,2,L|160:96,1,70
192,128,106529,2,2,L|288:128,1,70
288,128,107029,2,2,L|384:128,1,70
384,128,107528,2,2,L|384:224,1,70
352,288,108028,2,2,L|267:288|267:206|195:206|197:87,1,350
256,64,110028,6,2,L|255:148,2,70
224,96,110778,1,0
288,96,111028,1,0
256,160,111278,1,0
256,256,111778,2,2,L|255:340,2,70
224,288,112528,1,4
288,288,112778,1,4
256,352,113028,1,4
192,320,114027,5,0
320,320,114527,1,0
256,256,115027,1,2
224,224,115277,1,2
288,224,115527,1,2
256,192,115777,1,2
192,160,116027,1,0
320,160,116527,1,0
256,96,117027,1,2
224,64,117277,1,2
288,64,117527,1,2
192,32,118026,5,0
224,32,118276,2,2,L|288:64,1,70
320,96,119026,1,0
288,96,119276,2,2,L|224:128,1,70
192,160,120026,1,0
224,160,120276,2,2,L|288:192,1,70
256,224,121026,1,6
160,256,122026,6,0,B|96:192|160:128,1,140
352,256,123025,2,0,B|416:192|352:128,1,140
320,64,124025,2,0,B|254:9|182:68,1,140
192,320,125025,2,0,B|256:352|335:311,1,140
256,192,126025,5,0
192,128,126525,1,0
320,128,127025,1,0
192,256,127524,1,0
320,256,128024,1,0
384,192,128524,1,0
128,192,129024,1,6
128,128,130024,5,0
96,96,130274,1,0
128,64,130524,1,0
160,64,131024,2,2,B|307:120,1,140
384,128,132024,1,0
416,96,132273,1,0
384,64,132523,1,0
320,64,133023,2,2,B|184:112,1,140
128,160,134023,5,0
160,192,134273,1,0
192,160,134523,1,0
224,192,134773,1,0
256,160,135023,1,0
288,192,135273,1,0
320,160,135523,1,0
352,192,135773,1,0
384,160,136023,1,0
352,128,136273,1,0
288,128,136523,1,0
224,128,136773,1,0
160,128,137023,1,0
128,96,137272,6,0,L|127:179|127:256|127:316|193:316|262:316|344:316|411:316,2,490
192,64,141522,5,0
320,64,142022,1,0
256,128,142521,1,0
192,192,143021,1,0
320,192,143521,1,0
119,256,144021,2,0,L|407:256,1,280
96,224,146021,6,0,L|176:224|176:156|176:168,1,140
224,160,147021,1,0
256,128,147270,1,0
224,96,147520,1,0
256,64,147770,1,0
352,64,148270,1,0
384,96,148520,1,0
352,128,148770,1,0
384,160,149020,1,0
352,192,149270,1,0
384,224,149520,1,0
320,224,150020,2,0,L|241:225|241:291|242:292,1,140
192,288,151020,2,0,L|64:192,1,140
96,224,154019,6,0,L|176:224|176:156|176:168,1,140
224,160,155019,1,0
256,128,155268,1,0
224,96,155518,1,0
256,64,155768,1,0
352,64,156268,1,0
384,96,156518,1,0
352,128,156768,1,0
384,160,157018,1,0
352,192,157268,1,0
384,224,157518,1,0
320,224,158018,2,0,L|241:225|241:291|242:292,1,140
192,288,159018,2,0,L|64:192,1,140
160,160,160018,5,0
192,128,160268,1,0
192,192,160518,1,0
224,160,160768,1,0
256,128,161018,1,0
256,192,161267,1,0
288,160,161517,1,0
320,128,161767,1,0
320,192,162017,1,4
64,32,170016,5,0
160,96,170516,1,0
256,32,171016,1,0
352,96,171516,1,0
448,32,172016,1,0
352,96,172516,1,0
256,160,173016,1,0
160,96,173516,1,0
128,192,174016,6,2,L|192:320,1,140
190,317,175015,2,2,L|350:317,1,140
331,317,176015,2,2,L|395:190,1,140
256,192,177015,1,2
192,128,177515,5,0
160,96,177765,1,0
192,64,178015,1,0
224,96,178265,1,0
256,128,178515,1,0
288,96,178765,1,0
320,64,179015,1,0
352,96,179264,1,0
320,128,179514,1,0
320,192,180014,2,2,L|224:192|224:288|128:288,1,280
256,128,181514,5,0
160,128,182014,1,0
352,128,182514,1,0
208,64,183014,1,0
304,64,183514,1,0
114,64,184014,2,6,L|402:64,1,280
160,64,186013,5,0
192,96,186263,1,0
192,64,186513,1,0
192,32,186763,1,0
224,64,187013,2,0,B|372:64|384:64,1,140
384,128,188262,1,0
375,128,188512,1,0
368,128,188679,1,0
360,128,189012,2,0,B|200:128,1,140
160,128,190012,1,0
128,160,190262,1,0
96,128,190512,1,0
64,160,190762,1,0
96,192,191012,1,0
64,224,191262,1,0
96,224,191512,1,0
96,256,191762,1,0
160,160,194011,5,0
192,192,194261,1,0
192,160,194511,1,0
192,128,194761,1,0
224,160,195011,2,0,B|372:160|384:160,1,140
384,224,196260,1,0
375,224,196510,1,0
368,224,196677,1,0
360,224,197010,2,0,B|200:224,1,140
160,224,198010,1,0
128,256,198260,1,0
96,224,198510,1,0
64,256,198760,1,0
96,288,199010,1,0
64,320,199260,1,0
96,320,199510,1,0
96,352,199760,1,0
96,224,202010,6,0,L|176:224|176:156|176:168,1,140
224,160,203010,1,0
256,128,203259,1,0
224,96,203509,1,0
256,64,203759,1,0
352,64,204259,1,0
384,96,204509,1,0
352,128,204759,1,0
384,160,205009,1,0
352,192,205259,1,0
384,224,205509,1,0
320,224,206009,2,0,L|241:225|241:291|242:292,1,140
192,288,207009,2,0,L|64:192,1,140
96,224,210008,6,0,L|176:224|176:156|176:168,1,140
224,160,211008,1,0
256,128,211257,1,0
224,96,211507,1,0
256,64,211757,1,0
352,64,212257,1,0
384,96,212507,1,0
352,128,212757,1,0
384,160,213007,1,0
352,192,213257,1,0
384,224,213507,1,0
320,224,214007,2,0,L|241:225|241:291|242:292,1,140
192,288,215007,2,0,L|64:192,1,140
160,160,216007,5,0
192,128,216257,1,0
192,192,216507,1,0
224,160,216757,1,0
256,128,217007,1,0
256,192,217256,1,0
288,160,217506,1,0
320,128,217756,1,0
320,192,218006,1,4
352,160,218506,5,0
256,96,219006,1,0
256,224,219506,1,0
160,160,220006,1,0
160,288,220506,1,0
352,288,221006,1,0
256,352,221506,1,0
320,224,222006,6,0,L|220:125,1,140
288,128,223005,2,0,L|188:237,1,140
256,192,224005,1,4
224,160,224255,1,4
224,224,224505,1,4
288,160,224755,1,4
288,224,225005,1,4
