osu file format v13

[General]
AudioFilename: Start it right away.mp3
AudioLeadIn: 2000
PreviewTime: 61640
Countdown: 0
SampleSet: Soft
StackLeniency: 0.7
Mode: 0
LetterboxInBreaks: 0
WidescreenStoryboard: 0

[Editor]
Bookmarks: 13821,25458,26912,37094,54549,67644
DistanceSpacing: 1.6
BeatDivisor: 4
GridSize: 4
TimelineZoom: 1

[Metadata]
Title:Start it right away (TV Size)
TitleUnicode:Start it right away (TV Size)
Artist:Hyadain
ArtistUnicode:Hyadain
Creator:S h i o n
Version:Insane
Source:Kuroko no Basuke
Tags:JoJo No_Gu Yasora kanpakyin ending basketball KnB
BeatmapID:195586
BeatmapSetID:53885

[Difficulty]
HPDrainRate:7
CircleSize:4
OverallDifficulty:8
ApproachRate:8
SliderMultiplier:1.8
SliderTickRate:2

[Events]
//Background and Video events
Video,100,"ED.avi"
0,0,"BG.jpg",0,0
//Break Periods
//Storyboard Layer 0 (Background)
//Storyboard Layer 1 (Fail)
//Storyboard Layer 2 (Pass)
//Storyboard Layer 3 (Foreground)
//Storyboard Sound Samples
//Background Colour Transformations
3,100,163,162,255

[TimingPoints]
731,363.636363636364,4,2,0,50,1,0
731,-133.333333333333,4,2,0,50,0,0
10731,-200,4,2,0,50,0,0
12549,-200,4,2,0,35,0,0
12731,-133.333333333333,4,2,1,40,0,0
13276,-83.3333333333333,4,2,1,50,0,0
13640,-100,4,2,1,60,0,0
13821,-100,4,2,2,70,0,0
15458,-100,4,2,1,70,0,0
16367,-100,4,2,2,70,0,0
16731,-100,4,2,1,70,0,0
17640,-100,4,2,2,70,0,0
18003,-100,4,2,1,70,0,0
18912,-100,4,2,2,70,0,0
20912,-100,4,2,1,70,0,0
21640,-100,4,2,1,50,0,0
21731,-100,4,2,1,70,0,0
24731,-83.3333333333333,4,2,1,70,0,0
25458,-100,4,2,2,70,0,0
27094,-100,4,2,1,70,0,0
27640,-100,4,2,2,70,0,0
27821,-100,4,2,1,70,0,0
28549,-100,4,2,2,70,0,0
29640,-100,4,2,1,70,0,0
31094,-100,4,2,2,70,0,0
34185,-100,4,2,2,70,0,0
36185,-100,4,2,1,70,0,0
37094,-133.333333333333,4,2,2,55,0,0
37821,-133.333333333333,4,2,2,60,0,0
38367,-133.333333333333,4,2,1,60,0,0
40003,-133.333333333333,4,2,2,60,0,0
41276,-133.333333333333,4,2,1,60,0,0
42912,-133.333333333333,4,2,2,60,0,0
43821,-133.333333333333,4,2,1,60,0,0
44367,-133.333333333333,4,2,2,60,0,0
45458,-133.333333333333,4,2,1,60,0,0
46003,-133.333333333333,4,2,1,60,0,0
46367,-133.333333333333,4,2,2,60,0,0
47276,-133.333333333333,4,2,1,60,0,0
47821,-133.333333333333,4,2,2,60,0,0
48003,-133.333333333333,4,2,1,60,0,0
48185,-133.333333333333,4,2,2,60,0,0
48731,-133.333333333333,4,2,1,60,0,0
49276,-133.333333333333,4,2,2,60,0,0
49821,-133.333333333333,4,2,1,60,0,0
50185,-133.333333333333,4,2,2,60,0,0
50731,-133.333333333333,4,2,1,60,0,0
50912,-133.333333333333,4,2,2,60,0,0
51640,-133.333333333333,4,2,1,60,0,0
53094,-83.3333333333333,4,2,1,60,0,0
54549,-100,4,1,1,60,0,0
54731,-100,4,2,1,60,0,0
54821,-100,4,1,1,60,0,0
56185,-100,4,2,1,60,0,0
56276,-100,4,1,1,60,0,0
57821,-100,4,1,0,70,0,0
58912,-100,4,1,1,70,0,0
60731,-100,4,2,1,70,0,0
60912,-200,4,2,1,65,0,0
61549,-100,4,2,1,60,0,0
61640,-100,4,2,1,70,0,1
62549,-100,4,2,2,70,0,1
62821,-100,4,2,1,70,0,1
63276,-100,4,2,2,70,0,1
63458,-100,4,2,1,70,0,1
64003,-100,4,2,2,70,0,1
64094,-100,4,2,1,70,0,1
65458,-100,4,2,2,70,0,1
65731,-100,4,2,1,70,0,1
66185,-100,4,2,2,70,0,1
66367,-100,4,2,1,70,0,1
66912,-100,4,2,2,70,0,1
67003,-100,4,2,1,70,0,1
73458,-100,4,2,2,70,0,1
76185,-100,4,2,1,70,0,1
76367,-100,4,2,2,70,0,1
76549,-100,4,2,1,70,0,1
77276,-100,4,2,1,70,0,1
77640,-100,4,2,1,70,0,1
78185,-100,4,1,0,70,0,1
78367,-100,4,2,1,70,0,1
82276,-100,4,1,1,48,0,1
82367,-100,4,1,1,50,0,1
82458,-100,4,1,1,52,0,1
82549,-100,4,1,1,54,0,1
82640,-100,4,1,1,56,0,1
82731,-100,4,1,1,58,0,1
82821,-100,4,1,1,60,0,1
82912,-100,4,1,1,62,0,1
83003,-100,4,1,1,64,0,1
83094,-100,4,1,1,66,0,1
83185,-100,4,2,1,66,0,1
86549,-100,4,2,1,5,0,0

[Colours]
Combo1 : 228,228,228
Combo2 : 210,0,0
Combo3 : 142,142,253
Combo4 : 255,90,11

[HitObjects]
195,340,185,5,0,0:0:0:0:
196,340,549,1,0,0:0:0:0:
195,340,731,2,0,B|232:304|232:256|208:216,1,134.999995976687,2|0,0:0|0:0,0:0:0:0:
144,272,1276,2,0,B|288:272,1,134.999995976687,2|0,0:0|0:0,0:0:0:0:
360,312,1821,6,0,B|332:276|360:248,1,67.4999979883433
464,184,2185,2,0,B|488:216|464:248,1,67.4999979883433,2|0,0:0|0:0,0:0:0:0:
384,120,2549,2,0,B|384:80|424:64,1,67.4999979883433,0|0,0:0|0:0,0:0:0:0:
344,120,2912,2,0,B|296:120|296:120|264:104|264:104|208:104,1,134.999995976687,2|0,0:0|0:0,0:0:0:0:
136,152,3458,5,0,0:0:0:0:
112,232,3640,2,0,B|88:312,1,67.4999979883433,2|0,0:0|0:0,0:0:0:0:
240,192,4003,1,0,0:0:0:0:
152,248,4185,2,0,B|90:299,1,67.4999979883433,2|0,0:0|0:0,0:0:0:0:
340,244,4549,5,0,0:0:0:0:
320,252,4731,1,0,0:0:0:0:
300,260,4912,1,2,0:0:0:0:
408,300,5094,6,0,B|480:300,1,67.4999979883433,2|0,0:0|0:0,0:0:0:0:
404,176,5458,2,0,B|440:112,1,67.5000025749208
348,268,5821,2,0,L|428:268,1,67.5000025749208,2|0,0:0|0:0,0:0:0:0:
408,108,6185,2,0,L|448:36,1,67.5000025749208,0|2,0:0|0:0,0:0:0:0:
496,172,6549,6,0,B|488:212|420:232|380:208,1,135.000005149842,2|0,0:0|0:0,0:0:0:0:
319,29,7094,2,0,B|276:40|256:96|284:140,1,135.000005149842,2|2,0:0|0:0,0:0:0:0:
416,296,7821,5,2,0:0:0:0:
216,260,8185,1,2,0:0:0:0:
256,64,8549,1,0,0:0:0:0:
256,64,8912,5,2,0:0:0:0:
272,152,9094,1,0,0:0:0:0:
232,232,9276,1,0,0:0:0:0:
184,160,9458,2,0,B|152:152|136:128|136:88|152:64|176:56,1,134.999995976687,2|0,0:0|0:0,0:0:0:0:
336,56,10003,2,0,B|360:64|376:88|376:128|360:152|328:160,1,134.999995976687,2|0,0:0|0:0,0:0:0:0:
328,160,10549,1,0,0:0:0:0:
263,217,10731,6,0,B|215:219|183:251|167:299|183:355|223:395|287:395|343:379|367:331|367:283|349:241|312:216|272:216,1,450,2|2,0:0|0:0,0:0:0:0:
271,289,12731,1,2,0:0:0:0:
272,288,13276,6,0,B|230:288|230:288|204:276|204:276|160:276,1,107.999996704102
380,312,13821,6,0,B|417:316|455:304|483:264|490:223|475:189,1,180,6|8,0:0|0:0,0:0:0:0:
432,120,14367,1,0,0:0:0:0:
316,132,14549,2,0,B|282:141|246:115|239:69|267:45,1,135,0|0,0:0|0:0,0:0:0:0:
312,40,14912,2,0,P|356:40|404:44,1,90,8|0,0:0|0:0,0:0:0:0:
480,188,15276,6,0,B|436:188|388:180|388:180,1,90,2|2,0:0|0:0,0:0:0:0:
280,168,15640,2,0,B|244:196|248:252|248:252,1,90,8|2,0:0|0:0,0:0:0:0:
244,364,16003,2,0,B|300:372|328:336|328:336,1,90,0|10,0:0|0:0,0:0:0:0:
248,249,16367,1,8,0:0:0:0:
164,308,16549,5,0,0:0:0:0:
164,308,16640,1,0,0:0:0:0:
164,308,16731,2,0,B|120:300|60:300|60:300,1,90,0|2,0:0|0:0,0:0:0:0:
32,220,17094,1,8,0:0:0:0:
124,144,17276,2,0,B|176:112|172:56|140:8|92:16,1,180,2|0,0:0|0:0,0:0:0:0:
40,88,17821,1,8,0:0:0:0:
204,176,18003,6,0,B|236:196|288:200|344:196|380:168|380:168,1,180,2|2,0:0|0:0,0:0:0:0:
376,52,18549,2,0,B|320:56|304:108|304:108,1,90,8|2,0:0|0:0,0:0:0:0:
468,216,18912,2,0,B|471:213|500:180|472:132,1,90,0|10,0:0|0:0,0:0:0:0:
377,170,19276,1,8,0:0:0:0:
360,284,19458,5,2,0:0:0:0:
360,284,19549,1,0,0:0:0:0:
360,284,19640,2,0,B|348:328|400:360|400:360,1,90,6|0,0:0|0:0,0:0:0:0:
456,288,20003,1,8,0:0:0:0:
377,170,20185,2,0,B|293:182|197:170|197:170,1,180
116,124,20731,1,8,0:0:0:0:
184,28,20912,2,0,P|276:16|364:28,1,180
472,76,21458,6,0,B|456:120|404:132|404:132,1,90,8|4,0:0|0:0,0:0:0:0:
380,224,21821,2,0,P|336:208|308:156,1,90
348,92,22185,1,8,0:0:0:0:
380,224,22367,1,0,0:0:0:0:
256,176,22549,6,0,P|160:164|60:184,1,180,4|8,0:0|0:0,0:0:0:0:
20,308,23094,2,0,P|108:321|197:309,1,180,4|8,0:0|0:0,0:0:0:0:
256,204,23549,5,0,0:0:0:0:
248,220,23640,2,0,P|248:252|288:304,1,90,8|2,0:0|0:0,0:0:0:0:
144,188,24003,5,0,0:0:0:0:
272,176,24185,1,2,0:0:0:0:
152,48,24367,5,0,0:0:0:0:
292,136,24549,1,2,0:0:0:0:
367,92,24731,6,0,P|447:185|328:154,1,323.999990112305
328,160,25458,6,0,B|344:236|344:236|352:240|352:240|380:340,1,180,6|8,0:0|0:0,0:0:0:0:
456,288,26003,1,0,0:0:0:0:
388,192,26185,2,0,B|328:132|260:172|260:172,1,135,0|0,0:0|0:0,0:0:0:0:
224,188,26549,2,0,B|204:232|208:280|208:280,1,90,8|0,0:0|0:0,0:0:0:0:
312,376,26912,2,0,B|332:336|328:284|328:284,1,90,2|2,0:0|0:0,0:0:0:0:
496,220,27276,2,0,B|456:240|404:224|404:224,1,90,8|2,0:0|0:0,0:0:0:0:
348,92,27640,2,0,B|388:72|440:88|440:88,1,90,0|8,0:0|0:0,0:0:0:0:
356,172,28003,5,8,0:0:0:0:
260,236,28185,1,0,0:0:0:0:
260,236,28276,1,0,0:0:0:0:
260,236,28367,2,0,B|172:260|72:240|72:240,1,180,4|8,0:0|0:0,0:0:0:0:
12,116,28912,2,0,B|100:92|200:112|200:112,1,180,4|0,0:0|0:0,0:0:0:0:
256,172,29458,5,8,0:0:0:0:
168,288,29640,1,4,0:0:0:0:
168,288,30003,6,0,L|52:300|52:300,1,90,0|8,0:0|0:0,0:0:0:0:
100,208,30367,2,0,B|192:200|192:200|238:209|256:256,1,180,4|8,0:0|0:0,0:0:0:0:
308,320,30912,5,8,0:0:0:0:
412,264,31094,1,2,0:0:0:0:
412,264,31458,5,0,0:0:0:0:
368,188,31640,1,8,0:0:0:0:
252,184,31821,2,0,B|207:211|144:185|117:140|142:99|142:99,1,180,2|0,0:0|0:0,0:0:0:0:
192,24,32367,5,8,0:0:0:0:
304,52,32549,1,2,0:0:0:0:
304,52,32912,5,2,0:0:0:0:
272,136,33094,1,8,0:0:0:0:
296,252,33276,2,0,B|304:300|348:316|408:320|440:276,1,180,2|0,0:0|0:0,0:0:0:0:
496,208,33821,1,8,0:0:0:0:
380,208,34003,5,0,0:0:0:0:
380,208,34094,1,0,0:0:0:0:
380,208,34185,2,0,B|297:205|281:284|281:284,1,135,2|0,0:0|0:0,0:0:0:0:
272,328,34549,2,0,L|164:336,1,90,8|0,0:0|0:0,0:0:0:0:
72,240,34912,2,0,L|161:233,1,90,2|0,0:0|0:0,0:0:0:0:
248,256,35276,1,8,0:0:0:0:
312,160,35458,2,0,B|356:120|356:40|356:40|388:84,1,180
440,148,36003,5,8,0:0:0:0:
404,232,36185,1,2,0:0:0:0:
264,200,36367,5,0,0:0:0:0:
328,264,36549,1,2,0:0:0:0:
188,300,36731,5,0,0:0:0:0:
276,324,36912,1,2,0:0:0:0:
92,272,37094,5,4,0:0:0:0:
92,272,37640,6,0,B|12:280,1,67.5000025749208,2|2,0:0|0:0,0:0:0:0:
200,152,38185,1,0,0:0:0:0:
200,152,38367,2,0,B|128:120|68:152|68:152,1,135.000005149842,2|0,0:0|0:0,0:0:0:0:
224,300,39094,2,0,B|292:336|356:296|356:296,1,135.000005149842,2|0,0:0|0:0,0:0:0:0:
320,216,39640,1,0,0:0:0:0:
340,132,39821,2,0,L|356:60,1,67.5000025749208,0|2,0:0|0:0,0:0:0:0:
354,66,40549,5,2,0:0:0:0:
444,124,40731,2,0,B|432:196,1,67.5000025749208,2|0,0:0|0:0,0:0:0:0:
216,220,41276,2,0,B|248:164|328:152,1,135.000005149842,2|0,0:0|0:0,0:0:0:0:
376,224,41821,1,0,0:0:0:0:
268,316,42003,2,0,B|208:352|140:316,1,135.000005149842,2|0,0:0|0:0,0:0:0:0:
104,236,42549,5,0,0:0:0:0:
104,236,42731,2,0,B|28:248,1,67.5000025749208,0|2,0:0|0:0,0:0:0:0:
196,100,43276,1,0,0:0:0:0:
196,100,43458,2,0,B|124:148,1,67.5000025749208,2|2,0:0|0:0,0:0:0:0:
176,220,43821,5,2,0:0:0:0:
244,272,44003,1,0,0:0:0:0:
316,220,44185,1,2,0:0:0:0:
308,112,44367,2,0,B|336:48|416:40,1,135.000005149842,2|0,0:0|0:0,0:0:0:0:
413,140,44912,2,0,B|397:208|316:220,1,135.000005149842,2|0,0:0|0:0,0:0:0:0:
244,168,45458,5,2,0:0:0:0:
316,220,45640,1,0,0:0:0:0:
284,304,45821,1,2,0:0:0:0:
200,328,46003,1,0,0:0:0:0:
284,304,46185,1,0,0:0:0:0:
388,336,46367,6,0,B|456:320|480:240,1,135.000005149842,2|0,0:0|0:0,0:0:0:0:
460,160,46912,1,0,0:0:0:0:
460,160,47094,2,0,L|388:136,1,67.5000025749208,0|2,0:0|0:0,0:0:0:0:
324,52,47821,1,2,0:0:0:0:
324,52,48003,1,2,0:0:0:0:
324,52,48185,2,0,L|256:72,2,67.5000025749208,2|0|0,0:0|0:0|0:0,0:0:0:0:
179,54,48731,6,0,B|177:53|160:136|256:152,1,135.000005149842,2|0,0:0|0:0,0:0:0:0:
240,240,49276,2,0,P|312:216|344:160,1,135.000005149842
312,88,49821,1,2,0:0:0:0:
248,152,50003,1,0,0:0:0:0:
168,208,50185,6,0,B|136:216|96:224,1,67.5000025749208,2|0,0:0|0:0,0:0:0:0:
184,336,50731,1,2,0:0:0:0:
256,280,50912,1,2,0:0:0:0:
168,208,51094,2,0,B|108:240|32:224,1,135.000005149842
0,120,51640,2,0,B|60:88|132:104,1,135.000005149842,2|0,0:0|0:0,0:0:0:0:
220,112,52185,2,0,B|296:96|328:36|328:36,1,135.000005149842,2|0,0:0|0:0,0:0:0:0:
327,36,52731,1,2,0:0:0:0:
256,192,53094,12,8,54185,0:0:0:0:
212,56,54549,6,0,B|247:28|311:40|327:88,1,135,2|0,0:0|0:0,0:0:0:0:
320,160,54912,2,0,P|369:166|397:142,1,90,0|2,0:0|0:0,0:0:0:0:
252,124,55276,2,0,P|212:152|208:192,1,90,0|2,0:0|0:0,0:0:0:0:
160,268,55640,1,8,0:0:0:0:
72,276,55821,1,0,0:0:0:0:
208,192,56003,6,0,B|252:168|304:184|320:236,1,135,2|0,0:0|0:0,0:0:0:0:
380,272,56367,2,0,P|352:308|300:312,1,90,8|2,0:0|0:0,0:0:0:0:
376,184,56731,2,0,P|424:188|456:220,1,90,0|2,0:0|0:0,0:0:0:0:
320,232,57094,5,8,0:0:0:0:
288,216,57185,1,0,0:0:0:0:
264,188,57276,1,0,0:0:0:0:
252,152,57367,1,0,0:0:0:0:
264,120,57458,1,0,0:0:0:0:
288,96,57549,1,0,0:0:0:0:
324,84,57640,1,0,0:0:0:0:
484,136,57821,6,0,P|452:160|400:164,1,90,8|0,0:0|0:0,0:0:0:0:
368,152,58094,1,0,0:0:0:0:
336,132,58185,1,0,0:0:0:0:
320,100,58276,1,0,0:0:0:0:
332,64,58367,1,0,0:0:0:0:
444,240,58549,2,0,P|400:248|356:228,1,90,8|0,0:0|0:0,0:0:0:0:
256,132,58912,5,0,0:0:0:0:
188,72,59094,2,0,L|92:52,1,90,0|8,0:0|0:0,0:0:0:0:
48,188,59458,5,0,0:0:0:0:
116,244,59640,1,0,0:0:0:0:
116,244,59821,2,0,L|160:328,1,90,8|8,0:0|0:0,0:0:0:0:
236,200,60185,5,0,0:0:0:0:
172,136,60367,1,0,0:0:0:0:
172,136,60549,2,0,L|80:168,1,90,0|8,0:0|0:0,0:0:0:0:
0,240,60821,5,0,0:0:0:0:
0,244,60912,2,0,B|-4:280|32:320|96:308,1,135,4|0,0:0|0:0,0:0:0:0:
124,232,61640,6,0,B|176:224|216:256|216:256|220:296,1,135,4|0,0:0|0:0,0:0:0:0:
240,328,62003,1,2,0:0:0:0:
280,336,62094,1,0,0:0:0:0:
312,320,62185,1,8,0:0:0:0:
328,280,62276,1,0,0:0:0:0:
360,256,62367,1,2,0:0:0:0:
400,256,62458,1,0,0:0:0:0:
440,272,62549,6,0,B|496:288,3,45,2|0|2|0,0:0|0:0|0:0|0:0,0:0:0:0:
488,248,62912,1,8,0:0:0:0:
488,208,63003,1,0,0:0:0:0:
472,168,63094,1,2,0:0:0:0:
440,136,63185,1,0,0:0:0:0:
400,120,63276,6,0,B|392:64,3,45,2|0|2|0,0:0|0:0|0:0|0:0,0:0:0:0:
352,64,63640,2,0,B|352:8,3,45,8|0|2|0,0:0|0:0|0:0|0:0,0:0:0:0:
352,19,64003,1,2,0:0:0:0:
212,44,64185,2,0,B|156:64|192:132,1,90,4|8,0:0|0:0,0:0:0:0:
276,192,64458,5,0,0:0:0:0:
276,204,64549,2,0,B|284:252|248:284|248:284|200:292,1,135,4|0,0:0|0:0,0:0:0:0:
160,280,64912,1,2,0:0:0:0:
128,256,65003,1,0,0:0:0:0:
120,216,65094,1,8,0:0:0:0:
136,176,65185,1,0,0:0:0:0:
168,152,65276,1,2,0:0:0:0:
160,112,65367,1,0,0:0:0:0:
136,80,65458,6,0,B|152:24|152:16,3,45,2|0|2|0,0:0|0:0|0:0|0:0,0:0:0:0:
184,32,65821,1,8,0:0:0:0:
224,48,65912,1,0,0:0:0:0:
264,40,66003,1,2,0:0:0:0:
296,56,66094,1,0,0:0:0:0:
336,56,66185,6,0,B|392:40,3,45,2|0|2|0,0:0|0:0|0:0|0:0,0:0:0:0:
384,96,66549,2,0,B|440:80,3,45,8|0|2|0,0:0|0:0|0:0|0:0,0:0:0:0:
427,83,66912,1,2,0:0:0:0:
504,204,67094,2,0,B|504:268|440:260,1,90,6|8,0:0|0:0,0:0:0:0:
332,320,67367,5,0,0:0:0:0:
320,316,67458,2,4,B|264:260|196:292,1,135,4|2,0:0|0:0,0:0:0:0:
168,320,67821,1,0,0:0:0:0:
216,212,68003,2,0,B|244:172|300:172,1,90,8|2,0:0|0:0,0:0:0:0:
384,176,68367,1,0,0:0:0:0:
276,80,68549,1,2,0:0:0:0:
216,212,68731,1,8,0:0:0:0:
132,240,68912,6,0,B|98:260|46:252|22:216|26:172|54:148,1,180,4|0,0:0|0:0,0:0:0:0:
128,100,69458,1,8,0:0:0:0:
276,80,69640,2,0,B|315:91|335:129|327:176|296:205|256:201,1,180,2|0,0:0|0:0,0:0:0:0:
172,236,70185,1,8,0:0:0:0:
56,256,70367,6,0,B|12:280|8:332|8:332,1,90,6|0,0:0|0:0,0:0:0:0:
160,336,70731,2,0,B|212:340|248:304,1,90,2|8,0:0|0:0,0:0:0:0:
204,96,71094,2,0,B|152:92|116:128,1,90,0|2,0:0|0:0,0:0:0:0:
236,224,71458,2,0,B|284:204|288:156|288:156,1,90,2|8,0:0|0:0,0:0:0:0:
296,36,71821,6,0,B|340:20|388:44|408:88,1,135,4|0,0:0|0:0,0:0:0:0:
424,128,72185,1,0,0:0:0:0:
356,188,72367,1,2,0:0:0:0:
368,304,72549,2,0,B|272:292|176:304|176:304,1,180,2|0,0:0|0:0,0:0:0:0:
96,160,73094,1,8,0:0:0:0:
184,228,73276,6,0,B|136:236|80:232|80:232,1,90,0|2,0:0|0:0,0:0:0:0:
20,180,73640,1,0,0:0:0:0:
88,36,73821,2,0,B|128:16|192:36|208:76,1,135,8|0,0:0|0:0,0:0:0:0:
232,108,74185,1,2,0:0:0:0:
308,156,74367,1,0,0:0:0:0:
264,236,74549,2,0,B|216:208|224:160,2,90,8|0|2,0:0|0:0|0:0,0:0:0:0:
288,60,75094,5,2,0:0:0:0:
224,164,75276,1,8,0:0:0:0:
312,280,75458,2,0,B|380:316|444:284,1,135,0|0,0:0|0:0,0:0:0:0:
468,248,75821,1,2,0:0:0:0:
416,176,76003,1,8,0:0:0:0:
240,184,76185,6,0,B|208:220|208:272|208:272,1,90,2|2,0:0|0:0,0:0:0:0:
96,304,76549,2,0,B|116:348|164:364,1,90,2|8,0:0|0:0,0:0:0:0:
344,256,76912,2,0,B|312:188|238:184,1,135,2|0,0:0|0:0,0:0:0:0:
196,204,77276,1,2,0:0:0:0:
100,136,77458,1,8,0:0:0:0:
180,52,77640,5,2,0:0:0:0:
180,52,77731,1,0,0:0:0:0:
180,52,77821,2,0,B|224:76|224:132,1,90,0|2,0:0|0:0,0:0:0:0:
164,228,78185,1,0,0:0:0:0:
176,260,78276,1,0,0:0:0:0:
204,280,78367,1,0,0:0:0:0:
240,284,78458,1,0,0:0:0:0:
276,272,78549,2,0,B|340:240|408:276,1,135,2|0,0:0|0:0,0:0:0:0:
444,296,78912,5,8,0:0:0:0:
476,156,79094,2,0,L|512:20,2,135,6|0|8,0:0|0:0|0:0,0:0:0:0:
476,156,79821,1,2,0:0:0:0:
372,200,80003,1,2,0:0:0:0:
260,64,80185,6,0,P|307:58|335:86,1,90,0|0,0:0|0:0,0:0:0:0:
372,200,80549,2,0,B|392:340|392:340,2,135,4|0|8,0:0|0:0|0:0,0:0:0:0:
372,200,81276,1,2,0:0:0:0:
256,188,81458,1,2,0:0:0:0:
144,320,81640,6,0,P|191:325|219:297,2,90
56,124,82276,5,0,0:0:0:0:
64,104,82367,1,0,0:0:0:0:
80,88,82458,1,0,0:0:0:0:
108,68,82549,5,8,0:0:0:0:
144,64,82640,1,0,0:0:0:0:
176,84,82731,1,0,0:0:0:0:
204,120,82821,5,0,0:0:0:0:
248,128,82912,1,0,0:0:0:0:
292,112,83003,1,0,0:0:0:0:
312,56,83094,6,0,B|268:60|244:96|244:96|232:160|280:200,1,180,0|2,0:0|0:0,0:0:0:0:
232,364,83821,2,0,B|274:360|298:324|298:324|310:260|275:232,1,180,2|0,0:0|0:0,0:0:0:0:
408,272,84731,5,4,0:0:0:0:
256,192,84821,12,0,86549,0:0:0:0:
