osu file format v9

[General]
AudioFilename: Nichijou OP.mp3
AudioLeadIn: 2007
PreviewTime: 53806
Countdown: 1
SampleSet: Normal
StackLeniency: 0.7
Mode: 1
LetterboxInBreaks: 1

[Editor]
DistanceSpacing: 1.9
BeatDivisor: 4
GridSize: 8

[Metadata]
Title:Hyadain no Kakakata Kataomoi-C (TV Size)
Artist:Hyadain
Creator:Sushi
Version:Taiko Oni
Source:Nichijou
Tags:ddrddr125 Takuma

[Difficulty]
HPDrainRate:8
CircleSize:5
OverallDifficulty:7
ApproachRate:6
SliderMultiplier:1.4
SliderTickRate:2

[Events]
//Background and Video events
0,0,"nichijou.png"
Video,0,"Nichijou.avi"
//Break Periods
//Storyboard Layer 0 (Background)
//Storyboard Layer 1 (Fail)
//Storyboard Layer 2 (Pass)
//Storyboard Layer 3 (Foreground)
//Storyboard Sound Samples
//Background Colour Transformations
3,100,163,162,255

[TimingPoints]
1156,333.333333333333,4,1,0,75,1,0
31806,-133.333333333333,4,1,0,75,0,0
53639,-100,4,1,0,75,0,0
54139,-100,4,1,0,75,0,1
70473,-100,4,1,0,75,0,0

[Colours]
Combo1 : 0,0,255
Combo2 : 255,0,0
Combo3 : 0,0,128
Combo4 : 255,0,128

[HitObjects]
256,192,489,1,8
256,192,572,1,8
256,192,739,1,8
256,192,822,1,8
256,192,989,1,8
256,192,1072,1,8
256,192,1156,1,0
256,192,1322,1,8
256,192,1489,1,0
256,192,1655,1,8
256,192,1822,1,0
256,192,1989,1,8
256,192,2072,1,8
256,192,2155,1,0
256,192,2322,1,8
256,192,2489,1,0
256,192,2655,1,8
256,192,2822,1,0
256,192,2989,1,8
256,192,3155,1,0
256,192,3239,1,0
256,192,3322,1,8
256,192,3405,1,8
256,192,3489,1,0
256,192,3655,1,8
256,192,3822,1,0
256,192,3989,1,8
256,192,4072,1,8
256,192,4155,1,0
256,192,4322,1,8
256,192,4489,1,0
256,192,4655,1,8
256,192,4739,1,8
256,192,4822,1,8
256,192,4989,1,4
256,192,5322,1,4
256,192,5655,1,4
256,192,5822,1,0
256,192,5905,1,0
256,192,5989,1,8
256,192,6072,1,8
256,192,6155,1,8
256,192,6322,1,8
256,192,6489,1,0
256,192,6655,1,0
256,192,6739,1,0
256,192,6822,1,8
256,192,7155,1,0
256,192,7322,1,8
256,192,7405,1,8
256,192,7488,1,0
256,192,7655,1,8
256,192,7822,1,0
256,192,7988,1,8
256,192,8155,1,0
256,192,8322,1,8
256,192,8488,1,0
256,192,8572,1,0
256,192,8655,1,8
256,192,8738,1,8
256,192,8822,1,0
256,192,8988,1,8
256,192,9155,1,0
256,192,9322,1,0
256,192,9405,1,0
256,192,9488,1,0
256,192,9655,1,0
256,192,9739,1,0
256,192,9822,1,0
256,192,9988,1,0
256,192,10072,1,0
256,192,10155,1,0
256,192,10322,1,12
256,192,10655,1,4
256,192,10988,1,12
256,192,11322,1,0
256,192,11488,1,12
256,192,11655,1,12
256,192,12155,1,8
256,192,12322,1,0
256,192,12405,1,0
256,192,12489,1,8
256,192,12655,1,0
256,192,12822,1,8
256,192,12989,1,0
256,192,13072,1,0
256,192,13155,1,0
256,192,13322,1,0
256,192,13489,1,8
256,192,13655,1,0
256,192,13739,1,0
256,192,13822,1,0
256,192,13989,1,0
256,192,14155,1,8
256,192,14322,1,0
256,192,14405,1,0
256,192,14489,1,0
256,192,14655,1,8
256,192,14822,1,0
256,192,14989,1,8
256,192,15155,1,0
256,192,15322,1,8
256,192,15405,1,8
256,192,15489,1,0
256,192,15655,1,8
256,192,15822,1,0
256,192,15989,1,8
256,192,16155,1,0
256,192,16322,1,8
256,192,16489,1,0
256,192,16572,1,0
256,192,16655,1,8
256,192,16739,1,8
256,192,16822,1,8
256,192,16989,1,4
256,192,17489,1,8
256,192,17656,1,0
256,192,17823,1,0
256,192,17989,1,0
256,192,18072,1,0
256,192,18156,1,8
256,192,18323,1,0
256,192,18406,1,0
256,192,18489,1,0
256,192,18656,1,0
256,192,18823,1,8
256,192,18989,1,0
256,192,19073,1,0
256,192,19156,1,0
256,192,19323,1,0
256,192,19489,1,8
256,192,19656,1,0
256,192,19823,1,0
256,192,19989,1,8
256,192,20072,1,8
256,192,20156,1,0
256,192,20323,1,8
256,192,20489,1,0
256,192,20656,1,8
256,192,20739,1,8
256,192,20823,1,0
256,192,20989,1,8
256,192,21156,1,0
256,192,21239,1,0
256,192,21323,1,8
256,192,21405,1,8
256,192,21489,1,0
256,192,21656,1,8
256,192,21823,1,0
256,192,21906,1,0
256,192,21989,1,8
256,192,22073,1,8
256,192,22156,1,8
256,192,22323,1,12
256,192,22489,1,12
256,192,22822,1,4
256,192,22989,1,0
256,192,23155,1,12
256,192,23322,1,0
256,192,23489,1,0
256,192,23655,1,8
256,192,23822,1,0
256,192,23989,1,8
256,192,24072,1,8
256,192,24155,1,0
256,192,24322,1,8
256,192,24405,1,8
256,192,24489,1,0
256,192,24572,1,8
256,192,24739,1,8
256,192,24822,1,0
256,192,24989,1,8
256,192,25155,1,4
256,192,25489,1,4
256,192,25655,1,0
256,192,25822,1,12
256,192,25989,1,0
256,192,26155,1,0
256,192,26322,1,8
256,192,26489,1,0
256,192,26655,1,8
256,192,26739,1,8
256,192,26822,1,0
256,192,26989,1,8
256,192,27072,1,8
256,192,27155,1,0
256,192,27239,1,0
256,192,27405,1,0
256,192,27489,1,8
256,192,27655,1,8
256,192,27822,1,12
256,192,28155,1,4
256,192,28322,1,0
256,192,28489,1,12
256,192,28655,1,0
256,192,28822,1,0
256,192,28989,1,8
256,192,29155,1,0
256,192,29322,1,8
256,192,29405,1,8
256,192,29489,1,0
256,192,29655,1,8
256,192,29822,1,0
256,192,29905,1,0
256,192,29989,1,8
256,192,30072,1,8
256,192,30155,1,0
256,192,30239,1,0
256,192,30322,1,8
256,192,30405,1,8
256,192,30489,1,0
256,192,30989,1,8
256,192,31322,1,8
256,192,31655,1,8
256,192,32489,1,0
256,192,33155,1,0
256,192,33489,1,0
256,192,33711,1,0
256,192,33822,1,8
256,192,34155,1,8
256,192,34489,1,0
256,192,34822,1,0
256,192,35044,1,8
256,192,35155,1,0
256,192,35489,1,8
256,192,35822,1,0
256,192,36155,1,8
256,192,36378,1,8
256,192,36489,1,8
256,192,36822,1,0
256,192,37044,1,0
256,192,37155,1,0
256,192,37378,1,8
256,192,37711,1,8
256,192,37822,1,0
256,192,38044,1,0
256,192,38155,1,8
256,192,38489,1,0
256,192,38823,1,0
256,192,39045,1,0
256,192,39156,1,8
256,192,39489,1,8
256,192,39823,1,0
256,192,40155,1,8
256,192,40378,1,8
256,192,40489,1,0
256,192,40711,1,8
256,192,40823,1,8
256,192,41156,1,0
256,192,41489,1,8
256,192,41712,1,8
256,192,41823,1,8
256,192,42156,1,0
256,192,42378,1,0
256,192,42489,2,0,B|464:192,1,209.999993741512
256,192,43378,1,0
256,192,43489,1,8
256,192,43822,1,0
256,192,44155,1,8
256,192,44489,1,8
256,192,44822,1,0
256,192,45155,1,0
256,192,45489,1,8
256,192,45711,1,8
256,192,45822,1,8
256,192,46155,1,0
256,192,46489,1,0
256,192,46822,1,8
256,192,47155,1,8
256,192,47489,1,0
256,192,47711,1,0
256,192,47822,1,0
256,192,48155,1,8
256,192,48378,1,0
256,192,48489,1,8
256,192,49155,1,4
256,192,49822,1,4
256,192,50489,1,4
256,192,51155,1,4
256,192,51489,1,0
256,192,51822,1,4
256,192,52489,1,0
256,192,53155,1,0
256,192,53489,1,0
256,192,53822,1,0
256,192,53989,1,0
256,192,54155,1,12
256,192,54322,1,0
256,192,54489,1,0
256,192,54655,1,8
256,192,54739,1,8
256,192,54822,1,0
256,192,54989,1,8
256,192,55155,1,0
256,192,55322,1,8
256,192,55405,1,8
256,192,55489,1,0
256,192,55655,1,8
256,192,55822,1,0
256,192,55989,1,8
256,192,56072,1,8
256,192,56155,1,0
256,192,56322,1,8
256,192,56489,1,0
256,192,56655,1,0
256,192,56739,1,0
256,192,56822,1,0
256,192,56989,1,8
256,192,57155,1,0
256,192,57322,1,0
256,192,57405,1,0
256,192,57489,1,0
256,192,57655,1,8
256,192,57822,1,0
256,192,57989,1,0
256,192,58072,1,0
256,192,58156,1,0
256,192,58322,1,8
256,192,58489,1,0
256,192,58655,1,0
256,192,58739,1,0
256,192,58822,1,0
256,192,58989,1,8
256,192,59155,1,0
256,192,59322,1,8
256,192,59489,1,8
256,192,59655,1,8
256,192,59822,1,0
256,192,59989,1,8
256,192,60072,1,8
256,192,60155,1,0
256,192,60239,1,0
256,192,60322,1,8
256,192,60489,1,0
256,192,60655,1,8
256,192,60739,1,8
256,192,60822,1,0
256,192,60905,1,0
256,192,60989,1,8
256,192,61155,1,0
256,192,61322,1,8
256,192,61405,1,8
256,192,61489,1,0
256,192,61572,1,0
256,192,61655,1,8
256,192,61822,1,0
256,192,61989,1,0
256,192,62072,1,0
256,192,62155,1,0
256,192,62322,1,8
256,192,62489,1,0
256,192,62572,1,0
256,192,62655,1,8
256,192,62739,1,8
256,192,62822,1,0
256,192,62989,1,8
256,192,63155,1,0
256,192,63239,1,0
256,192,63322,1,8
256,192,63405,1,8
256,192,63489,1,0
256,192,63655,1,8
256,192,63822,1,0
256,192,63905,1,0
256,192,63989,1,8
256,192,64072,1,8
256,192,64155,1,0
256,192,64322,1,8
256,192,64489,1,0
256,192,64655,1,0
256,192,64739,1,0
256,192,64822,1,0
256,192,64989,1,0
256,192,65489,1,4
256,192,65822,1,0
256,192,65989,1,0
256,192,66072,1,0
256,192,66155,1,8
256,192,66322,1,8
256,192,66489,1,0
256,192,66655,1,8
256,192,66739,1,8
256,192,66822,1,0
256,192,66989,1,8
256,192,67155,1,0
256,192,67322,1,8
256,192,67405,1,8
256,192,67489,1,0
256,192,67655,1,8
256,192,67822,1,0
256,192,67905,1,0
256,192,67989,1,8
256,192,68072,1,8
256,192,68155,1,0
256,192,68322,1,8
256,192,68489,1,0
256,192,68655,1,8
256,192,68739,1,8
256,192,68822,1,0
256,192,68989,1,0
256,192,69155,1,0
256,192,69239,1,0
256,192,69322,1,8
256,192,69405,1,8
256,192,69489,1,0
256,192,69655,1,8
256,192,69822,1,0
256,192,69989,1,8
256,192,70072,1,8
256,192,70155,1,8
256,192,70322,1,8
256,192,70489,1,0
256,192,71989,1,4
256,192,72156,1,4
256,192,72322,1,4
256,192,72655,1,8
256,192,72822,1,8
256,192,72989,1,8
256,192,73155,1,0
256,192,73322,1,8
256,192,73405,1,8
256,192,73489,1,8
256,192,73655,1,8
256,192,73822,1,0
256,192,73989,1,8
256,192,74072,1,8
256,192,74155,1,8
256,192,74322,1,0
256,192,74655,1,0
256,192,74822,1,0
256,192,74989,1,0
256,192,75155,1,0
256,192,75489,1,12
256,192,75822,1,0
256,192,75988,1,8
256,192,76155,1,0
256,192,76321,1,8
256,192,76488,1,0
256,192,76655,1,8
256,192,76738,1,8
256,192,76821,1,0
256,192,76988,1,8
256,192,77155,1,0
256,192,77321,1,8
256,192,77488,1,0
256,192,77655,1,8
256,192,77821,1,0
256,192,77905,1,0
256,192,77988,1,8
256,192,78071,1,8
256,192,78155,1,0
256,192,78321,1,8
256,192,78488,1,0
256,192,78655,1,8
256,192,78738,1,8
256,192,78821,1,0
256,192,78988,1,8
256,192,79155,1,0
256,192,79321,1,8
256,192,79405,1,8
256,192,79488,1,8
256,192,79655,1,4
256,192,79988,1,4
256,192,80321,1,4
256,192,80488,1,0
256,192,80571,1,0
256,192,80655,1,8
256,192,80738,1,8
256,192,80821,1,8
256,192,80988,1,8
256,192,81155,1,0
256,192,81321,1,0
256,192,81405,1,0
256,192,81488,1,8
256,192,81821,1,0
256,192,81988,1,8
256,192,82071,1,8
256,192,82154,1,0
256,192,82321,1,8
256,192,82488,1,0
256,192,82654,1,8
256,192,82821,1,0
256,192,82988,1,8
256,192,83154,1,0
256,192,83238,1,0
256,192,83321,1,8
256,192,83404,1,8
256,192,83488,1,0
256,192,83654,1,8
256,192,83821,1,0
256,192,83988,1,0
256,192,84071,1,0
256,192,84154,1,0
256,192,84321,1,0
256,192,84405,1,0
256,192,84488,1,0
256,192,84654,1,0
256,192,84738,1,0
256,192,84821,1,0
256,192,84988,1,12
256,192,85321,1,4
256,192,85654,1,12
256,192,85988,1,0
256,192,86154,1,12
256,192,86322,2,4,B|464:192,1,210
