osu file format v9

[General]
AudioFilename: Nichijou OP.mp3
AudioLeadIn: 2007
PreviewTime: 53806
Countdown: 1
SampleSet: Normal
StackLeniency: 0.7
Mode: 0
LetterboxInBreaks: 1

[Editor]
DistanceSpacing: 1.1
BeatDivisor: 2
GridSize: 8

[Metadata]
Title:Hyadain no Kakakata Kataomoi-C (TV Size)
Artist:Hyadain
Creator:Sushi
Version:Hard
Source:Nichijou
Tags:ddrddr125 Takuma

[Difficulty]
HPDrainRate:6
CircleSize:4
OverallDifficulty:5
ApproachRate:7
SliderMultiplier:1.4
SliderTickRate:1

[Events]
//Background and Video events
0,0,"nichijou.png"
Video,0,"Nichijou.avi"
//Break Periods
//Storyboard Layer 0 (Background)
//Storyboard Layer 1 (Fail)
//Storyboard Layer 2 (Pass)
//Storyboard Layer 3 (Foreground)
//Storyboard Sound Samples
//Background Colour Transformations
3,100,163,162,255

[TimingPoints]
1156,333.333333333333,4,1,1,75,1,0
11405,-100,4,1,2,75,0,0
11822,-100,4,1,1,75,0,0
22404,-100,4,2,0,100,0,0
23238,-100,4,1,1,75,0,0
25071,-100,4,2,0,100,0,0
25904,-100,4,1,1,75,0,0
27738,-100,4,2,0,100,0,0
28571,-100,4,1,1,75,0,0
29821,-133.333333333333,4,2,0,100,0,0
32154,-133.333333333333,4,2,0,50,0,0
32821,-133.333333333333,4,2,1,100,0,0
48821,-133.333333333333,4,2,1,100,0,0
51711,-100,4,1,1,30,0,0
53321,-100,4,1,1,40,0,0
53654,-100,4,1,1,50,0,0
53904,-100,4,1,1,60,0,0
54071,-100,4,1,2,70,0,0
54238,-100,4,1,1,75,0,0
70405,-100,4,2,0,100,0,0
71989,-100,4,1,1,75,0,0
75405,-100,4,1,2,75,0,0
75572,-100,4,1,1,75,0,0

[Colours]
Combo1 : 0,0,255
Combo2 : 255,0,0
Combo3 : 0,0,128
Combo4 : 255,0,128

[HitObjects]
256,88,822,1,0
256,88,989,1,0
256,88,1156,2,0,B|328:88|384:144,2,140,0|4|0
176,72,1989,1,0
96,88,2155,1,8
48,152,2322,6,0,B|16:208|32:248|72:272,2,140,0|2|2
216,248,3322,2,0,B|248:192|232:152|192:128,2,140,0|2|0
160,304,4155,1,8
104,112,4489,5,0
160,56,4655,1,0
216,112,4822,1,8
272,56,4989,1,4
432,216,5322,1,4
216,256,5655,2,0,B|176:280|120:280|80:256,1,140,4|0
8,256,6155,1,8
49,318,6322,6,0,B|101:344|154:353|215:339|262:309,1,210,8|4
256,64,7155,1,0
216,128,7322,1,0
296,128,7489,1,8
328,240,7655,6,0,B|184:240,2,140,0|2|0
256,64,8655,1,2
256,192,8989,12,2,10322
256,48,10655,6,0,B|256:192,1,140,0|2
160,336,11322,1,0
256,376,11489,1,4
352,336,11655,1,4
112,80,12155,5,8
112,80,12489,1,0
72,144,12655,1,0
112,208,12822,1,8
192,120,12989,6,0,B|232:88|280:88|320:120,2,140,2|2|2
216,280,13989,1,0
216,280,14155,1,8
216,280,14322,2,0,B|248:344|360:344|392:280,1,210,0|8
296,104,15155,5,0
296,104,15322,2,0,B|368:104|432:144,1,140,2|0
312,248,15989,2,0,B|288:288|256:296|224:288|200:248,2,140,2|0|2
256,96,16989,1,4
64,264,17489,5,8
64,264,17655,2,0,B|72:312|120:344|176:336,1,140
184,264,18155,1,8
200,184,18322,2,0,B|248:176|296:208|304:256,2,140,0|2|0
256,40,19322,5,0
336,24,19489,1,8
416,40,19655,2,0,B|480:72|480:184|416:216,1,210,0|8
256,192,20489,5,0
216,256,20655,1,0
296,256,20822,1,8
314,154,20989,6,0,B|308:142|280:112|256:120|232:112|203:143|195:153,2,140,0|2|0
256,352,21989,2,0,B|296:368|352:328|400:344,1,140,8|0
480,352,22489,5,2
480,352,22822,1,0
480,352,23155,1,2
448,280,23322,5,0
400,216,23489,1,8
328,184,23655,2,0,B|184:184,1,140
112,216,24155,1,8
64,280,24322,1,0
216,248,24655,5,8
296,248,24822,1,0
256,184,24989,1,8
256,104,25155,5,2
256,104,25489,1,2
256,104,25822,1,2
176,80,25989,5,0
160,152,26155,1,8
192,224,26322,2,0,B|256:272|320:224,1,140
352,152,26822,1,8
336,80,26988,1,0
176,80,27322,5,8
104,112,27489,1,8
80,184,27655,1,8
80,264,27822,5,2
80,264,28155,1,0
80,264,28489,1,2
128,320,28655,5,0
208,320,28822,1,8
240,248,28989,2,0,B|256:176|240:104,2,140,0|2|2
368,304,29989,5,0
368,304,30155,1,0
416,192,30489,2,0,B|456:120|416:40,2,157.499995306134,2|2|0
416,192,31655,1,2
256,88,32489,5,4
256,352,33155,5,4
144,352,33489,2,0,B|72:352,1,69.9999979138375,2|0
48,328,33822,2,0,B|48:224,1,104.999996870756,12|0
0,120,34489,6,0,B|24:72|80:56,2,104.999996870756,4|0|12
48,176,35378,2,0,B|152:176,1,104.999996870756,2|0
256,296,36155,5,2
192,256,36378,1,0
192,256,36489,2,0,B|229:206|289:229,2,104.999996870756,12|0|4
144,320,37378,2,0,B|104:360|48:344,2,104.999996870756,2|2|0
144,208,38378,1,2
328,280,38822,6,0,B|360:216,1,69.9999979138375
400,224,39155,2,0,B|400:120,1,104.999996870756,12|0
288,112,39822,6,0,B|232:112|192:72,2,104.999996870756,4|0|12
288,192,40711,2,0,B|184:192,2,104.999996870756,2|0|2
288,192,41488,5,0
304,264,41711,1,0
304,264,41822,2,0,B|256:304|208:264,1,104.999996870756,12|0
192,152,42489,2,0,B|184:64|328:64|320:152,1,209.999993741513,4|12
256,312,43489,6,0,B|192:312|168:264,1,104.999996870756,0|4
256,152,44155,5,0
256,152,44489,1,8
256,312,44822,6,0,B|320:312|344:264,1,104.999996870756,4|4
256,152,45488,5,0
256,152,45822,1,8
256,40,46155,5,0
192,136,46489,2,0,B|152:184|192:232,1,104.999996870756,4|8
320,136,47155,2,0,B|360:184|320:232,1,104.999996870756,8|4
256,328,47822,1,4
256,184,48155,5,8
256,184,48489,1,8
184,72,49155,6,0,B|312:72,1,104.999996870756,4|0
328,152,49822,2,0,B|224:152,1,104.999996870756,12|0
200,232,50489,2,0,B|328:232,1,104.999996870756,4|0
344,312,51156,2,0,B|240:312,1,104.999996870756,12|0
88,312,51822,5,0
88,312,52489,1,0
88,128,53155,5,0
256,192,53489,1,0
424,128,53822,2,0,B|488:168,2,70,0|0|4
352,96,54322,6,0,B|282:65|216:96,2,140,0|2|0
256,304,55322,1,0
216,237,55489,1,8
296,237,55655,2,0,B|299:187|263:151|217:146|192:161,2,140,0|2|0
120,192,56655,6,0,B|88:272|144:320,1,140,0|2
184,168,57322,2,0,B|216:88|160:40,1,140,2|0
352,40,57989,6,0,B|297:88|329:168,1,140,0|2
369,319,58656,2,0,B|425:272|393:192,1,140,2|0
256,64,59322,5,0
256,64,59489,1,8
256,64,59655,2,0,B|192:104|192:184,2,140,0|2|0
128,216,60655,1,0
192,256,60822,1,8
256,216,60989,2,0,B|320:176|320:96,2,140,0|2|0
256,368,61989,6,0,B|400:368,1,140,0|2
256,296,62655,2,0,B|104:296,1,140,2|2
256,224,63322,6,0,B|323:199|392:224,1,140,2|0
256,296,63989,2,0,B|189:321|120:296,1,140,0|2
256,104,64655,6,0,B|256:32,2,70,2|8|2
256,104,65489,5,4
256,184,65655,2,0,B|256:232|216:247|176:232|176:184,1,140,2|0
128,120,66155,1,8
80,184,66322,2,0,B|80:232|40:247|0:232|0:184,2,140,0|2|2
184,296,67322,5,0
256,280,67489,1,8
320,232,67655,2,0,B|376:232|376:136|320:136,1,140,4|2
256,96,68155,1,8
189,136,68322,2,0,B|136:136|136:232|192:232,1,140,4|2
256,280,68822,1,0
256,200,68989,2,0,B|256:56,2,140,4|2|4
208,344,69989,6,0,B|136:368,2,70,0|2|0
304,344,70489,6,0,B|376:368,2,70,2|0|2
256,280,70989,6,0,B|256:200,2,70,2|0|2
256,280,71489,1,2
256,280,71655,1,0
176,192,71989,5,4
256,136,72155,1,4
336,192,72322,1,4
440,88,72655,5,0
480,152,72822,1,0
440,216,72989,2,0,B|408:280|440:360,2,140,4|0|4
352,88,73989,1,0
256,192,74155,12,4,75489
248,264,75822,2,0,B|304:272|336:208|333:169|304:144,2,140,0|4|0
240,184,76655,1,0
160,176,76821,1,8
96,216,76988,6,0,B|64:352,2,140,0|2|2
176,80,77989,2,0,B|304:16,2,140,0|2|2
128,136,78821,1,8
88,288,79155,5,0
152,328,79321,1,0
224,352,79488,1,8
304,352,79655,1,4
496,264,79988,1,4
296,128,80321,2,0,B|336:104|392:104|432:128,1,140,4|0
504,128,80821,1,8
463,66,80988,6,0,B|411:40|358:31|297:45|250:75,1,210,8|4
256,328,81821,1,0
256,248,81988,1,0
256,168,82155,1,8
216,104,82321,6,0,B|192:112|152:168|187:226|224:232,2,140,0|2|0
368,72,83321,1,2
464,192,83655,2,0,B|464:320|360:328|256:320|256:192,1,350
256,48,84822,1,0
256,48,84989,1,0
320,184,85321,6,0,B|176:184,1,140,2|2
160,328,85988,1,0
256,376,86155,1,0
352,328,86322,2,0,B|352:232|448:264|448:152,1,210,0|4
