osu file format v9

[General]
AudioFilename: OP2.mp3
AudioLeadIn: 2000
PreviewTime: 55400
Countdown: 0
SampleSet: Normal
StackLeniency: 0.7
Mode: 0
LetterboxInBreaks: 0

[Editor]
DistanceSpacing: 0
BeatDivisor: 4
GridSize: 4

[Metadata]
Title:Hyadain no Joujou Yuujou (TV Size)
Artist:Hyadain
Creator:OzzyOzrock
Version:Extra
Source:Nichijou
Tags:Hyadain's JoJo YuJo Pereira006 eldnL Makar8000

[Difficulty]
HPDrainRate:6
CircleSize:4
OverallDifficulty:8
ApproachRate:9
SliderMultiplier:2.2
SliderTickRate:2

[Events]
//Background and Video events
Video,-363,"OP2.avi"
0,0,"bg.jpg"
//Break Periods
//Storyboard Layer 0 (Background)
//Storyboard Layer 1 (Fail)
//Storyboard Layer 2 (Pass)
//Storyboard Layer 3 (Foreground)
//Storyboard Sound Samples
//Background Colour Transformations
3,100,163,162,255

[TimingPoints]
208,300,4,1,0,75,1,0
5008,-100,4,1,0,60,0,0
13558,-100,4,2,0,60,0,0
14608,-100,4,1,0,60,0,0
23158,-100,4,2,0,60,0,0
24208,-100,4,1,0,60,0,0
32608,-100,4,2,0,60,0,0
33808,-100,4,2,0,60,0,0
42208,-100,4,2,0,60,0,0
43408,-200,4,2,0,60,0,0
50608,-133.333333333333,4,1,0,60,0,0
50808,-133.333333333333,4,2,0,60,0,0
51208,-133.333333333333,4,1,0,60,0,0
51408,-133.333333333333,4,2,0,60,0,0
51808,-133.333333333333,4,1,0,60,0,0
52008,-133.333333333333,4,2,0,60,0,0
52408,-133.333333333333,4,1,0,60,0,0
52608,-133.333333333333,4,2,0,60,0,0
53008,-133.333333333333,4,1,0,65,0,0
55108,-100,4,1,0,30,0,0
55408,-100,4,1,0,75,0,0
56608,-100,4,1,0,75,0,1
77008,-100,4,1,0,75,0,0
79408,-80,4,1,0,75,0,0
79483,-100,4,1,0,75,0,0
87658,-100,4,2,0,5,0,0

[Colours]
Combo1 : 0,0,255
Combo2 : 255,0,0
Combo3 : 0,0,128
Combo4 : 255,0,128

[HitObjects]
472,40,208,1,4
40,40,508,1,12
312,192,808,1,4
256,96,958,1,0
200,192,1108,1,12
472,344,1408,5,4
400,264,1558,1,0
328,344,1708,1,12
256,264,1858,1,0
184,344,2008,1,4
112,264,2158,1,0
40,344,2308,1,12
112,136,2608,5,0
144,32,2758,1,0
40,64,2908,1,10
256,80,3058,5,0
256,192,3208,1,0
256,304,3358,1,2
400,248,3508,5,8
368,352,3658,1,0
472,320,3808,1,0
472,192,3958,5,0
400,112,4108,1,8
328,192,4258,1,0
256,112,4408,1,0
184,192,4558,1,0
112,112,4708,1,8
40,192,4858,1,0
112,280,5008,6,0,B|216:336|216:224|320:288,1,220,0|8
410,246,5458,1,0
400,352,5608,2,0,B|440:296|416:184|312:184,1,220,0|8
408,112,6058,1,0
256,272,6358,1,8
104,112,6658,1,8
256,272,6958,2,0,B|368:272,1,110,0|8
256,272,7258,2,0,B|136:272,1,110
256,80,7708,1,8
448,192,8008,5,0
472,304,8158,1,0
368,264,8308,1,8
344,368,8458,2,0,B|296:328|256:301|256:301|216:328|168:368,1,220
144,264,8908,1,8
40,304,9058,1,0
64,192,9208,1,0
448,192,9508,1,8
256,80,9808,6,0,B|208:160|48:104|16:304|192:384|256:280|256:280|320:384|504:304|448:120|320:144|320:144,1,770
184,232,11158,1,8
328,232,11458,1,0
256,152,11608,1,0
256,368,11908,1,8
256,56,12208,5,0
424,192,12508,2,0,B|408:304|256:340|104:304|88:192,1,440,8|8
424,192,13558,1,2
312,192,13708,1,10
200,192,13858,1,2
88,192,14008,1,2
312,192,14308,1,10
88,192,14608,38,0,B|16:240|32:344|112:376|168:344,1,220,6|8
216,152,15208,2,0,B|216:104|216:104|216:72|256:44|296:72|296:104|296:104|296:152,1,220,0|8
360,64,15658,1,0
380,268,15958,1,0
424,192,16108,2,0,B|496:240|480:344|400:376|344:344,2,220,8|0|8
312,192,16858,1,0
144,192,17008,5,2
144,192,17308,2,0,B|144:272|144:272|144:304|100:352|56:304|56:272,1,220,8|0
56,192,17758,2,0,B|56:112|56:112|56:80|100:32|144:80|144:112,1,220,8|8
360,80,18358,1,8
464,104,18508,2,0,B|400:192,1,110,0|8
288,192,18808,1,0
399,191,18958,2,0,B|464:280,1,110,8|8
360,304,19258,1,0
256,328,19408,6,2,B|104:312|68:192|104:72|256:56,1,440,2|2
368,56,20158,2,0,B|344:112|384:168|464:176|488:88,2,220,0|2|0
296,136,20908,2,0,B|312:200|384:256|496:240|504:184,1,220,8|0
456,328,21358,1,0
344,312,21508,1,8
256,248,21658,1,0
256,360,21808,6,0,B|232:304|172:272|112:304|88:360,1,220,0|8
56,256,22258,1,0
144,192,22408,1,0
56,128,22558,1,0
144,64,22708,1,8
256,64,22858,1,0
440,192,23158,5,2
456,304,23308,1,10
400,208,23458,1,2
416,320,23608,1,2
360,224,23758,1,2
376,336,23908,1,10
320,240,24058,1,2
256,328,24208,5,2
256,328,24508,2,0,B|192:312|168:267|168:267|144:312|80:328,1,220,8|0
0,248,24958,1,0
96,192,25108,1,8
0,136,25258,2,0,B|48:136|48:136|96:96|160:120|176:168|168:216,2,220,0|8|0
64,48,26008,1,0
176,64,26158,1,0
256,144,26308,1,8
336,64,26458,1,0
448,48,26608,6,0,B|408:160|488:160|448:264,1,220,2|8
376,344,27058,1,0
376,328,27133,1,0
376,312,27208,2,0,B|288:224,1,110
256,336,27508,1,8
216,232,27658,2,0,B|152:272|89:192|152:112|216:160,3,220,0|8|0|8
256,96,28708,1,8
256,96,28858,1,0
256,96,29008,2,2,B|168:24|-8:80|16:328|200:320,2,440,6|2|6
360,64,30358,5,0
448,128,30508,2,0,B|400:112|323:192|400:272|448:256,1,220,8|0
360,320,30958,1,0
296,232,31108,2,0,B|256:269|256:269|216:232,2,110,8|0|0
152,320,31708,1,8
64,128,32008,2,0,B|112:112|189:192|112:272|64:256,1,220,0|8
64,128,32458,1,0
160,44,32608,5,0
172,68,32683,1,0
184,92,32758,1,0
196,116,32833,1,0
208,140,32908,1,0
219,164,32983,1,0
231,188,33058,1,0
242,212,33133,1,0
254,236,33208,1,0
270,212,33283,1,0
281,188,33358,1,0
293,164,33433,1,0
304,140,33508,1,0
316,116,33583,1,0
328,92,33658,1,0
340,68,33733,1,0
352,44,33808,21,0
440,192,33958,2,0,B|416:304,1,110,0|10
256,320,34258,1,2
256,320,34408,1,0
95,299,34558,2,0,B|72:192,1,110,2|10
160,44,34858,1,0
200,227,35008,6,0,B|200:107,1,110,2|0
310,116,35308,2,0,B|200:116,1,110,10|2
310,227,35608,2,0,B|310:117,1,110,0|2
200,227,35908,2,0,B|310:227,1,110,10|0
424,92,36208,5,2
464,192,36358,1,0
424,296,36508,1,8
256,312,36658,1,2
88,296,36808,1,0
48,192,36958,1,0
88,88,37108,1,10
256,72,37258,1,0
256,192,37408,6,0,B|158:136,1,110,2|0
256,192,37708,2,0,B|327:106,1,110,8|2
256,192,38008,2,0,B|352:247,1,110
256,192,38308,2,0,B|183:276,1,110,10|0
152,192,38608,5,2
64,192,38758,1,8
182,118,38908,5,2
120,56,39058,1,10
256,88,39208,5,0
256,0,39358,1,10
329,118,39508,5,2
391,56,39658,1,8
360,192,39808,5,2
448,192,39958,1,8
329,265,40108,5,2
391,327,40258,1,10
256,296,40408,5,0
256,384,40558,1,10
182,265,40708,5,2
120,327,40858,1,8
64,192,41008,6,0,B|104:88,1,110,2|0
408,89,41308,2,0,B|448:192,1,110,2|2
180,156,41608,6,0,B|196:220|256:252|316:220|332:156,4,220,2|2|0|0|0
256,28,43108,1,4
104,144,43408,6,0,B|112:80|184:56|240:80|256:148|256:148|272:80|328:56|400:80|408:144,1,440,2|2
176,152,44908,1,0
336,152,45208,2,0,B|336:208,3,55,0|0|0|0
336,152,45808,6,0,B|272:144|256:340|256:340|240:144|176:152,1,440,6|2
168,272,47308,1,0
344,272,47608,2,0,B|400:272,3,55
440,192,48208,6,0,B|464:80,1,110,6|0
320,192,48808,2,0,B|348:80,1,110,0|0
161,86,49408,2,0,B|192:192,1,110,2|0
48,84,50008,2,0,B|76:192,1,110,0|0
96,304,50608,5,0
160,344,50808,1,0
192,280,51008,1,0
320,280,51208,5,0
352,344,51408,1,0
416,304,51608,1,0
400,192,51808,5,0
352,96,52008,1,0
464,104,52208,1,0
112,192,52408,5,0
160,96,52608,1,0
48,104,52808,1,0
0,240,53008,5,0
88,360,53208,1,0
176,240,53408,1,0
256,360,53608,1,0
336,240,53808,1,0
424,360,54008,1,0
512,240,54208,1,0
256,192,54283,12,4,55108
200,152,55408,5,0
200,40,55558,1,0
312,40,55708,1,8
312,152,55858,1,0
408,96,56008,5,0
368,320,56158,1,0
144,320,56308,1,8
104,96,56458,1,0
48,192,56608,5,8
24,296,56758,1,0
40,304,56833,1,0
56,312,56908,2,0,B|120:224,1,110,8|0
192,296,57208,1,8
200,304,57283,1,0
208,312,57358,1,0
320,296,57508,1,8
312,304,57583,1,0
304,312,57658,1,0
391,223,57808,2,0,B|456:312,1,110,8|0
472,304,58033,1,0
488,296,58108,1,8
464,192,58258,1,0
436,84,58408,1,8
344,148,58558,6,0,B|336:172|300:185|264:172|256:148,1,110,0|8
300,48,58858,2,0,B|292:24|256:11|220:24|212:48,1,110,0|8
256,148,59158,2,0,B|248:172|212:185|176:172|168:148,1,110,0|8
76,84,59458,1,0
76,84,59608,1,8
48,192,59758,1,0
48,192,59908,1,8
76,300,60058,1,0
76,300,60208,6,0,B|192:300,1,110,8|0
436,300,60508,2,0,B|320:300,1,110,8|0
256,384,60808,2,0,B|256:160,1,220,8|8
256,52,61258,1,0
256,52,61333,1,0
256,52,61408,6,0,B|368:52,1,110,8|0
476,64,61708,2,0,B|412:92|416:160,1,110,8|0
316,196,62008,1,8
412,236,62158,2,0,B|476:264|472:332,1,110,0|8
364,344,62458,2,0,B|256:320,1,110,0|8
148,344,62758,2,0,B|255:320,1,110,0|8
40,368,63058,1,0
80,268,63208,1,8
156,192,63358,2,0,B|152:136|112:112|68:116|40:148,1,110,0|8
188,88,63658,1,0
256,0,63808,5,8
256,384,64108,1,8
0,192,64408,1,8
512,192,64708,1,8
336,324,65008,1,8
336,324,65158,1,0
312,192,65308,1,8
336,60,65458,1,0
176,60,65608,1,8
200,192,65758,1,0
176,324,65908,1,8
176,324,66058,1,0
72,284,66208,22,0,B|124:248|139:192|124:136|72:100,1,220,8|8
176,60,66658,1,0
256,136,66808,1,8
256,152,66883,1,0
256,168,66958,1,0
336,60,67108,1,8
440,100,67258,1,0
440,100,67408,6,0,B|388:136|373:192|388:248|440:284,1,220,8|8
336,324,67858,1,0
256,248,68008,2,0,B|256:304|256:304|252:348|220:360|176:360|176:360|120:360,1,220,8|8
184,284,68458,1,0
184,284,68608,6,0,B|128:284|128:284|84:280|72:248|72:204|72:204|72:148,1,220,8|8
144,208,69058,1,0
180,104,69208,2,0,B|196:36|256:16|316:36|332:104,1,220,8|8
404,188,69658,1,0
304,240,69808,5,8
208,144,69958,1,0
304,144,70108,1,8
208,240,70258,1,0
256,64,70408,1,8
256,320,70708,1,8
128,192,71008,5,8
208,144,71158,1,0
256,64,71308,1,8
256,320,71608,5,8
304,240,71758,1,0
384,192,71908,1,8
128,192,72208,5,8
208,240,72358,1,0
256,320,72508,1,8
384,192,72808,5,8
304,144,72958,1,0
256,64,73108,1,8
480,356,73408,5,8
32,352,73708,1,8
32,32,74008,1,8
480,32,74308,1,8
256,128,74608,5,8
256,132,74683,1,0
256,136,74758,1,0
256,140,74833,1,0
256,144,74908,1,8
256,148,74983,1,0
256,152,75058,1,0
256,156,75133,1,0
256,160,75208,5,8
256,164,75283,1,0
256,168,75358,1,0
256,172,75433,1,0
256,176,75508,1,8
256,180,75583,1,0
256,184,75658,1,0
256,188,75733,1,0
256,192,75808,5,8
256,196,75883,1,0
256,200,75958,1,0
256,204,76033,1,0
256,208,76108,1,8
256,212,76183,1,0
256,216,76258,1,0
256,220,76333,1,0
256,224,76408,5,8
256,228,76483,1,0
256,232,76558,1,0
256,236,76633,1,0
256,240,76708,1,8
256,244,76783,1,0
256,248,76858,1,0
256,252,76933,1,0
256,256,77008,5,8
256,36,77308,1,8
100,192,77608,1,8
80,300,77758,1,0
184,336,77908,1,8
328,48,78208,1,8
432,84,78358,1,0
412,192,78508,1,8
432,300,78658,1,0
328,336,78808,1,8
184,48,79108,1,8
325,192,79408,6,0,B|186:192,8,137.49999795109,8|0|8|0|8|0|8|0|8
436,108,80758,1,0
256,40,80908,1,8
76,108,81058,1,0
0,192,81208,5,10
512,192,81508,1,10
368,24,81808,6,0,B|304:60|304:160|364:208|440:192,1,220,8|8
144,360,82408,2,0,B|208:324|208:224|148:176|72:192,1,220,8|8
320,304,83008,1,8
428,332,83158,1,0
256,192,83308,1,8
340,120,83458,1,0
128,60,83608,1,8
132,280,83908,1,8
336,192,84208,5,8
432,248,84358,1,0
468,144,84508,1,14
256,80,84658,5,0
256,304,84808,1,8
256,80,84958,1,6
44,144,85108,5,8
80,248,85258,1,0
176,192,85408,1,12
140,88,85558,5,0
360,60,85708,1,10
372,296,85858,1,0
152,324,86008,1,14
256,128,86158,5,8
312,224,86308,1,8
200,224,86458,1,14
256,192,86495,12,0,87658
