osu file format v12

[General]
AudioFilename: Hyadain.mp3
AudioLeadIn: 2007
PreviewTime: 127245
Countdown: 0
SampleSet: Normal
StackLeniency: 0.7
Mode: 0
LetterboxInBreaks: 0
WidescreenStoryboard: 0

[Editor]
Bookmarks: 141649
DistanceSpacing: 1
BeatDivisor: 4
GridSize: 8

[Metadata]
Title:Hyadain no Joujou Yuujou
TitleUnicode:ヒャダインのじょーじょーゆーじょー
Artist:Hyadain
ArtistUnicode:ヒャダイン
Creator:Kytoxid
Version:Bonus
Source:Nichijou
Tags:anime op Nichijou 日常
BeatmapID:114290
BeatmapSetID:34710

[Difficulty]
HPDrainRate:7
CircleSize:4
OverallDifficulty:7
ApproachRate:9
SliderMultiplier:1.99999990463257
SliderTickRate:1

[Events]
//Background and Video events
0,0,"actualbg.jpg",0,0
//Break Periods
2,93698,97849
2,179048,183049
//Storyboard Layer 0 (Background)
//Storyboard Layer 1 (Fail)
//Storyboard Layer 2 (Pass)
//Storyboard Layer 3 (Foreground)
//Storyboard Sound Samples
//Background Colour Transformations
3,100,0,0,0

[TimingPoints]
1249.32112673907,300,4,1,0,50,1,0
3649,-100,4,2,0,50,0,0
6049,-100,4,2,0,100,0,0
34399,-100,4,2,0,100,0,0
36799,-100,4,1,0,50,0,0
39199,-100,4,2,0,100,0,0
41599,-100,4,1,0,50,0,0
44449,-200,4,2,0,50,0,0
46699,-133.333333333333,4,2,0,70,0,0
49099,-100,4,2,0,100,0,0
51649,-100,4,2,0,50,0,0
52249,-100,4,2,0,60,0,0
52849,-100,4,2,0,70,0,0
53449,-100,4,2,0,80,0,0
54049,-100,4,2,0,90,0,0
54649,-100,4,2,0,100,0,0
55249,-200,4,2,0,100,0,0
56449,-100,4,1,0,100,0,0
57649,-100,4,1,0,100,0,1
75649,-100,4,2,0,100,0,0
78049,-100,4,1,0,100,0,0
80449,-80,4,1,0,100,0,0
80749,-80,4,1,0,100,0,0
81649,-66.6666666666667,4,1,0,100,0,0
82849,-100,4,1,0,100,0,0
88849,-100,4,2,0,100,0,0
106699,-200,4,2,0,100,0,0
106849,-200,4,2,0,60,0,0
106999,-200,4,2,0,40,0,0
107299,-200,4,2,0,30,0,0
107599,-200,4,2,0,10,0,0
107899,-200,4,2,0,100,0,0
108049,-100,4,2,0,100,0,0
117649,-100,4,2,0,100,0,0
119599,-100,4,1,0,50,0,0
120049,-200,4,1,0,50,0,0
120649,-100,4,1,0,50,0,0
121249,-66.6666666666667,4,1,0,50,0,0
121999,-200,4,2,0,100,0,0
122449,-133.333333333333,4,2,0,100,0,0
122749,-100,4,2,0,100,0,0
123049,-80,4,2,0,100,0,0
123349,-66.6666666666667,4,2,0,100,0,0
123649,-57.1428571428571,4,2,0,100,0,0
123949,-50,4,2,0,100,0,0
124249,-100,4,2,0,100,0,0
124399,-100,4,1,0,50,0,0
127249,-100,4,2,0,80,0,0
134449,-100,4,2,0,50,0,0
135049,-100,4,2,0,60,0,0
135649,-100,4,2,0,70,0,0
136249,-100,4,2,0,80,0,0
136849,-100,4,2,0,90,0,0
137449,-100,4,2,0,100,0,0
138049,-200,4,2,0,100,0,0
139249,-100,4,2,0,100,0,0
141499,-100,4,2,0,100,0,0
141649,-100,4,1,0,100,0,1
150049,-100,4,2,0,100,0,1
150199,-83.3333333333333,4,2,0,100,0,1
150499,-66.6666666666667,4,2,0,100,0,1
150799,-55.5555555555556,4,2,0,100,0,1
151249,-100,4,1,0,100,0,1
159349,-100,4,1,0,100,0,0
159649,-100,4,2,0,100,0,0
159949,-100,4,2,0,100,0,0
160249,-117.647058823529,4,2,0,100,0,0
160549,-117.647058823529,4,2,0,100,0,0
160810,-142.857142857143,4,2,0,100,0,0
161149,-142.857142857143,4,2,0,100,0,0
161449,-181.818181818182,4,2,0,100,0,0
161749,-181.818181818182,4,2,0,100,0,0
162049,-200,4,2,0,100,0,0
164299,-133.333333333333,4,2,0,100,0,0
166549,-100,4,2,0,100,0,0
183649,-200,4,2,0,100,0,0
184249,-100,4,2,0,100,0,0
184849,-66.6666666666667,4,2,0,100,0,0
185449,-50,4,2,0,100,0,0
186049,-100,4,2,0,100,0,0
187253,-100,4,1,0,50,0,0
187853,-100,4,1,0,100,0,0
188449,-100,4,1,0,100,0,1
206449,-100,4,1,0,100,0,0
207049,-100,4,1,0,80,0,0
207649,-100,4,1,0,60,0,0
208249,-100,4,1,0,40,0,0
208849,-100,4,1,0,100,0,0
211249,-80,4,1,0,100,0,0
213049,-66.6666666666667,4,1,0,100,0,0
213349,-100,4,1,0,100,0,0
216049,-100,4,2,0,100,0,0
218299,-200,4,2,0,100,0,0
219499,-100,4,2,0,50,0,0

[Colours]
Combo1 : 255,176,98
Combo2 : 138,191,255
Combo3 : 184,153,125
Combo4 : 85,85,85

[HitObjects]
67,322,1249,1,2,0:0:0:0:
451,226,1549,1,2,0:0:0:0:
67,122,1849,1,2,0:0:0:0:
451,18,2149,1,2,0:0:0:0:
211,338,2449,5,2,0:0:0:0:
264,240,2599,1,0,0:0:0:0:
368,184,2749,1,2,0:0:0:0:
275,122,2899,1,0,0:0:0:0:
267,26,3049,2,2,B|219:26|171:66|163:122|195:178,1,199.999990463257
304,324,3649,5,0,0:0:0:0:
157,304,3799,5,2,0:0:0:0:
157,304,3949,1,2,0:0:0:0:
99,161,4099,5,0,0:0:0:0:
203,50,4249,5,2,0:0:0:0:
203,50,4399,1,2,0:0:0:0:
346,71,4549,5,0,0:0:0:0:
400,216,4699,5,2,0:0:0:0:
400,216,4849,1,2,0:0:0:0:
259,194,4999,5,2,0:0:0:0:
355,226,5149,1,2,0:0:0:0:
419,138,5299,1,2,0:0:0:0:
331,50,5449,1,2,0:0:0:0:
203,42,5599,1,2,0:0:0:0:
107,146,5749,1,2,0:0:0:0:
139,306,5899,1,2,0:0:0:0:
336,336,6049,6,2,P|432:288|440:192,1,199.999990463257
427,106,6499,1,0,0:0:0:0:
392,72,6574,1,0,0:0:0:0:
355,34,6649,1,2,0:0:0:0:
323,130,6799,1,0,0:0:0:0:
427,106,6949,1,0,0:0:0:0:
355,34,7099,2,2,P|248:24|176:80,2,199.999990463257
323,130,7849,1,0,0:0:0:0:
280,280,7999,1,0,0:0:0:0:
176,152,8149,1,2,0:0:0:0:
323,130,8299,1,0,0:0:0:0:
395,194,8449,6,2,B|424:256|384:336|296:344,1,199.999990463257
192,312,8899,1,0,0:0:0:0:
176,312,8974,1,0,0:0:0:0:
160,312,9049,1,2,0:0:0:0:
59,250,9199,1,0,0:0:0:0:
32,152,9349,1,0,0:0:0:0:
128,176,9499,1,2,0:0:0:0:
333,89,9799,1,0,0:0:0:0:
306,310,10099,1,2,0:0:0:0:
104,320,10399,1,2,0:0:0:0:
104,320,10474,1,0,0:0:0:0:
104,320,10549,2,2,P|56:328|16:280,1,99.9999952316285
8,192,10849,6,2,P|40:104|152:48,1,199.999990463257,2|0,0:0|0:0,0:0:0:0:
224,24,11299,1,0,0:0:0:0:
320,32,11449,1,2,0:0:0:0:
408,72,11599,1,2,0:0:0:0:
192,128,11899,2,0,B|200:232|312:280,2,199.999990463257,2|2|0,0:0|0:0|0:0,0:0:0:0:
96,72,12649,2,2,B|24:152|78:260,1,199.999990463257
256,192,13249,5,0,0:0:0:0:
464,304,13549,1,2,0:0:0:0:
464,304,13699,1,0,0:0:0:0:
467,194,13849,1,0,0:0:0:0:
256,80,14149,1,2,0:0:0:0:
256,80,14299,1,0,0:0:0:0:
227,194,14599,5,0,0:0:0:0:
107,146,14749,1,2,0:0:0:0:
59,266,14899,1,0,0:0:0:0:
179,314,15049,1,2,0:0:0:0:
259,66,15349,6,0,B|191:77|147:114|147:194|160:224,1,199.999990463257,2|4,0:0|0:0,0:0:0:0:
320,288,15949,5,2,0:0:0:0:
347,194,16099,1,0,0:0:0:0:
384,160,16174,1,0,0:0:0:0:
435,146,16249,2,0,B|491:194|440:248,2,99.9999952316285,2|0|0,0:0|0:0|0:0,0:0:0:0:
344,96,16699,1,2,0:0:0:0:
248,144,16849,1,0,0:0:0:0:
248,144,16999,1,2,0:0:0:0:
224,248,17149,1,0,0:0:0:0:
224,248,17299,1,2,0:0:0:0:
147,322,17449,1,0,0:0:0:0:
147,322,17599,2,2,B|83:346|35:338,2,99.9999952316285
432,312,18049,5,4,0:0:0:0:
259,266,18349,5,2,0:0:0:0:
232,168,18499,1,2,0:0:0:0:
160,96,18649,1,2,0:0:0:0:
64,56,18799,2,0,P|8:144|40:240,2,199.999990463257,0|2|2,0:0|0:0|0:0,0:0:0:0:
160,24,19549,2,0,P|208:8|256:24,1,99.9999952316285,0|2,0:0|0:0,0:0:0:0:
208,112,19849,1,0,0:0:0:0:
160,200,19999,2,2,P|207:214|253:198,2,99.9999952316285
352,304,20449,6,0,B|280:384,1,99.9999952316285,4|0,0:0|0:0,0:0:0:0:
285,378,20749,1,0,0:0:0:0:
176,296,21049,2,0,B|104:376,2,99.9999952316285,4|0|0,0:0|0:0|0:0,0:0:0:0:
91,282,21499,2,0,B|45:265|11:242|-16:184|0:120,1,199.999990463257,4|0,0:0|0:0,0:0:0:0:
192,80,22099,5,2,0:0:0:0:
304,48,22249,1,0,0:0:0:0:
192,88,22399,1,0,0:0:0:0:
104,184,22549,2,0,B|64:232|96:280,1,99.9999952316285,2|0,0:0|0:0,0:0:0:0:
240,344,22849,2,0,B|295:360|344:368|400:344|432:304,1,199.999990463257,2|0,0:0|0:0,0:0:0:0:
424,128,23299,2,2,P|368:40|272:32,1,199.999990463257
83,66,23749,1,2,0:0:0:0:
56,312,23899,1,2,0:0:0:0:
360,208,24199,5,2,0:0:0:0:
360,208,24349,1,2,0:0:0:0:
240,256,24499,1,2,0:0:0:0:
240,256,24649,1,2,0:0:0:0:
264,128,24799,1,2,0:0:0:0:
264,128,24949,1,2,0:0:0:0:
144,176,25099,1,2,0:0:0:0:
144,176,25174,1,0,0:0:0:0:
144,176,25249,1,6,0:0:0:0:
195,42,25549,6,0,B|147:34|83:50|51:122|67:170,1,199.999990463257,2|2,0:0|0:0,0:0:0:0:
64,256,25999,1,2,0:0:0:0:
64,256,26149,1,0,0:0:0:0:
155,306,26299,2,0,B|171:322|203:338|235:322|259:298,1,99.9999952316285,2|0,0:0|0:0,0:0:0:0:
299,226,26599,2,0,B|283:210|251:194|219:210|195:234,1,99.9999952316285,2|0,0:0|0:0,0:0:0:0:
347,306,26899,2,0,B|363:322|395:338|427:322|451:298,1,99.9999952316285,2|0,0:0|0:0,0:0:0:0:
491,226,27199,2,2,B|475:210|443:194|411:210|387:234,1,99.9999952316285
347,138,27499,1,2,0:0:0:0:
195,66,27649,5,4,0:0:0:0:
40,192,27949,6,2,P|72:288|168:312,1,199.999990463257
144,208,28399,1,0,0:0:0:0:
144,208,28549,1,0,0:0:0:0:
347,178,28699,1,2,0:0:0:0:
67,58,28999,1,0,0:0:0:0:
99,354,29299,1,2,0:0:0:0:
347,178,29599,2,0,P|416:128|328:120,1,199.999990463257,0|2,0:0|0:0,0:0:0:0:
259,66,30049,5,2,0:0:0:0:
160,88,30199,1,0,0:0:0:0:
80,152,30349,1,0,0:0:0:0:
80,152,30649,1,2,0:0:0:0:
144,224,30799,1,0,0:0:0:0:
224,280,30949,1,0,0:0:0:0:
320,288,31099,2,0,P|416:248|432:160,1,199.999990463257,2|0,0:0|0:0,0:0:0:0:
496,88,31549,1,0,0:0:0:0:
400,56,31699,6,0,P|288:16|200:32,1,199.999990463257,2|0,0:0|0:0,0:0:0:0:
104,56,32149,1,2,0:0:0:0:
48,136,32299,1,0,0:0:0:0:
155,170,32449,2,0,B|139:226|187:266,1,99.9999952316285,2|0,0:0|0:0,0:0:0:0:
363,217,32749,2,0,B|379:162|336:127,1,99.9999952316285,2|0,0:0|0:0,0:0:0:0:
163,27,33049,2,2,B|106:41|95:103,1,99.9999952316285
355,360,33349,2,2,B|411:346|422:284,1,99.9999952316285
256,192,33574,12,2,34399,0:0:0:0:
43,138,34549,2,2,B|11:186|43:234,1,99.9999952316285,2|2,0:0|0:0,0:0:0:0:
99,322,34849,1,2,0:0:0:0:
195,354,34999,2,0,B|259:370|339:338,2,99.9999952316285,2|0|0,0:0|0:0|0:0,0:0:0:0:
99,322,35449,1,2,0:0:0:0:
41,231,35599,2,0,B|11:186|43:138,2,99.9999952316285,2|0|0,0:0|0:0|0:0,0:0:0:0:
99,322,36049,2,0,B|232:160,2,199.999990463257,2|0|2,0:0|0:0|0:0,0:0:0:0:
339,194,36799,5,8,0:0:0:0:
424,240,36949,2,8,B|424:120,1,99.9999952316285
259,194,37249,1,8,0:0:0:0:
259,194,37399,1,0,0:0:0:0:
416,240,37549,2,0,B|416:120,1,99.9999952316285,8|0,0:0|0:0,0:0:0:0:
179,194,37849,1,8,0:0:0:0:
179,194,37999,1,0,0:0:0:0:
408,240,38149,2,0,B|408:120,1,99.9999952316285,8|0,0:0|0:0,0:0:0:0:
120,104,38449,2,8,B|80:144|64:192|80:240|120:280,2,199.999990463257
259,242,39199,5,2,0:0:0:0:
355,210,39349,1,2,0:0:0:0:
275,146,39499,1,0,0:0:0:0:
187,226,39649,2,0,B|151:132,2,99.9999952316285,2|2|0,0:0|0:0|0:0,0:0:0:0:
275,146,40099,1,0,0:0:0:0:
387,58,40249,2,0,B|421:151,2,99.9999952316285,2|2|0,0:0|0:0|0:0,0:0:0:0:
275,146,40699,1,0,0:0:0:0:
277,332,40849,2,0,B|371:298,2,99.9999952316285,2|0|2,0:0|0:0|0:0,0:0:0:0:
275,146,41299,1,0,0:0:0:0:
275,146,41449,1,2,0:0:0:0:
32,216,41599,5,8,0:0:0:0:
48,120,41749,1,8,0:0:0:0:
120,48,41899,1,8,0:0:0:0:
232,16,42049,1,8,0:0:0:0:
240,136,42199,1,0,0:0:0:0:
184,240,42349,1,0,0:0:0:0:
88,312,42499,1,0,0:0:0:0:
120,168,42649,1,8,0:0:0:0:
240,80,42799,1,0,0:0:0:0:
392,80,42949,1,0,0:0:0:0:
504,184,43099,1,0,0:0:0:0:
400,352,43249,1,8,0:0:0:0:
200,360,43399,1,0,0:0:0:0:
24,248,43549,1,8,0:0:0:0:
440,72,43849,5,8,0:0:0:0:
440,72,44149,1,12,0:0:0:0:
179,66,44449,5,4,0:0:0:0:
59,90,44749,2,2,B|19:114|19:170|32:192,1,99.9999952316285,0|2,0:0|0:0,0:0:0:0:
26,177,45199,1,2,0:0:0:0:
120,248,45499,2,0,B|160:224|160:168|144:144,1,99.9999952316285,2|0,0:0|0:0,0:0:0:0:
219,58,46099,2,0,B|267:66|291:106|280:136,1,99.9999952316285,2|0,0:0|0:0,0:0:0:0:
282,123,46549,1,2,0:0:0:0:
411,234,46849,5,4,0:0:0:0:
128,240,47149,6,0,B|152:296|216:288,2,74.9999941885474,2|0|2,0:0|0:0|0:0,0:0:0:0:
40,248,47599,2,0,P|64:176|128:152,1,149.999998569489,2|0,0:0|0:0,0:0:0:0:
296,148,48199,2,0,P|304:72|248:24,2,149.999998569489,2|0|2,0:0|0:0|0:0,0:0:0:0:
296,148,48949,1,2,0:0:0:0:
403,90,49249,5,4,0:0:0:0:
363,284,49549,6,2,B|403:314|459:282,2,99.9999952316285
275,330,49999,2,0,B|251:274|267:210|323:170|411:194,2,199.999990463257,0|2|0,0:0|0:0|0:0,0:0:0:0:
171,298,50749,1,0,0:0:0:0:
179,202,50899,2,0,B|203:154|243:114|299:90|355:90,1,199.999990463257,2|0,0:0|0:0,0:0:0:0:
335,91,51349,1,2,0:0:0:0:
256,192,51499,12,0,56149,0:0:0:0:
360,128,56449,6,0,B|341:170|341:170|293:194,1,99.9999952316285
152,256,56749,2,0,B|171:214|171:214|219:190,1,99.9999952316285
368,120,57049,2,2,B|416:96|416:96|435:54,1,99.9999952316285
144,264,57349,2,2,B|96:288|96:288|77:330,1,99.9999952316285
64,80,57649,6,2,B|160:40|264:72,1,199.999990463257,6|2,0:0|0:0,0:0:0:0:
371,82,58099,1,0,0:0:0:0:
467,66,58249,1,0,0:0:0:0:
432,160,58399,6,0,B|400:224|480:256,2,99.9999952316285,8|8|0,0:0|0:0|0:0,0:0:0:0:
339,170,58849,1,8,0:0:0:0:
243,154,58999,1,0,0:0:0:0:
155,202,59149,1,8,0:0:0:0:
147,202,59224,1,0,0:0:0:0:
139,202,59299,1,0,0:0:0:0:
131,202,59374,1,0,0:0:0:0:
123,202,59449,1,8,0:0:0:0:
83,298,59599,6,0,B|27:266|27:210,2,99.9999952316285,2|2|0,0:0|0:0|0:0,0:0:0:0:
155,362,60049,2,0,B|203:314|163:250,1,99.9999952316285,2|0,0:0|0:0,0:0:0:0:
283,234,60349,2,0,B|235:282|275:346,2,99.9999952316285,2|0|2,0:0|0:0|0:0,0:0:0:0:
376,208,60799,5,8,0:0:0:0:
384,208,60874,1,0,0:0:0:0:
392,208,60949,1,8,0:0:0:0:
411,114,61099,1,0,0:0:0:0:
331,50,61249,2,8,B|275:90|323:178,1,99.9999952316285
211,170,61549,2,0,B|227:114|123:66,1,99.9999952316285
112,176,61849,1,8,0:0:0:0:
112,176,62149,1,8,0:0:0:0:
176,368,62449,5,2,0:0:0:0:
251,298,62599,1,0,0:0:0:0:
251,298,62749,1,2,0:0:0:0:
352,280,62899,2,0,P|328:232|280:200,1,99.9999952316285,0|2,0:0|0:0,0:0:0:0:
192,208,63199,6,0,P|208:152|240:120,2,99.9999952316285,8|8|0,0:0|0:0|0:0,0:0:0:0:
107,274,63649,2,0,B|35:242|35:178,1,99.9999952316285,8|0,0:0|0:0,0:0:0:0:
136,232,63949,2,0,B|104:184|120:120,1,99.9999952316285,8|0,0:0|0:0,0:0:0:0:
192,208,64249,1,8,0:0:0:0:
280,256,64399,5,0,0:0:0:0:
376,232,64549,1,0,0:0:0:0:
435,154,64699,1,0,0:0:0:0:
443,58,64849,2,0,B|371:50|307:90|283:162,2,199.999990463257
43,338,65749,5,4,0:0:0:0:
443,58,66049,5,0,0:0:0:0:
387,34,66199,1,0,0:0:0:0:
307,26,66349,1,0,0:0:0:0:
203,42,66499,1,0,0:0:0:0:
99,106,66649,1,0,0:0:0:0:
67,242,66799,1,0,0:0:0:0:
179,354,66949,1,0,0:0:0:0:
360,336,67099,1,0,0:0:0:0:
432,144,67249,6,0,B|349:222,1,99.9999952316285
360,336,67549,2,0,B|440:264,1,99.9999952316285
432,144,67849,1,0,0:0:0:0:
85,146,67999,5,0,0:0:0:0:
184,216,68149,2,0,P|208:168|200:112,1,99.9999952316285
328,104,68449,2,0,P|333:202|286:289,2,199.999990463257
143,4,69199,6,0,B|88:24|80:80,2,99.9999952316285
184,104,69649,2,0,P|178:202|225:289,2,199.999990463257
352,32,70399,5,0,0:0:0:0:
160,32,70549,1,0,0:0:0:0:
256,192,70699,1,0,0:0:0:0:
304,280,70849,1,0,0:0:0:0:
208,280,70999,1,0,0:0:0:0:
352,368,71149,1,0,0:0:0:0:
160,368,71299,1,0,0:0:0:0:
256,112,71449,5,0,0:0:0:0:
256,112,71749,1,0,0:0:0:0:
256,112,72049,6,0,B|280:48|344:32,1,99.9999952316285
200,168,72349,2,0,B|132:179|86:131,1,99.9999952316285
280,192,72649,2,0,B|323:244|305:308,1,99.9999952316285
208,296,72949,5,0,0:0:0:0:
120,264,73099,1,0,0:0:0:0:
80,168,73249,1,0,0:0:0:0:
104,72,73399,1,0,0:0:0:0:
192,16,73549,2,0,B|240:0|304:0|352:32|376:64,1,199.999990463257
424,152,73999,5,0,0:0:0:0:
456,248,74149,1,0,0:0:0:0:
376,312,74299,1,0,0:0:0:0:
352,216,74449,1,0,0:0:0:0:
88,32,74749,1,0,0:0:0:0:
56,352,75049,1,0,0:0:0:0:
352,216,75349,5,0,0:0:0:0:
232,169,75649,5,2,0:0:0:0:
161,100,75799,1,0,0:0:0:0:
161,100,75949,1,0,0:0:0:0:
90,31,76099,1,0,0:0:0:0:
224,184,76249,5,2,0:0:0:0:
128,160,76399,1,0,0:0:0:0:
128,160,76549,1,0,0:0:0:0:
32,136,76699,1,0,0:0:0:0:
224,201,76849,5,2,0:0:0:0:
129,228,76999,1,0,0:0:0:0:
129,228,77149,1,0,0:0:0:0:
34,255,77299,1,0,0:0:0:0:
233,215,77449,5,2,0:0:0:0:
164,286,77599,1,0,0:0:0:0:
164,286,77749,1,0,0:0:0:0:
95,357,77899,1,0,0:0:0:0:
247,223,78049,5,0,0:0:0:0:
360,56,78349,1,0,0:0:0:0:
321,350,78649,1,0,0:0:0:0:
86,169,78949,1,0,0:0:0:0:
256,192,79249,5,0,0:0:0:0:
352,144,79399,1,0,0:0:0:0:
272,88,79549,1,0,0:0:0:0:
256,192,79699,1,0,0:0:0:0:
248,296,79849,2,0,B|232:352|152:360|120:288|168:240,1,199.999990463257
256,64,80449,6,0,B|160:152,1,124.999992176891
304,136,80749,2,0,B|400:232,1,124.999992176891
240,184,81049,2,0,B|192:304,1,124.999992176891
280,272,81349,2,0,B|320:392,1,124.999992176891
72,304,81649,5,0,0:0:0:0:
112,168,81799,1,0,0:0:0:0:
208,72,81949,1,0,0:0:0:0:
344,48,82099,1,0,0:0:0:0:
488,96,82249,2,2,B|496:184|416:240|336:176|368:96|464:72,1,299.99997675419
256,56,82849,5,0,0:0:0:0:
256,328,83149,1,0,0:0:0:0:
392,192,83449,1,0,0:0:0:0:
120,192,83749,1,0,0:0:0:0:
328,120,84049,5,0,0:0:0:0:
256,192,84199,1,0,0:0:0:0:
256,192,84349,1,0,0:0:0:0:
184,264,84499,1,0,0:0:0:0:
184,128,84649,6,0,B|352:280,1,199.999990463257
256,56,85249,6,0,B|296:24|352:16|408:24|456:64,1,199.999990463257
320,128,85699,2,0,B|370:120|423:141|467:176|489:234,1,199.999990463257
296,216,86149,2,0,B|343:234|378:279|399:331|389:393,1,199.999990463257
256,320,86599,5,0,0:0:0:0:
160,288,86749,1,0,0:0:0:0:
128,192,86899,1,0,0:0:0:0:
160,96,87049,5,0,0:0:0:0:
256,64,87199,1,0,0:0:0:0:
352,96,87349,1,0,0:0:0:0:
384,192,87499,1,0,0:0:0:0:
352,288,87649,5,0,0:0:0:0:
256,320,87799,1,0,0:0:0:0:
160,288,87949,1,0,0:0:0:0:
128,192,88099,1,0,0:0:0:0:
160,96,88249,5,0,0:0:0:0:
256,64,88399,1,0,0:0:0:0:
352,96,88549,1,0,0:0:0:0:
384,192,88699,1,0,0:0:0:0:
256,192,88849,5,2,0:0:0:0:
296,280,88999,1,0,0:0:0:0:
304,288,89074,1,0,0:0:0:0:
312,296,89149,1,0,0:0:0:0:
408,312,89299,1,0,0:0:0:0:
408,312,89449,1,2,0:0:0:0:
312,296,89599,1,0,0:0:0:0:
304,288,89674,1,0,0:0:0:0:
296,280,89749,1,0,0:0:0:0:
256,192,89899,2,2,P|248:136|192:104,1,99.9999952316285,2|0,0:0|0:0,0:0:0:0:
80,96,90199,1,2,0:0:0:0:
40,192,90349,1,0,0:0:0:0:
72,296,90499,2,2,P|136:304|200:192,1,199.999990463257
208,200,90874,1,0,0:0:0:0:
216,200,90949,1,2,0:0:0:0:
352,192,91099,1,0,0:0:0:0:
432,136,91249,6,0,B|400:56|344:48,1,99.9999952316285,2|0,0:0|0:0,0:0:0:0:
280,32,91549,1,0,0:0:0:0:
184,40,91699,1,0,0:0:0:0:
88,72,91849,2,0,B|168:152,1,99.9999952316285,2|0,0:0|0:0,0:0:0:0:
160,240,92149,2,0,B|80:320,1,99.9999952316285,0|2,0:0|0:0,0:0:0:0:
256,384,92599,1,2,0:0:0:0:
424,312,92899,1,2,0:0:0:0:
264,192,93199,1,0,0:0:0:0:
256,184,93274,1,0,0:0:0:0:
248,176,93349,2,2,P|224:128|240:80,1,99.9999952316285
256,192,98449,5,4,0:0:0:0:
368,48,98749,5,2,0:0:0:0:
432,112,98899,1,0,0:0:0:0:
432,128,98974,1,0,0:0:0:0:
432,144,99049,1,0,0:0:0:0:
368,208,99199,1,0,0:0:0:0:
432,272,99349,1,0,0:0:0:0:
368,336,99499,2,2,B|328:296|280:272|232:296|192:336,2,199.999990463257
104,320,100399,1,0,0:0:0:0:
104,320,100474,1,0,0:0:0:0:
104,320,100549,1,0,0:0:0:0:
104,320,100699,1,0,0:0:0:0:
256,192,100849,5,4,0:0:0:0:
128,64,101149,5,2,0:0:0:0:
104,64,101224,1,0,0:0:0:0:
80,64,101299,1,0,0:0:0:0:
24,136,101449,1,2,0:0:0:0:
24,136,101599,1,2,0:0:0:0:
80,208,101749,1,0,0:0:0:0:
80,208,101899,2,0,P|144:296|232:288,1,199.999990463257
24,312,102499,2,0,P|120:288|184:200,1,199.999990463257
182,202,102874,1,0,0:0:0:0:
184,192,102949,2,0,B|192:136|256:120,1,99.9999952316285
424,32,103249,6,0,B|520:8,1,99.9999952316285,2|0,0:0|0:0,0:0:0:0:
408,80,103549,2,0,B|512:72,1,99.9999952316285
392,128,103849,2,0,B|504:136,1,99.9999952316285,2|0,0:0|0:0,0:0:0:0:
376,176,104149,1,0,0:0:0:0:
480,200,104299,2,0,B|480:256|448:296|384:304|336:296,1,199.999990463257,2|0,0:0|0:0,0:0:0:0:
256,104,104899,6,0,B|240:48|184:16|128:48|112:112,1,199.999990463257
114,114,105274,1,0,0:0:0:0:
114,124,105349,2,2,B|58:140|26:196|58:252|122:268,1,199.999990463257,2|2,0:0|0:0,0:0:0:0:
168,352,105799,1,0,0:0:0:0:
216,264,105949,1,0,0:0:0:0:
264,352,106099,1,0,0:0:0:0:
312,264,106249,1,2,0:0:0:0:
360,352,106399,1,0,0:0:0:0:
408,264,106549,1,0,0:0:0:0:
360,168,106699,2,0,L|304:168,8,49.9999976158143,2|2|2|2|2|2|2|2|2,0:0|0:0|0:0|0:0|0:0|0:0|0:0|0:0|0:0,0:0:0:0:
312,80,108049,5,4,0:0:0:0:
48,344,108349,5,2,0:0:0:0:
64,248,108499,1,0,0:0:0:0:
160,256,108649,2,0,B|136:144,2,99.9999952316285
248,216,109099,1,2,0:0:0:0:
336,168,109249,1,0,0:0:0:0:
336,264,109399,1,2,0:0:0:0:
336,264,109549,1,0,0:0:0:0:
424,224,109699,1,2,0:0:0:0:
424,224,109849,1,0,0:0:0:0:
384,344,109999,2,2,B|448:368|472:296,2,99.9999952316285
256,192,110449,5,4,0:0:0:0:
112,56,110749,6,2,B|-8:104,1,99.9999952316285
144,104,111049,2,0,B|56:200,1,99.9999952316285
144,248,111349,1,2,0:0:0:0:
48,272,111499,1,2,0:0:0:0:
112,344,111649,1,0,0:0:0:0:
208,328,111799,2,0,B|256:328|308:284|336:232|304:160,2,199.999990463257
112,344,112549,1,0,0:0:0:0:
16,368,112699,1,0,0:0:0:0:
48,272,112849,5,2,0:0:0:0:
32,176,112999,1,0,0:0:0:0:
40,160,113074,1,0,0:0:0:0:
48,144,113149,1,0,0:0:0:0:
128,80,113299,1,0,0:0:0:0:
224,56,113449,1,2,0:0:0:0:
240,56,113524,1,0,0:0:0:0:
256,56,113599,1,0,0:0:0:0:
352,32,113749,1,0,0:0:0:0:
416,104,113899,6,2,P|456:192|416:280,1,199.999990463257
352,192,114349,1,0,0:0:0:0:
288,104,114499,2,2,P|248:192|288:280,1,199.999990463257
352,192,114949,1,2,0:0:0:0:
352,192,115099,1,2,0:0:0:0:
352,88,115249,6,0,P|368:40|408:8,2,99.9999952316285,2|0|2,0:0|0:0|0:0,0:0:0:0:
272,144,115699,1,0,0:0:0:0:
240,240,115849,5,2,0:0:0:0:
159,296,116000,2,0,P|144:342|106:374,2,99.9999952316285,2|0|2,0:0|0:0|0:0,0:0:0:0:
256,192,116374,12,2,117649,0:0:0:0:
198,189,117799,5,0,0:0:0:0:
287,143,117949,1,0,0:0:0:0:
282,243,118099,1,0,0:0:0:0:
162,152,118249,5,2,0:0:0:0:
295,98,118399,1,0,0:0:0:0:
349,231,118549,1,0,0:0:0:0:
216,285,118699,1,0,0:0:0:0:
194,58,118849,5,2,0:0:0:0:
363,92,118999,1,0,0:0:0:0:
383,263,119149,1,0,0:0:0:0:
227,335,119299,1,0,0:0:0:0:
110,209,119449,1,2,0:0:0:0:
256,192,119599,5,0,0:0:0:0:
256,192,119749,1,0,0:0:0:0:
256,192,119899,1,0,0:0:0:0:
320,160,120049,2,0,B|320:232,1,49.9999976158143,8|0,0:0|0:0,0:0:0:0:
192,224,120349,2,0,B|192:152,1,49.9999976158143
392,128,120649,2,0,B|392:264,1,99.9999952316285,8|0,0:0|0:0,0:0:0:0:
120,256,120949,2,0,B|120:120,1,99.9999952316285
464,96,121249,2,0,B|464:256,1,149.999988377095,8|0,0:0|0:0,0:0:0:0:
48,288,121549,2,0,B|48:128,2,149.999988377095,0|0|8,0:0|0:0|0:0,0:0:0:0:
256,192,121999,6,0,B|256:224|208:240,2,49.9999976158143,0|2|0,0:0|0:0|0:0,0:0:0:0:
256,192,122449,2,0,B|207:220|160:200,1,74.9999941885474,2|0,0:0|0:0,0:0:0:0:
256,192,122749,2,0,B|207:164|196:102,1,99.9999952316285
256,192,123049,2,0,B|256:128|312:80,1,124.999992176891,2|0,0:0|0:0,0:0:0:0:
256,192,123349,2,0,B|325:152|414:211,1,149.999988377095
256,192,123649,2,0,B|339:240|320:367,1,174.999983832241,2|0,0:0|0:0,0:0:0:0:
256,192,123949,2,0,B|256:320|136:368,1,199.999990463257
256,192,124249,1,2,0:0:0:0:
273,97,124399,6,0,B|295:45|237:13,2,99.9999952316285,0|8|0,0:0|0:0|0:0,0:0:0:0:
346,159,124849,2,0,B|402:152|401:86,1,99.9999952316285,8|0,0:0|0:0,0:0:0:0:
329,254,125149,2,0,B|363:299|420:265,1,99.9999952316285,0|0,0:0|0:0,0:0:0:0:
239,287,125449,2,0,B|217:339|275:371,1,99.9999952316285,8|0,0:0|0:0,0:0:0:0:
165,224,125749,2,0,B|109:231|110:297,1,99.9999952316285,0|0,0:0|0:0,0:0:0:0:
182,129,126049,2,0,B|148:84|91:118,2,99.9999952316285,8|0|8,0:0|0:0|0:0,0:0:0:0:
256,192,126649,5,8,0:0:0:0:
256,192,126949,1,4,0:0:0:0:
440,192,127249,5,4,0:0:0:0:
72,328,127549,5,0,0:0:0:0:
120,240,127699,1,0,0:0:0:0:
64,152,127849,2,0,B|128:48,1,99.9999952316285,2|0,0:0|0:0,0:0:0:0:
116,66,128149,1,0,0:0:0:0:
176,144,128299,2,0,B|216:168|256:216|240:280|200:320,3,199.999990463257,2|0|2|0,0:0|0:0|0:0|0:0,0:0:0:0:
205,314,129349,1,2,0:0:0:0:
456,64,129649,5,4,0:0:0:0:
64,336,129949,5,0,0:0:0:0:
40,216,130099,1,0,0:0:0:0:
152,248,130249,1,2,0:0:0:0:
128,128,130399,2,0,P|208:64|304:56,1,199.999990463257,2|0,0:0|0:0,0:0:0:0:
432,56,130849,1,0,0:0:0:0:
432,56,130999,1,2,0:0:0:0:
488,160,131149,2,0,B|520:208|472:272,2,99.9999952316285,2|2|0,0:0|0:0|0:0,0:0:0:0:
432,56,131599,1,2,0:0:0:0:
368,160,131749,1,2,0:0:0:0:
64,336,132049,5,4,0:0:0:0:
136,144,132349,5,2,0:0:0:0:
272,160,132499,1,0,0:0:0:0:
192,272,132649,1,2,0:0:0:0:
328,288,132799,2,2,B|424:368,2,99.9999952316285
136,144,133399,2,2,B|48:72,2,99.9999952316285
328,288,133999,2,2,B|424:368,1,99.9999952316285
256,192,134449,12,0,138949,0:0:0:0:
80,304,139249,6,8,B|80:80,1,199.999990463257
432,80,139849,2,8,B|432:304,1,199.999990463257
224,120,140449,2,8,B|192:40|256:23|320:40|288:120,2,199.999990463257
256,320,141349,5,4,0:0:0:0:
56,224,141649,6,0,B|56:336,2,99.9999952316285,2|0|2,0:0|0:0|0:0,0:0:0:0:
56,128,142099,1,0,0:0:0:0:
56,32,142249,1,2,0:0:0:0:
216,32,142399,5,8,0:0:0:0:
312,72,142549,1,8,0:0:0:0:
216,96,142699,1,0,0:0:0:0:
312,136,142849,1,8,0:0:0:0:
312,152,142924,1,0,0:0:0:0:
312,168,142999,1,0,0:0:0:0:
216,160,143149,1,8,0:0:0:0:
216,176,143224,1,0,0:0:0:0:
216,192,143299,1,0,0:0:0:0:
312,232,143449,1,8,0:0:0:0:
456,352,143599,5,2,0:0:0:0:
368,296,143749,2,2,B|400:232|480:256,1,99.9999952316285
504,168,144049,2,0,B|440:128|376:168,1,99.9999952316285,2|0,0:0|0:0,0:0:0:0:
312,120,144349,2,0,B|336:48|424:48,2,99.9999952316285,2|0|2,0:0|0:0|0:0,0:0:0:0:
256,200,144799,5,8,0:0:0:0:
192,280,144949,2,8,B|144:256|144:200,1,99.9999952316285
120,104,145249,2,0,B|130:71|99:31,2,49.9999976158143,8|0|0,0:0|0:0|0:0,0:0:0:0:
208,112,145549,2,0,B|236:93|238:43,2,49.9999976158143,8|0|0,0:0|0:0|0:0,0:0:0:0:
143,198,145849,2,8,B|144:256|192:280,2,99.9999952316285
424,224,146449,6,0,B|472:192|456:136,1,99.9999952316285,2|0,0:0|0:0,0:0:0:0:
384,64,146749,2,0,B|336:96|352:152,2,99.9999952316285,2|0|2,0:0|0:0|0:0,0:0:0:0:
72,72,147199,5,8,0:0:0:0:
112,168,147349,2,8,B|176:144|176:64,1,99.9999952316285
264,128,147649,1,8,0:0:0:0:
224,224,147799,1,0,0:0:0:0:
224,224,147949,1,8,0:0:0:0:
136,272,148099,1,0,0:0:0:0:
136,272,148249,1,8,0:0:0:0:
288,328,148399,6,2,B|240:320|208:272,1,99.9999952316285
152,192,148699,2,0,B|184:144|144:96,2,99.9999952316285,2|2|0,0:0|0:0|0:0,0:0:0:0:
80,248,149149,2,2,B|80:304|104:352|152:368|208:368,1,199.999990463257
424,72,149749,5,4,0:0:0:0:
88,312,150049,5,2,0:0:0:0:
208,328,150199,2,2,B|272:344|328:320,1,119.999997138977
432,216,150499,2,2,B|464:136|416:56,1,149.999988377095
240,40,150799,2,2,B|128:55|72:152,1,179.999982833863
88,312,151099,1,2,0:0:0:0:
256,192,151249,5,2,0:0:0:0:
288,96,151399,2,2,B|344:112|352:168,1,99.9999952316285
224,288,151699,2,0,B|168:272|160:216,1,99.9999952316285
160,120,151999,6,0,B|112:80|64:120,2,99.9999952316285
352,264,152449,2,0,B|464:336|528:240,2,199.999990463257
256,192,153199,5,0,0:0:0:0:
288,96,153349,2,0,B|360:168,1,99.9999952316285
456,144,153649,2,0,B|312:0,2,199.999990463257
80,336,154399,5,0,0:0:0:0:
112,240,154549,1,0,0:0:0:0:
184,320,154699,1,0,0:0:0:0:
280,304,154849,2,0,B|264:256|216:232,1,99.9999952316285
152,160,155149,2,0,B|200:184|216:232,1,99.9999952316285
256,144,155449,2,0,B|267:98|306:81|346:98|363:138|346:177|301:189,1,199.999990463257
440,320,156049,6,0,B|440:208,1,99.9999952316285
72,192,156349,2,0,B|72:80,1,99.9999952316285
440,64,156649,1,0,0:0:0:0:
208,224,156799,6,0,B|128:304,2,99.9999952316285
304,224,157249,2,0,B|384:304,2,99.9999952316285
256,48,157849,1,0,0:0:0:0:
256,192,157999,5,0,0:0:0:0:
256,192,158149,1,0,0:0:0:0:
256,192,158299,1,0,0:0:0:0:
82,241,158449,1,0,0:0:0:0:
299,17,158749,1,0,0:0:0:0:
385,317,159049,1,0,0:0:0:0:
82,241,159349,1,0,0:0:0:0:
344,192,159649,6,0,B|400:176|440:160|464:104|456:40,1,199.999990463257,2|0,0:0|0:0,0:0:0:0:
256,280,160249,2,0,B|270:327|284:361|331:382|386:375,1,169.999984800816,2|0,0:0|0:0,0:0:0:0:
168,192,160849,2,0,B|129:203|101:214|85:253|90:298,1,139.99998998642,2|0,0:0|0:0,0:0:0:0:
256,104,161449,2,0,B|248:73|239:51|208:38|173:42,1,109.999991476536,2|0,0:0|0:0,0:0:0:0:
256,192,162049,5,2,0:0:0:0:
248,272,162499,6,0,B|192:248,1,49.9999976158143,0|2,0:0|0:0,0:0:0:0:
264,112,162799,2,0,B|320:136,1,49.9999976158143,2|0,0:0|0:0,0:0:0:0:
256,192,163099,1,0,0:0:0:0:
400,200,163249,6,2,B|344:304,1,99.9999952316285
112,184,163849,2,0,B|168:80,1,99.9999952316285,0|2,0:0|0:0,0:0:0:0:
256,192,164299,5,2,0:0:0:0:
416,112,164449,2,0,B|376:40|304:16,1,149.999988377095,2|0,0:0|0:0,0:0:0:0:
256,192,164899,1,0,0:0:0:0:
96,272,165049,2,0,B|136:344|208:368,1,149.999988377095,2|0,0:0|0:0,0:0:0:0:
256,192,165499,1,0,0:0:0:0:
216,112,165649,6,0,B|176:128|168:168,1,74.9999941885474,2|2,0:0|0:0,0:0:0:0:
296,271,165949,2,0,B|336:256|343:218,2,74.9999941885474,2|0|2,0:0|0:0|0:0,0:0:0:0:
472,160,166549,6,2,B|464:96|408:88,1,99.9999952316285
384,168,166849,2,0,B|352:144|320:136|344:96|320:56|288:32|248:32,1,199.999990463257,2|0,0:0|0:0,0:0:0:0:
256,192,167299,1,0,0:0:0:0:
256,344,167449,6,2,B|224:320|192:312|216:272|192:232|160:208|120:208,1,199.999990463257
99,295,167899,2,0,B|48:288|40:224,1,99.9999952316285,0|2,0:0|0:0,0:0:0:0:
304,40,168349,1,2,0:0:0:0:
344,360,168649,1,2,0:0:0:0:
256,192,168949,5,2,0:0:0:0:
256,192,169249,1,2,0:0:0:0:
256,192,169324,12,0,170449,0:0:0:0:
256,192,170599,5,2,0:0:0:0:
336,128,170749,1,2,0:0:0:0:
240,90,170899,1,2,0:0:0:0:
160,154,171049,1,2,0:0:0:0:
176,256,171199,1,2,0:0:0:0:
271,293,171349,1,2,0:0:0:0:
351,229,171499,1,2,0:0:0:0:
448,256,171649,5,6,0:0:0:0:
472,160,171799,1,0,0:0:0:0:
472,152,171874,1,0,0:0:0:0:
472,144,171949,1,0,0:0:0:0:
448,48,172099,1,0,0:0:0:0:
448,48,172249,1,2,0:0:0:0:
424,144,172399,1,0,0:0:0:0:
424,152,172474,1,0,0:0:0:0:
424,160,172549,1,0,0:0:0:0:
448,256,172699,2,2,B|448:312|408:344|344:360|288:312,2,199.999990463257
256,200,173599,2,0,B|232:184|224:160|224:128|240:104,2,99.9999952316285,0|2|2,0:0|0:0|0:0,0:0:0:0:
192,280,174049,6,0,B|144:320|96:320|48:296|24:240,2,199.999990463257,2|0|2,0:0|0:0|0:0,0:0:0:0:
120,208,174799,2,0,B|120:184|104:160|80:152|48:152,1,99.9999952316285
128,88,175099,1,2,0:0:0:0:
229,354,175399,1,2,0:0:0:0:
410,133,175699,1,2,0:0:0:0:
352,264,175999,5,0,0:0:0:0:
256,240,176149,2,2,B|256:140,1,99.9999952316285
160,120,176449,1,4,0:0:0:0:
344,48,176749,6,2,B|464:48,1,99.9999952316285
392,136,177049,1,0,0:0:0:0:
304,192,177199,2,0,B|336:232|392:256|448:232|480:192,2,199.999990463257,2|0|0,0:0|0:0|0:0,0:0:0:0:
392,136,177949,1,0,0:0:0:0:
392,136,178099,1,0,0:0:0:0:
480,80,178249,2,2,B|448:40|392:16|336:40|304:80,2,199.999990463257,2|2|6,0:0|0:0|0:0,0:0:0:0:
208,336,183649,6,0,B|328:336,1,99.9999952316285,0|2,0:0|0:0,0:0:0:0:
160,256,184249,2,0,B|392:256,1,199.999990463257,0|2,0:0|0:0,0:0:0:0:
112,176,184849,2,0,B|416:176,1,299.99997675419,0|2,0:0|0:0,0:0:0:0:
56,96,185449,2,0,B|464:96,1,399.999980926514,0|2,0:0|0:0,0:0:0:0:
256,296,186049,5,2,0:0:0:0:
294,289,186124,1,0,0:0:0:0:
329,266,186199,1,0,0:0:0:0:
351,233,186274,1,0,0:0:0:0:
360,192,186349,1,2,0:0:0:0:
352,154,186424,1,0,0:0:0:0:
329,119,186499,1,0,0:0:0:0:
296,97,186574,1,0,0:0:0:0:
256,88,186649,1,2,0:0:0:0:
217,96,186724,1,0,0:0:0:0:
182,119,186799,1,0,0:0:0:0:
160,152,186874,1,0,0:0:0:0:
152,192,186949,1,2,0:0:0:0:
159,231,187024,1,0,0:0:0:0:
182,266,187099,1,0,0:0:0:0:
215,288,187174,1,0,0:0:0:0:
267,222,187249,5,8,0:0:0:0:
285,181,187399,1,8,0:0:0:0:
244,163,187549,1,8,0:0:0:0:
226,204,187699,1,8,0:0:0:0:
392,283,187849,5,2,0:0:0:0:
346,57,187999,1,2,0:0:0:0:
118,100,188149,1,2,0:0:0:0:
164,326,188299,1,2,0:0:0:0:
456,152,188449,6,2,B|496:120|496:48|440:16|384:24,2,199.999990463257
256,256,189199,6,8,B|224:352,2,99.9999952316285
216,232,189649,2,0,B|144:304,1,99.9999952316285,8|0,0:0|0:0,0:0:0:0:
192,192,189949,1,8,0:0:0:0:
176,200,190024,1,0,0:0:0:0:
160,208,190099,2,0,B|64:256,1,99.9999952316285,0|8,0:0|0:0,0:0:0:0:
464,64,190399,6,2,B|496:112|464:160,1,99.9999952316285
392,112,190699,1,0,0:0:0:0:
376,24,190849,2,0,B|328:32|296:72|280:128|328:192,2,199.999990463257,2|2|2,0:0|0:0|0:0,0:0:0:0:
136,272,191599,6,8,B|56:352,2,99.9999952316285
160,176,192049,1,8,0:0:0:0:
160,176,192124,1,0,0:0:0:0:
160,176,192199,1,0,0:0:0:0:
240,240,192349,1,8,0:0:0:0:
240,240,192424,1,0,0:0:0:0:
240,240,192499,1,0,0:0:0:0:
208,96,192649,2,8,B|264:80|312:96|336:152|320:208,1,199.999990463257
376,80,193249,6,2,B|440:64|464:120,1,99.9999952316285
400,160,193549,2,0,B|336:176|312:120,1,99.9999952316285,2|0,0:0|0:0,0:0:0:0:
296,48,193849,1,2,0:0:0:0:
128,336,193999,6,8,B|64:352|40:296,2,99.9999952316285
104,256,194449,2,0,B|176:248|200:304,1,99.9999952316285,8|0,0:0|0:0,0:0:0:0:
200,368,194749,2,8,B|264:368|272:304,2,99.9999952316285,8|0|8,0:0|0:0|0:0,0:0:0:0:
256,192,195199,6,0,B|256:72,2,99.9999952316285,2|0|2,0:0|0:0|0:0,0:0:0:0:
216,280,195649,2,2,P|256:352|296:280,2,199.999990463257
296,104,196549,2,0,P|256:32|216:104,1,199.999990463257,4|0,0:0|0:0,0:0:0:0:
128,272,196999,6,2,B|24:312,1,99.9999952316285
384,176,197299,2,2,B|488:216,1,99.9999952316285
128,88,197599,2,2,B|24:128,2,99.9999952316285
256,88,198049,6,0,B|256:32|320:16,2,99.9999952316285,2|0|2,0:0|0:0|0:0,0:0:0:0:
256,192,198499,1,0,0:0:0:0:
256,296,198649,1,2,0:0:0:0:
336,240,198799,6,8,B|336:120,2,99.9999952316285
176,96,199249,2,8,B|176:312,2,199.999990463257
80,192,199999,6,0,B|-24:192,2,99.9999952316285,2|2|0,0:0|0:0|0:0,0:0:0:0:
176,192,200449,2,0,B|408:192,2,199.999990463257,2|2|2,0:0|0:0|0:0,0:0:0:0:
440,344,201199,6,0,B|360:264,2,99.9999952316285,8|8|0,0:0|0:0|0:0,0:0:0:0:
336,344,201649,2,0,B|256:264,1,99.9999952316285,8|0,0:0|0:0,0:0:0:0:
232,344,201949,2,0,B|152:264,1,99.9999952316285,8|0,0:0|0:0,0:0:0:0:
128,344,202249,2,8,B|48:264,2,99.9999952316285
64,104,202849,6,0,B|134:33,1,99.9999952316285,2|0,0:0|0:0,0:0:0:0:
176,112,203149,2,0,B|246:41,2,99.9999952316285,2|0|2,0:0|0:0|0:0,0:0:0:0:
360,192,203599,6,8,B|480:192,2,99.9999952316285
152,192,204049,2,0,B|32:192,2,99.9999952316285,8|0|8,0:0|0:0|0:0,0:0:0:0:
256,96,204649,5,0,0:0:0:0:
256,192,204799,1,2,0:0:0:0:
256,288,204949,1,2,0:0:0:0:
256,192,205099,1,0,0:0:0:0:
376,64,205249,5,4,0:0:0:0:
306,359,205549,1,4,0:0:0:0:
85,152,205849,1,4,0:0:0:0:
256,192,206149,5,8,0:0:0:0:
392,96,206449,6,0,B|424:128|440:192|424:256|392:288,1,199.999990463257,2|0,0:0|0:0,0:0:0:0:
120,288,207049,2,0,B|88:256|72:192|88:128|120:96,1,199.999990463257
352,328,207649,2,0,B|320:360|256:376|192:360|160:328,1,199.999990463257
160,56,208249,2,0,B|192:24|256:8|320:24|352:56,1,199.999990463257
256,192,208849,5,0,0:0:0:0:
152,56,209149,1,0,0:0:0:0:
191,350,209449,1,0,0:0:0:0:
426,169,209749,1,0,0:0:0:0:
256,192,210049,5,0,0:0:0:0:
168,144,210199,1,0,0:0:0:0:
248,88,210349,1,0,0:0:0:0:
256,192,210499,1,0,0:0:0:0:
344,240,210649,2,0,B|392:288|360:360|280:352|264:296,1,199.999990463257
256,64,211249,6,0,B|352:152,1,124.999992176891
208,136,211549,2,0,B|112:232,1,124.999992176891
272,184,211849,2,0,B|320:304,1,124.999992176891
232,272,212149,2,0,B|192:392,1,124.999992176891
440,304,212449,5,0,0:0:0:0:
400,168,212599,1,0,0:0:0:0:
304,72,212749,1,0,0:0:0:0:
168,48,212899,1,0,0:0:0:0:
24,96,213049,2,0,B|16:184|96:240|176:176|144:96|48:72,1,299.99997675419,2|2,0:0|0:0,0:0:0:0:
445,322,213649,5,0,0:0:0:0:
61,226,213949,1,0,0:0:0:0:
445,122,214249,1,0,0:0:0:0:
61,18,214549,1,0,0:0:0:0:
301,338,214849,5,0,0:0:0:0:
248,240,214999,1,0,0:0:0:0:
144,184,215149,1,0,0:0:0:0:
237,122,215299,1,0,0:0:0:0:
245,26,215449,2,0,B|293:26|341:66|349:122|317:178,1,199.999990463257
310,59,216049,5,0,0:0:0:0:
157,79,216199,5,2,0:0:0:0:
157,79,216349,1,2,0:0:0:0:
111,216,216499,5,0,0:0:0:0:
203,333,216649,5,2,0:0:0:0:
203,333,216799,1,2,0:0:0:0:
346,318,216949,5,0,0:0:0:0:
400,167,217099,5,2,0:0:0:0:
400,167,217249,1,2,0:0:0:0:
253,194,217399,5,2,0:0:0:0:
157,226,217549,1,2,0:0:0:0:
93,138,217699,1,0,0:0:0:0:
181,50,217849,1,2,0:0:0:0:
309,42,217999,1,2,0:0:0:0:
416,144,218149,1,2,0:0:0:0:
448,344,218299,1,2,0:0:0:0:
256,192,218374,12,4,219499,0:0:0:0:
