osu file format v13

[General]
AudioFilename: bgm_event1.mp3
AudioLeadIn: 0
PreviewTime: 11314
Countdown: 0
SampleSet: Normal
StackLeniency: 0.7
Mode: 3
LetterboxInBreaks: 0
SpecialStyle: 0
WidescreenStoryboard: 1

[Editor]
DistanceSpacing: 0.8
BeatDivisor: 2
GridSize: 8
TimelineZoom: 1

[Metadata]
Title:Enemy Appearance!
TitleUnicode:Enemy Appearance!
Artist:Hyadain
ArtistUnicode:Hyadain
Creator:Marirose
Version:NM
Source:Kaku-San-Sei Million Arthur
Tags:SquareEnix
BeatmapID:440693
BeatmapSetID:184023

[Difficulty]
HPDrainRate:7
CircleSize:4
OverallDifficulty:7
ApproachRate:5
SliderMultiplier:1.4
SliderTickRate:1

[Events]
//Background and Video events
0,0,"BG.jpg",0,0
//Break Periods
//Storyboard Layer 0 (Background)
//Storyboard Layer 1 (Fail)
//Storyboard Layer 2 (Pass)
//Storyboard Layer 3 (Foreground)
//Storyboard Sound Samples
//Background Colour Transformations
3,100,163,162,255

[TimingPoints]
20,352.941176470588,4,1,0,100,1,0
11314,-100,4,1,0,100,0,1
22608,-100,4,1,0,100,0,0
33902,-100,4,1,0,100,0,1
45196,-100,4,1,0,100,0,0

[HitObjects]
192,192,20,5,0,0:0:0:30:normal-hitnormal.wav
320,192,549,5,0,0:0:0:30:normal-hitnormal.wav
448,192,2843,1,0,0:0:0:30:normal-hitnormal.wav
64,192,3372,1,0,0:0:0:30:normal-hitnormal.wav
64,192,5667,1,0,0:0:0:30:normal-hitnormal.wav
320,192,6019,1,0,0:0:0:30:normal-hitnormal.wav
64,192,6372,1,0,0:0:0:30:normal-hitnormal.wav
192,192,6725,1,0,0:0:0:30:normal-hitnormal.wav
448,192,7078,1,0,0:0:0:30:normal-hitnormal.wav
64,192,7431,1,0,0:0:0:30:normal-hitnormal.wav
192,192,7784,1,0,0:0:0:30:normal-hitnormal.wav
320,192,8137,1,0,0:0:0:30:normal-hitnormal.wav
448,192,8490,128,0,9019:0:0:0:30:normal-hitnormal.wav
64,192,8490,1,0,0:0:0:30:normal-hitnormal.wav
320,192,8843,1,0,0:0:0:30:normal-hitnormal.wav
64,192,9019,128,0,9549:0:0:0:30:normal-hitnormal.wav
192,192,9196,1,0,0:0:0:30:normal-hitnormal.wav
448,192,9549,1,0,0:0:0:30:normal-hitnormal.wav
448,192,9902,1,0,0:0:0:30:normal-hitnormal.wav
320,192,10078,1,0,0:0:0:30:normal-hitnormal.wav
192,192,10255,1,0,0:0:0:30:normal-hitnormal.wav
64,192,10431,1,0,0:0:0:30:normal-hitnormal.wav
448,192,10608,1,0,0:0:0:30:normal-hitnormal.wav
64,192,10784,1,0,0:0:0:30:normal-hitnormal.wav
448,192,10961,1,0,0:0:0:30:normal-hitnormal.wav
320,192,10961,1,0,0:0:0:30:normal-hitnormal.wav
192,192,11137,1,0,0:0:0:30:normal-hitnormal.wav
448,192,11314,1,0,0:0:0:30:normal-hitnormal.wav
192,192,11490,1,0,0:0:0:30:normal-hitnormal.wav
64,192,11667,1,0,0:0:0:10:soft-hitclap.wav
448,192,11843,1,0,0:0:0:30:normal-hitnormal.wav
64,192,12019,128,0,12372:0:0:0:30:normal-hitnormal.wav
192,192,12372,1,0,0:0:0:10:soft-hitclap.wav
448,192,12549,128,0,12902:0:0:0:30:normal-hitnormal.wav
320,192,12902,1,0,0:0:0:30:normal-hitnormal.wav
64,192,13078,1,0,0:0:0:10:soft-hitclap.wav
448,192,13255,1,0,0:0:0:30:normal-hitnormal.wav
192,192,13431,128,0,13784:0:0:0:30:normal-hitnormal.wav
448,192,13784,1,0,0:0:0:10:soft-hitclap.wav
320,192,14137,1,0,0:0:0:30:normal-hitnormal.wav
64,192,14314,1,0,0:0:0:30:normal-hitnormal.wav
192,192,14490,1,0,0:0:0:10:soft-hitclap.wav
320,192,14667,1,0,0:0:0:30:normal-hitnormal.wav
448,192,14843,128,0,15196:0:0:0:30:normal-hitnormal.wav
320,192,15196,1,0,0:0:0:10:soft-hitclap.wav
320,192,15372,128,0,15725:0:0:0:30:normal-hitnormal.wav
192,192,15725,1,0,0:0:0:30:normal-hitnormal.wav
64,192,15902,1,0,0:0:0:10:soft-hitclap.wav
192,192,16078,1,0,0:0:0:30:normal-hitnormal.wav
320,192,16255,128,0,16608:0:0:0:30:normal-hitnormal.wav
64,192,16608,128,0,16961:0:0:0:30:normal-hitnormal.wav
448,192,16608,1,0,0:0:0:10:soft-hitclap.wav
448,192,16961,1,0,0:0:0:30:normal-hitnormal.wav
320,192,17137,1,0,0:0:0:30:normal-hitnormal.wav
192,192,17314,1,0,0:0:0:10:soft-hitclap.wav
64,192,17490,1,0,0:0:0:30:normal-hitnormal.wav
320,192,17667,1,0,0:0:0:30:normal-hitnormal.wav
448,192,18019,1,0,0:0:0:10:soft-hitclap.wav
64,192,18196,1,0,0:0:0:30:normal-hitnormal.wav
320,192,18549,1,0,0:0:0:30:normal-hitnormal.wav
448,192,18725,1,0,0:0:0:10:soft-hitclap.wav
64,192,18902,1,0,0:0:0:30:normal-hitnormal.wav
320,192,19078,1,0,0:0:0:30:normal-hitnormal.wav
192,192,19431,1,0,0:0:0:10:soft-hitclap.wav
448,192,19784,1,0,0:0:0:30:normal-hitnormal.wav
64,192,20137,1,0,0:0:0:10:soft-hitclap.wav
320,192,20137,1,0,0:0:0:30:normal-hitnormal.wav
192,192,20490,1,0,0:0:0:30:normal-hitnormal.wav
320,192,20843,1,0,0:0:0:30:normal-hitnormal.wav
448,192,20843,1,0,0:0:0:10:soft-hitclap.wav
64,192,21196,1,0,0:0:0:30:normal-hitnormal.wav
320,192,21549,1,0,0:0:0:30:normal-hitnormal.wav
192,192,21549,1,0,0:0:0:10:soft-hitclap.wav
448,192,21902,1,0,0:0:0:30:normal-hitnormal.wav
64,192,22078,1,0,0:0:0:30:normal-hitnormal.wav
192,192,22255,1,0,0:0:0:30:normal-hitnormal.wav
320,192,22255,1,0,0:0:0:10:soft-hitclap.wav
448,192,22431,1,0,0:0:0:30:normal-hitnormal.wav
64,192,22608,1,0,0:0:0:30:normal-hitnormal.wav
192,192,22961,1,0,0:0:0:30:normal-hitnormal.wav
320,192,22961,1,0,0:0:0:10:soft-hitclap.wav
64,192,23314,1,0,0:0:0:30:normal-hitnormal.wav
320,192,23667,1,0,0:0:0:30:normal-hitnormal.wav
448,192,23667,1,0,0:0:0:10:soft-hitclap.wav
64,192,23843,1,0,0:0:0:30:normal-hitnormal.wav
192,192,24019,1,0,0:0:0:30:normal-hitnormal.wav
64,192,24372,1,0,0:0:0:10:soft-hitclap.wav
448,192,24372,1,0,0:0:0:30:normal-hitnormal.wav
192,192,24725,1,0,0:0:0:30:normal-hitnormal.wav
448,192,24902,1,0,0:0:0:30:normal-hitnormal.wav
64,192,25078,1,0,0:0:0:10:soft-hitclap.wav
192,192,25078,1,0,0:0:0:30:normal-hitnormal.wav
448,192,25431,1,0,0:0:0:30:normal-hitnormal.wav
64,192,25784,1,0,0:0:0:10:soft-hitclap.wav
320,192,25784,1,0,0:0:0:30:normal-hitnormal.wav
448,192,26137,1,0,0:0:0:30:normal-hitnormal.wav
64,192,26314,1,0,0:0:0:30:normal-hitnormal.wav
448,192,26490,1,0,0:0:0:30:normal-hitnormal.wav
320,192,26490,1,0,0:0:0:10:soft-hitclap.wav
192,192,26667,1,0,0:0:0:30:normal-hitnormal.wav
64,192,26843,1,0,0:0:0:30:normal-hitnormal.wav
448,192,27019,1,0,0:0:0:30:normal-hitnormal.wav
64,192,27196,1,0,0:0:0:10:soft-hitclap.wav
192,192,27196,1,0,0:0:0:30:normal-hitnormal.wav
448,192,27372,1,0,0:0:0:30:normal-hitnormal.wav
64,192,27549,1,0,0:0:0:30:normal-hitnormal.wav
448,192,27725,1,0,0:0:0:30:normal-hitnormal.wav
320,192,27902,1,0,0:0:0:30:normal-hitnormal.wav
192,192,27902,1,0,0:0:0:10:soft-hitclap.wav
448,192,28078,1,0,0:0:0:30:normal-hitnormal.wav
64,192,28255,1,0,0:0:0:30:normal-hitnormal.wav
192,192,28608,1,0,0:0:0:10:soft-hitclap.wav
448,192,28608,1,0,0:0:0:30:normal-hitnormal.wav
64,192,28961,1,0,0:0:0:30:normal-hitnormal.wav
448,192,29314,1,0,0:0:0:30:normal-hitnormal.wav
320,192,29314,1,0,0:0:0:10:soft-hitclap.wav
192,192,29667,1,0,0:0:0:30:normal-hitnormal.wav
64,192,30019,1,0,0:0:0:30:normal-hitnormal.wav
320,192,30019,1,0,0:0:0:10:soft-hitclap.wav
448,192,30372,1,0,0:0:0:30:normal-hitnormal.wav
192,192,30725,1,0,0:0:0:30:normal-hitnormal.wav
320,192,30725,1,0,0:0:0:10:soft-hitclap.wav
64,192,31078,1,0,0:0:0:30:normal-hitnormal.wav
192,192,31431,1,0,0:0:0:10:soft-hitclap.wav
320,192,31431,1,0,0:0:0:30:normal-hitnormal.wav
448,192,31784,1,0,0:0:0:30:normal-hitnormal.wav
64,192,32137,1,0,0:0:0:30:normal-hitnormal.wav
192,192,32137,1,0,0:0:0:10:soft-hitclap.wav
448,192,32490,1,0,0:0:0:30:normal-hitnormal.wav
192,192,32843,1,0,0:0:0:10:soft-hitclap.wav
320,192,32843,1,0,0:0:0:30:normal-hitnormal.wav
64,192,33196,1,0,0:0:0:30:normal-hitnormal.wav
448,192,33549,1,0,0:0:0:30:normal-hitnormal.wav
320,192,33549,1,0,0:0:0:10:soft-hitclap.wav
64,192,33902,1,0,0:0:0:30:normal-hitnormal.wav
192,192,34078,1,0,0:0:0:30:normal-hitnormal.wav
320,192,34255,1,0,0:0:0:10:soft-hitclap.wav
448,192,34431,1,0,0:0:0:30:normal-hitnormal.wav
192,192,34608,128,0,34961:0:0:0:30:normal-hitnormal.wav
64,192,34608,1,0,0:0:0:30:normal-hitnormal.wav
320,192,34961,1,0,0:0:0:10:soft-hitclap.wav
64,192,35137,128,0,35490:0:0:0:30:normal-hitnormal.wav
320,192,35490,1,0,0:0:0:30:normal-hitnormal.wav
192,192,35667,1,0,0:0:0:10:soft-hitclap.wav
448,192,35843,1,0,0:0:0:30:normal-hitnormal.wav
64,192,36019,1,0,0:0:0:30:normal-hitnormal.wav
192,192,36019,128,0,36372:0:0:0:30:normal-hitnormal.wav
320,192,36372,1,0,0:0:0:10:soft-hitclap.wav
448,192,36725,1,0,0:0:0:30:normal-hitnormal.wav
320,192,36902,1,0,0:0:0:30:normal-hitnormal.wav
192,192,37078,1,0,0:0:0:10:soft-hitclap.wav
64,192,37255,1,0,0:0:0:30:normal-hitnormal.wav
448,192,37431,128,0,37784:0:0:0:30:normal-hitnormal.wav
320,192,37784,1,0,0:0:0:10:soft-hitclap.wav
192,192,37961,128,0,38314:0:0:0:30:normal-hitnormal.wav
64,192,38314,1,0,0:0:0:30:normal-hitnormal.wav
192,192,38490,1,0,0:0:0:10:soft-hitclap.wav
320,192,38667,1,0,0:0:0:30:normal-hitnormal.wav
448,192,38843,128,0,39196:0:0:0:30:normal-hitnormal.wav
192,192,39196,128,0,39549:0:0:0:10:soft-hitclap.wav
448,192,39549,1,0,0:0:0:30:normal-hitnormal.wav
320,192,39725,1,0,0:0:0:30:normal-hitnormal.wav
192,192,39902,1,0,0:0:0:10:soft-hitclap.wav
64,192,40078,1,0,0:0:0:30:normal-hitnormal.wav
192,192,40255,128,0,40608:0:0:0:30:normal-hitnormal.wav
448,192,40608,1,0,0:0:0:10:soft-hitclap.wav
64,192,40784,1,0,0:0:0:30:normal-hitnormal.wav
192,192,41137,1,0,0:0:0:30:normal-hitnormal.wav
320,192,41314,1,0,0:0:0:10:soft-hitclap.wav
448,192,41490,1,0,0:0:0:30:normal-hitnormal.wav
320,192,41667,1,0,0:0:0:30:normal-hitnormal.wav
192,192,42019,128,0,42372:0:0:0:10:soft-hitclap.wav
448,192,42372,1,0,0:0:0:30:normal-hitnormal.wav
192,192,42725,1,0,0:0:0:30:normal-hitnormal.wav
320,192,42725,1,0,0:0:0:10:soft-hitclap.wav
64,192,43078,1,0,0:0:0:30:normal-hitnormal.wav
448,192,43431,1,0,0:0:0:30:normal-hitnormal.wav
320,192,43431,1,0,0:0:0:10:soft-hitclap.wav
192,192,43784,1,0,0:0:0:30:normal-hitnormal.wav
448,192,44137,1,0,0:0:0:10:soft-hitclap.wav
64,192,44137,1,0,0:0:0:30:normal-hitnormal.wav
320,192,44490,1,0,0:0:0:30:normal-hitnormal.wav
448,192,44843,1,0,0:0:0:10:soft-hitclap.wav
64,192,44843,1,0,0:0:0:30:normal-hitnormal.wav
192,192,45196,128,0,45902:0:0:0:30:normal-hitnormal.wav
64,192,45902,128,0,46255:0:0:0:30:normal-hitnormal.wav
320,192,46255,128,0,46608:0:0:0:30:normal-hitnormal.wav
448,192,46608,128,0,47137:0:0:0:30:normal-hitnormal.wav
320,192,47137,1,0,0:0:0:30:normal-hitnormal.wav
192,192,47225,1,0,0:0:0:30:normal-hitnormal.wav
64,192,47314,128,0,48019:0:0:0:30:normal-hitnormal.wav
192,192,48019,128,0,48725:0:0:0:30:normal-hitnormal.wav
320,192,48725,128,0,49078:0:0:0:30:normal-hitnormal.wav
192,192,49078,128,0,49431:0:0:0:30:normal-hitnormal.wav
320,192,49431,128,0,50137:0:0:0:30:normal-hitnormal.wav
448,192,50137,128,0,50843:0:0:0:30:normal-hitnormal.wav
320,192,50843,128,0,51549:0:0:0:30:normal-hitnormal.wav
192,192,51549,128,0,51902:0:0:0:30:normal-hitnormal.wav
64,192,51902,128,0,52255:0:0:0:10:soft-hitclap.wav
448,192,52255,128,0,52784:0:0:0:30:normal-hitnormal.wav
320,192,52784,1,0,0:0:0:30:normal-hitnormal.wav
192,192,52872,1,0,0:0:0:30:normal-hitnormal.wav
64,192,52961,128,0,53667:0:0:0:30:normal-hitnormal.wav
192,192,53667,128,0,54372:0:0:0:30:normal-hitnormal.wav
320,192,54372,128,0,55078:0:0:0:30:normal-hitnormal.wav
448,192,55078,128,0,56490:0:0:0:30:normal-hitnormal.wav
192,192,56490,128,0,57196:0:0:0:30:normal-hitnormal.wav
64,192,57196,128,0,57549:0:0:0:30:normal-hitnormal.wav
320,192,57549,128,0,57902:0:0:0:10:soft-hitclap.wav
64,192,57902,128,0,58431:0:0:0:30:normal-hitnormal.wav
192,192,58431,1,0,0:0:0:30:normal-hitnormal.wav
320,192,58519,1,0,0:0:0:30:normal-hitnormal.wav
448,192,58608,128,0,59314:0:0:0:30:normal-hitnormal.wav
320,192,59314,128,0,60019:0:0:0:30:normal-hitnormal.wav
192,192,60019,128,0,60372:0:0:0:30:normal-hitnormal.wav
64,192,60372,128,0,60725:0:0:0:10:soft-hitclap.wav
448,192,60725,128,0,61431:0:0:0:30:normal-hitnormal.wav
320,192,61431,128,0,62137:0:0:0:30:normal-hitnormal.wav
192,192,62137,128,0,62843:0:0:0:30:normal-hitnormal.wav
64,192,62843,128,0,63549:0:0:0:30:normal-hitnormal.wav
192,192,63549,1,0,0:0:0:30:normal-hitnormal.wav
320,192,63902,1,0,0:0:0:10:soft-hitclap.wav
192,192,64255,1,0,0:0:0:30:normal-hitnormal.wav
320,192,64608,1,0,0:0:0:10:soft-hitclap.wav
448,192,64961,128,0,67784:0:0:0:30:normal-hitnormal.wav
192,192,64961,128,0,66372:0:0:0:30:normal-hitnormal.wav
64,192,66372,128,0,67784:0:0:0:30:normal-hitnormal.wav
320,192,67784,1,0,0:0:0:30:normal-hitnormal.wav
192,192,68314,1,0,0:0:0:30:normal-hitnormal.wav
64,192,70608,1,0,0:0:0:30:normal-hitnormal.wav
448,192,71137,1,0,0:0:0:30:normal-hitnormal.wav
64,192,73431,1,0,0:0:0:30:normal-hitnormal.wav
192,192,73961,1,0,0:0:0:30:normal-hitnormal.wav
192,192,76255,1,0,0:0:0:30:normal-hitnormal.wav
448,192,76255,1,0,0:0:0:30:normal-hitnormal.wav
64,192,76784,1,0,0:0:0:30:normal-hitnormal.wav
320,192,76784,1,0,0:0:0:30:normal-hitnormal.wav
64,192,77667,1,0,0:0:0:30:normal-hitnormal.wav
448,192,77843,1,0,0:0:0:30:normal-hitnormal.wav
64,192,78020,1,0,0:0:0:30:normal-hitnormal.wav
192,192,78196,1,0,0:0:0:30:normal-hitnormal.wav
320,192,78373,1,0,0:0:0:30:normal-hitnormal.wav
448,192,78549,1,0,0:0:0:30:normal-hitnormal.wav
64,192,78725,1,0,0:0:0:15:soft-hitclap.wav
320,192,78725,1,0,0:0:0:15:soft-hitclap.wav
192,192,78902,1,0,0:0:0:30:normal-hitnormal.wav
