osu file format v13

[General]
AudioFilename: bgm_event1.mp3
AudioLeadIn: 0
PreviewTime: 11314
Countdown: 0
SampleSet: Soft
StackLeniency: 0.7
Mode: 3
LetterboxInBreaks: 0
SpecialStyle: 0
WidescreenStoryboard: 1

[Editor]
Bookmarks: 70608
DistanceSpacing: 0.8
BeatDivisor: 4
GridSize: 8
TimelineZoom: 1

[Metadata]
Title:Enemy Appearance!
TitleUnicode:Enemy Appearance!
Artist:Hyadain
ArtistUnicode:Hyadain
Creator:Marirose
Version:MX
Source:Kaku-San-Sei Million Arthur
Tags:SquareEnix
BeatmapID:440692
BeatmapSetID:184023

[Difficulty]
HPDrainRate:8
CircleSize:4
OverallDifficulty:8
ApproachRate:5
SliderMultiplier:1.4
SliderTickRate:1

[Events]
//Background and Video events
0,0,"BG.jpg",0,0
//Break Periods
//Storyboard Layer 0 (Background)
//Storyboard Layer 1 (Fail)
//Storyboard Layer 2 (Pass)
//Storyboard Layer 3 (Foreground)
//Storyboard Sound Samples
//Background Colour Transformations
3,100,163,162,255

[TimingPoints]
20,352.941176470588,4,2,0,100,1,0
10941,-83.3333333333333,4,2,0,100,0,0
11117,-125,4,2,0,100,0,0
11314,-100,4,2,0,100,0,1
22608,-100,4,2,0,100,0,0
33902,-100,4,2,0,100,0,1
45196,-100,4,2,0,100,0,0

[HitObjects]
448,192,20,5,0,0:0:0:20:normal-hitnormal.wav
64,192,20,1,0,0:0:0:20:normal-hitnormal.wav
320,192,196,1,0,0:0:0:20:normal-hitnormal.wav
64,192,372,1,0,0:0:0:20:normal-hitnormal.wav
448,192,372,1,0,0:0:0:20:normal-hitnormal.wav
64,192,549,1,0,0:0:0:20:normal-hitnormal.wav
192,192,549,1,0,0:0:0:20:normal-hitnormal.wav
448,192,725,1,0,0:0:0:20:normal-hitnormal.wav
320,192,725,1,0,0:0:0:20:normal-hitnormal.wav
192,192,902,1,0,0:0:0:20:normal-hitnormal.wav
448,192,1078,1,0,0:0:0:20:normal-hitnormal.wav
64,192,1078,1,0,0:0:0:20:normal-hitnormal.wav
320,192,1255,1,0,0:0:0:20:normal-hitnormal.wav
448,192,1431,1,0,0:0:0:20:normal-hitnormal.wav
64,192,1431,1,0,0:0:0:20:normal-hitnormal.wav
192,192,1608,1,0,0:0:0:20:normal-hitnormal.wav
64,192,1784,1,0,0:0:0:20:normal-hitnormal.wav
448,192,1784,1,0,0:0:0:20:normal-hitnormal.wav
320,192,1961,1,0,0:0:0:20:normal-hitnormal.wav
448,192,2137,1,0,0:0:0:20:normal-hitnormal.wav
64,192,2137,1,0,0:0:0:20:normal-hitnormal.wav
192,192,2314,1,0,0:0:0:20:normal-hitnormal.wav
64,192,2490,1,0,0:0:0:20:normal-hitnormal.wav
448,192,2490,1,0,0:0:0:20:normal-hitnormal.wav
320,192,2667,1,0,0:0:0:20:normal-hitnormal.wav
192,192,2843,1,0,0:0:0:20:normal-hitnormal.wav
448,192,2843,1,0,0:0:0:20:normal-hitnormal.wav
64,192,3019,1,0,0:0:0:20:normal-hitnormal.wav
320,192,3196,1,0,0:0:0:20:normal-hitnormal.wav
64,192,3196,1,0,0:0:0:20:normal-hitnormal.wav
320,192,3372,1,0,0:0:0:20:normal-hitnormal.wav
448,192,3549,1,0,0:0:0:20:normal-hitnormal.wav
192,192,3549,1,0,0:0:0:20:normal-hitnormal.wav
64,192,3725,1,0,0:0:0:20:normal-hitnormal.wav
320,192,3902,1,0,0:0:0:20:normal-hitnormal.wav
192,192,3902,1,0,0:0:0:20:normal-hitnormal.wav
448,192,4078,1,0,0:0:0:20:normal-hitnormal.wav
192,192,4255,1,0,0:0:0:20:normal-hitnormal.wav
320,192,4255,1,0,0:0:0:20:normal-hitnormal.wav
64,192,4431,1,0,0:0:0:20:normal-hitnormal.wav
448,192,4608,1,0,0:0:0:20:normal-hitnormal.wav
192,192,4608,1,0,0:0:0:20:normal-hitnormal.wav
320,192,4784,1,0,0:0:0:20:normal-hitnormal.wav
448,192,4961,1,0,0:0:0:20:normal-hitnormal.wav
64,192,4961,1,0,0:0:0:20:normal-hitnormal.wav
192,192,5137,1,0,0:0:0:20:normal-hitnormal.wav
64,192,5314,1,0,0:0:0:20:normal-hitnormal.wav
448,192,5314,1,0,0:0:0:20:normal-hitnormal.wav
320,192,5490,1,0,0:0:0:20:normal-hitnormal.wav
64,192,5667,1,0,0:0:0:20:normal-hitnormal.wav
192,192,5667,1,0,0:0:0:20:normal-hitnormal.wav
320,192,5843,1,0,0:0:0:20:normal-hitnormal.wav
64,192,6019,1,0,0:0:0:20:normal-hitnormal.wav
448,192,6019,1,0,0:0:0:20:normal-hitnormal.wav
192,192,6196,1,0,0:0:0:20:normal-hitnormal.wav
448,192,6372,1,0,0:0:0:20:normal-hitnormal.wav
64,192,6372,1,0,0:0:0:20:normal-hitnormal.wav
320,192,6549,1,0,0:0:0:20:normal-hitnormal.wav
192,192,6725,1,0,0:0:0:20:normal-hitnormal.wav
448,192,6725,1,0,0:0:0:20:normal-hitnormal.wav
64,192,6902,1,0,0:0:0:20:normal-hitnormal.wav
448,192,7078,1,0,0:0:0:20:normal-hitnormal.wav
320,192,7078,1,0,0:0:0:20:normal-hitnormal.wav
64,192,7255,1,0,0:0:0:20:normal-hitnormal.wav
320,192,7431,1,0,0:0:0:20:normal-hitnormal.wav
192,192,7431,1,0,0:0:0:20:normal-hitnormal.wav
448,192,7608,1,0,0:0:0:20:normal-hitnormal.wav
64,192,7784,1,0,0:0:0:20:normal-hitnormal.wav
320,192,7784,1,0,0:0:0:20:normal-hitnormal.wav
192,192,7961,1,0,0:0:0:20:normal-hitnormal.wav
448,192,8137,1,0,0:0:0:20:normal-hitnormal.wav
320,192,8137,1,0,0:0:0:20:normal-hitnormal.wav
192,192,8314,1,0,0:0:0:20:normal-hitnormal.wav
448,192,8490,128,0,9020:0:0:0:20:normal-hitnormal.wav
64,192,8490,1,0,0:0:0:20:normal-hitnormal.wav
192,192,8667,1,0,0:0:0:20:normal-hitnormal.wav
320,192,8843,1,0,0:0:0:20:normal-hitnormal.wav
64,192,8843,1,0,0:0:0:20:normal-hitnormal.wav
192,192,9019,1,0,0:0:0:20:normal-hitnormal.wav
64,192,9020,128,0,9549:0:0:0:20:normal-hitnormal.wav
320,192,9196,1,0,0:0:0:20:normal-hitnormal.wav
448,192,9196,1,0,0:0:0:20:normal-hitnormal.wav
192,192,9372,1,0,0:0:0:20:normal-hitnormal.wav
320,192,9549,1,0,0:0:0:20:normal-hitnormal.wav
448,192,9549,1,0,0:0:0:20:normal-hitnormal.wav
192,192,9725,1,0,0:0:0:20:normal-hitnormal.wav
448,192,9902,1,0,0:0:0:20:normal-hitnormal.wav
64,192,10078,1,0,0:0:0:20:normal-hitnormal.wav
192,192,10255,1,0,0:0:0:20:normal-hitnormal.wav
448,192,10431,1,0,0:0:0:20:normal-hitnormal.wav
320,192,10608,1,0,0:0:0:20:normal-hitnormal.wav
64,192,10784,1,0,0:0:0:20:normal-hitnormal.wav
448,192,10961,1,0,0:0:0:20:normal-hitnormal.wav
192,192,10961,1,0,0:0:0:20:normal-hitnormal.wav
320,192,10961,1,0,0:0:0:10:soft-hitclap.wav
64,192,11137,1,0,0:0:0:20:normal-hitnormal.wav
448,192,11314,1,0,0:0:0:20:normal-hitnormal.wav
320,192,11314,1,0,0:0:0:20:normal-hitnormal.wav
192,192,11490,1,0,0:0:0:20:normal-hitnormal.wav
64,192,11490,1,0,0:0:0:20:normal-hitnormal.wav
448,192,11667,1,0,0:0:0:20:normal-hitnormal.wav
320,192,11667,1,0,0:0:0:10:soft-hitclap.wav
192,192,11843,1,0,0:0:0:20:normal-hitnormal.wav
64,192,11843,1,0,0:0:0:20:normal-hitnormal.wav
192,192,12019,128,0,12372:0:0:0:20:normal-hitnormal.wav
448,192,12019,1,0,0:0:0:20:normal-hitnormal.wav
64,192,12019,1,0,0:0:0:20:normal-hitnormal.wav
320,192,12372,1,0,0:0:0:10:soft-hitclap.wav
448,192,12372,1,0,0:0:0:20:normal-hitnormal.wav
448,192,12549,1,0,0:0:0:20:normal-hitnormal.wav
192,192,12549,128,0,12902:0:0:0:20:normal-hitnormal.wav
64,192,12549,1,0,0:0:0:20:normal-hitnormal.wav
320,192,12902,1,0,0:0:0:20:normal-hitnormal.wav
192,192,13078,1,0,0:0:0:10:soft-hitclap.wav
64,192,13078,1,0,0:0:0:20:normal-hitnormal.wav
448,192,13255,1,0,0:0:0:20:normal-hitnormal.wav
320,192,13255,1,0,0:0:0:20:normal-hitnormal.wav
320,192,13431,1,0,0:0:0:20:normal-hitnormal.wav
192,192,13431,1,0,0:0:0:20:normal-hitnormal.wav
64,192,13431,128,0,13784:0:0:0:20:normal-hitnormal.wav
192,192,13784,1,0,0:0:0:10:soft-hitclap.wav
448,192,13784,1,0,0:0:0:20:normal-hitnormal.wav
448,192,14137,1,0,0:0:0:20:normal-hitnormal.wav
320,192,14137,1,0,0:0:0:20:normal-hitnormal.wav
192,192,14314,1,0,0:0:0:20:normal-hitnormal.wav
64,192,14314,1,0,0:0:0:20:normal-hitnormal.wav
192,192,14490,1,0,0:0:0:20:normal-hitnormal.wav
320,192,14490,1,0,0:0:0:10:soft-hitclap.wav
320,192,14667,1,0,0:0:0:20:normal-hitnormal.wav
448,192,14667,1,0,0:0:0:20:normal-hitnormal.wav
64,192,14843,1,0,0:0:0:20:normal-hitnormal.wav
192,192,14843,128,0,15196:0:0:0:20:normal-hitnormal.wav
320,192,14843,1,0,0:0:0:20:normal-hitnormal.wav
64,192,15196,1,0,0:0:0:20:normal-hitnormal.wav
448,192,15196,1,0,0:0:0:10:soft-hitclap.wav
192,192,15372,1,0,0:0:0:20:normal-hitnormal.wav
448,192,15372,128,0,15725:0:0:0:20:normal-hitnormal.wav
320,192,15372,1,0,0:0:0:20:normal-hitnormal.wav
320,192,15725,1,0,0:0:0:20:normal-hitnormal.wav
192,192,15725,1,0,0:0:0:20:normal-hitnormal.wav
64,192,15902,1,0,0:0:0:20:normal-hitnormal.wav
192,192,15902,1,0,0:0:0:10:soft-hitclap.wav
320,192,16078,1,0,0:0:0:20:normal-hitnormal.wav
192,192,16078,1,0,0:0:0:20:normal-hitnormal.wav
64,192,16255,1,0,0:0:0:20:normal-hitnormal.wav
320,192,16255,1,0,0:0:0:20:normal-hitnormal.wav
448,192,16255,128,0,16608:0:0:0:20:normal-hitnormal.wav
320,192,16608,1,0,0:0:0:10:soft-hitclap.wav
64,192,16608,1,0,0:0:0:20:normal-hitnormal.wav
192,192,16608,128,0,16961:0:0:0:20:normal-hitnormal.wav
448,192,16961,1,0,0:0:0:20:normal-hitnormal.wav
320,192,16961,1,0,0:0:0:20:normal-hitnormal.wav
64,192,17137,1,0,0:0:0:20:normal-hitnormal.wav
192,192,17137,1,0,0:0:0:20:normal-hitnormal.wav
192,192,17314,1,0,0:0:0:20:normal-hitnormal.wav
320,192,17314,1,0,0:0:0:10:soft-hitclap.wav
64,192,17490,1,0,0:0:0:20:normal-hitnormal.wav
448,192,17490,1,0,0:0:0:20:normal-hitnormal.wav
448,192,17667,1,0,0:0:0:20:normal-hitnormal.wav
192,192,17667,1,0,0:0:0:20:normal-hitnormal.wav
320,192,17667,128,0,17843:0:0:0:20:normal-hitnormal.wav
192,192,18019,1,0,0:0:0:10:soft-hitclap.wav
448,192,18019,1,0,0:0:0:20:normal-hitnormal.wav
192,192,18196,128,0,18372:0:0:0:20:normal-hitnormal.wav
64,192,18196,1,0,0:0:0:20:normal-hitnormal.wav
320,192,18196,1,0,0:0:0:20:normal-hitnormal.wav
64,192,18549,1,0,0:0:0:20:normal-hitnormal.wav
448,192,18549,1,0,0:0:0:20:normal-hitnormal.wav
192,192,18725,1,0,0:0:0:10:soft-hitclap.wav
448,192,18725,1,0,0:0:0:20:normal-hitnormal.wav
64,192,18902,1,0,0:0:0:20:normal-hitnormal.wav
320,192,18902,1,0,0:0:0:20:normal-hitnormal.wav
448,192,19078,1,0,0:0:0:20:normal-hitnormal.wav
320,192,19078,1,0,0:0:0:20:normal-hitnormal.wav
192,192,19078,128,0,19255:0:0:0:20:normal-hitnormal.wav
64,192,19431,1,0,0:0:0:20:normal-hitnormal.wav
448,192,19431,128,0,19608:0:0:0:20:normal-hitnormal.wav
320,192,19431,1,0,0:0:0:10:soft-hitclap.wav
192,192,19608,1,0,0:0:0:20:normal-hitnormal.wav
64,192,19784,1,0,0:0:0:20:normal-hitnormal.wav
320,192,19784,1,0,0:0:0:20:normal-hitnormal.wav
192,192,19872,1,0,0:0:0:20:normal-hitnormal.wav
448,192,19961,1,0,0:0:0:20:normal-hitnormal.wav
320,192,20049,1,0,0:0:0:20:normal-hitnormal.wav
192,192,20137,1,0,0:0:0:10:soft-hitclap.wav
448,192,20137,1,0,0:0:0:20:normal-hitnormal.wav
64,192,20137,1,0,0:0:0:20:normal-hitnormal.wav
320,192,20225,1,0,0:0:0:20:normal-hitnormal.wav
192,192,20314,1,0,0:0:0:20:normal-hitnormal.wav
448,192,20402,1,0,0:0:0:20:normal-hitnormal.wav
320,192,20490,1,0,0:0:0:20:normal-hitnormal.wav
64,192,20490,1,0,0:0:0:20:normal-hitnormal.wav
448,192,20578,1,0,0:0:0:20:normal-hitnormal.wav
192,192,20667,1,0,0:0:0:20:normal-hitnormal.wav
320,192,20755,1,0,0:0:0:20:normal-hitnormal.wav
64,192,20843,1,0,0:0:0:20:normal-hitnormal.wav
192,192,20843,1,0,0:0:0:10:soft-hitclap.wav
448,192,20843,1,0,0:0:0:20:normal-hitnormal.wav
320,192,20931,1,0,0:0:0:20:normal-hitnormal.wav
192,192,21019,1,0,0:0:0:20:normal-hitnormal.wav
64,192,21108,1,0,0:0:0:20:normal-hitnormal.wav
448,192,21196,1,0,0:0:0:20:normal-hitnormal.wav
192,192,21196,1,0,0:0:0:20:normal-hitnormal.wav
320,192,21284,1,0,0:0:0:20:normal-hitnormal.wav
448,192,21372,1,0,0:0:0:20:normal-hitnormal.wav
192,192,21461,1,0,0:0:0:20:normal-hitnormal.wav
64,192,21549,1,0,0:0:0:20:normal-hitnormal.wav
448,192,21549,1,0,0:0:0:20:normal-hitnormal.wav
320,192,21549,1,0,0:0:0:10:soft-hitclap.wav
192,192,21637,1,0,0:0:0:20:normal-hitnormal.wav
64,192,21725,1,0,0:0:0:20:normal-hitnormal.wav
448,192,21814,1,0,0:0:0:20:normal-hitnormal.wav
192,192,21902,1,0,0:0:0:20:normal-hitnormal.wav
320,192,21902,1,0,0:0:0:20:normal-hitnormal.wav
448,192,21990,1,0,0:0:0:20:normal-hitnormal.wav
320,192,22078,1,0,0:0:0:20:normal-hitnormal.wav
64,192,22078,1,0,0:0:0:20:normal-hitnormal.wav
192,192,22167,1,0,0:0:0:20:normal-hitnormal.wav
320,192,22255,1,0,0:0:0:10:soft-hitclap.wav
448,192,22255,1,0,0:0:0:20:normal-hitnormal.wav
64,192,22255,1,0,0:0:0:20:normal-hitnormal.wav
192,192,22343,1,0,0:0:0:20:normal-hitnormal.wav
64,192,22431,1,0,0:0:0:20:normal-hitnormal.wav
448,192,22431,1,0,0:0:0:20:normal-hitnormal.wav
320,192,22519,1,0,0:0:0:20:normal-hitnormal.wav
448,192,22608,1,0,0:0:0:20:normal-hitnormal.wav
64,192,22608,1,0,0:0:0:20:normal-hitnormal.wav
192,192,22696,1,0,0:0:0:20:normal-hitnormal.wav
320,192,22784,1,0,0:0:0:20:normal-hitnormal.wav
64,192,22961,1,0,0:0:0:20:normal-hitnormal.wav
192,192,22961,1,0,0:0:0:10:soft-hitclap.wav
448,192,22961,1,0,0:0:0:20:normal-hitnormal.wav
320,192,23137,1,0,0:0:0:20:normal-hitnormal.wav
192,192,23225,1,0,0:0:0:20:normal-hitnormal.wav
448,192,23314,1,0,0:0:0:20:normal-hitnormal.wav
64,192,23402,1,0,0:0:0:20:normal-hitnormal.wav
192,192,23490,1,0,0:0:0:20:normal-hitnormal.wav
320,192,23667,1,0,0:0:0:10:soft-hitclap.wav
64,192,23667,1,0,0:0:0:20:normal-hitnormal.wav
448,192,23667,1,0,0:0:0:20:normal-hitnormal.wav
192,192,23843,1,0,0:0:0:20:normal-hitnormal.wav
448,192,23843,1,0,0:0:0:20:normal-hitnormal.wav
320,192,24019,1,0,0:0:0:20:normal-hitnormal.wav
192,192,24108,1,0,0:0:0:20:normal-hitnormal.wav
64,192,24196,1,0,0:0:0:20:normal-hitnormal.wav
320,192,24372,1,0,0:0:0:10:soft-hitclap.wav
64,192,24372,1,0,0:0:0:20:normal-hitnormal.wav
448,192,24372,1,0,0:0:0:20:normal-hitnormal.wav
320,192,24549,1,0,0:0:0:20:normal-hitnormal.wav
192,192,24637,1,0,0:0:0:20:normal-hitnormal.wav
320,192,24725,1,0,0:0:0:20:normal-hitnormal.wav
64,192,24814,1,0,0:0:0:20:normal-hitnormal.wav
320,192,24902,1,0,0:0:0:20:normal-hitnormal.wav
192,192,25078,1,0,0:0:0:10:soft-hitclap.wav
448,192,25078,1,0,0:0:0:20:normal-hitnormal.wav
64,192,25078,1,0,0:0:0:20:normal-hitnormal.wav
448,192,25255,1,0,0:0:0:20:normal-hitnormal.wav
64,192,25255,1,0,0:0:0:20:normal-hitnormal.wav
320,192,25431,1,0,0:0:0:20:normal-hitnormal.wav
192,192,25519,1,0,0:0:0:20:normal-hitnormal.wav
64,192,25608,1,0,0:0:0:20:normal-hitnormal.wav
64,192,25784,1,0,0:0:0:20:normal-hitnormal.wav
320,192,25784,1,0,0:0:0:10:soft-hitclap.wav
448,192,25784,1,0,0:0:0:20:normal-hitnormal.wav
192,192,25961,1,0,0:0:0:20:normal-hitnormal.wav
64,192,26049,1,0,0:0:0:20:normal-hitnormal.wav
448,192,26137,1,0,0:0:0:20:normal-hitnormal.wav
320,192,26225,1,0,0:0:0:20:normal-hitnormal.wav
192,192,26314,1,0,0:0:0:20:normal-hitnormal.wav
64,192,26490,1,0,0:0:0:20:normal-hitnormal.wav
448,192,26490,1,0,0:0:0:20:normal-hitnormal.wav
192,192,26490,1,0,0:0:0:10:soft-hitclap.wav
192,192,26667,1,0,0:0:0:20:normal-hitnormal.wav
320,192,26667,1,0,0:0:0:20:normal-hitnormal.wav
320,192,26843,1,0,0:0:0:20:normal-hitnormal.wav
64,192,26843,1,0,0:0:0:20:normal-hitnormal.wav
320,192,27019,1,0,0:0:0:20:normal-hitnormal.wav
64,192,27019,1,0,0:0:0:20:normal-hitnormal.wav
192,192,27196,1,0,0:0:0:20:normal-hitnormal.wav
320,192,27196,1,0,0:0:0:10:soft-hitclap.wav
448,192,27196,1,0,0:0:0:20:normal-hitnormal.wav
192,192,27372,1,0,0:0:0:20:normal-hitnormal.wav
320,192,27372,1,0,0:0:0:20:normal-hitnormal.wav
448,192,27549,1,0,0:0:0:20:normal-hitnormal.wav
192,192,27549,1,0,0:0:0:20:normal-hitnormal.wav
448,192,27725,1,0,0:0:0:20:normal-hitnormal.wav
192,192,27725,1,0,0:0:0:20:normal-hitnormal.wav
64,192,27902,1,0,0:0:0:20:normal-hitnormal.wav
320,192,27902,1,0,0:0:0:10:soft-hitclap.wav
448,192,27902,1,0,0:0:0:20:normal-hitnormal.wav
448,192,28078,1,0,0:0:0:20:normal-hitnormal.wav
64,192,28078,1,0,0:0:0:20:normal-hitnormal.wav
192,192,28078,1,0,0:0:0:20:normal-hitnormal.wav
64,192,28255,1,0,0:0:0:20:normal-hitnormal.wav
448,192,28255,1,0,0:0:0:20:normal-hitnormal.wav
320,192,28343,1,0,0:0:0:20:normal-hitnormal.wav
192,192,28431,1,0,0:0:0:20:normal-hitnormal.wav
64,192,28608,1,0,0:0:0:20:normal-hitnormal.wav
448,192,28608,1,0,0:0:0:20:normal-hitnormal.wav
320,192,28608,1,0,0:0:0:10:soft-hitclap.wav
448,192,28784,1,0,0:0:0:20:normal-hitnormal.wav
320,192,28872,1,0,0:0:0:20:normal-hitnormal.wav
64,192,28961,1,0,0:0:0:20:normal-hitnormal.wav
320,192,29049,1,0,0:0:0:20:normal-hitnormal.wav
192,192,29137,1,0,0:0:0:20:normal-hitnormal.wav
64,192,29314,1,0,0:0:0:20:normal-hitnormal.wav
448,192,29314,1,0,0:0:0:20:normal-hitnormal.wav
320,192,29314,1,0,0:0:0:10:soft-hitclap.wav
64,192,29490,1,0,0:0:0:20:normal-hitnormal.wav
448,192,29490,1,0,0:0:0:20:normal-hitnormal.wav
320,192,29667,1,0,0:0:0:20:normal-hitnormal.wav
192,192,29755,1,0,0:0:0:20:normal-hitnormal.wav
448,192,29843,1,0,0:0:0:20:normal-hitnormal.wav
64,192,30019,1,0,0:0:0:20:normal-hitnormal.wav
448,192,30019,1,0,0:0:0:20:normal-hitnormal.wav
192,192,30019,1,0,0:0:0:10:soft-hitclap.wav
192,192,30196,1,0,0:0:0:20:normal-hitnormal.wav
320,192,30284,1,0,0:0:0:20:normal-hitnormal.wav
192,192,30372,1,0,0:0:0:20:normal-hitnormal.wav
320,192,30461,1,0,0:0:0:20:normal-hitnormal.wav
64,192,30549,1,0,0:0:0:20:normal-hitnormal.wav
320,192,30725,1,0,0:0:0:10:soft-hitclap.wav
448,192,30725,1,0,0:0:0:20:normal-hitnormal.wav
64,192,30725,1,0,0:0:0:20:normal-hitnormal.wav
192,192,30902,1,0,0:0:0:20:normal-hitnormal.wav
448,192,30902,1,0,0:0:0:20:normal-hitnormal.wav
64,192,31078,1,0,0:0:0:20:normal-hitnormal.wav
320,192,31078,1,0,0:0:0:20:normal-hitnormal.wav
192,192,31167,1,0,0:0:0:20:normal-hitnormal.wav
320,192,31255,1,0,0:0:0:20:normal-hitnormal.wav
192,192,31343,1,0,0:0:0:20:normal-hitnormal.wav
448,192,31431,1,0,0:0:0:20:normal-hitnormal.wav
64,192,31431,1,0,0:0:0:20:normal-hitnormal.wav
320,192,31431,1,0,0:0:0:10:soft-hitclap.wav
192,192,31519,1,0,0:0:0:20:normal-hitnormal.wav
320,192,31608,1,0,0:0:0:20:normal-hitnormal.wav
448,192,31696,1,0,0:0:0:20:normal-hitnormal.wav
64,192,31784,1,0,0:0:0:20:normal-hitnormal.wav
320,192,31784,1,0,0:0:0:20:normal-hitnormal.wav
192,192,31872,1,0,0:0:0:20:normal-hitnormal.wav
64,192,31961,1,0,0:0:0:20:normal-hitnormal.wav
192,192,32049,1,0,0:0:0:20:normal-hitnormal.wav
64,192,32137,1,0,0:0:0:20:normal-hitnormal.wav
448,192,32137,1,0,0:0:0:20:normal-hitnormal.wav
320,192,32137,1,0,0:0:0:10:soft-hitclap.wav
192,192,32225,1,0,0:0:0:20:normal-hitnormal.wav
320,192,32314,1,0,0:0:0:20:normal-hitnormal.wav
448,192,32402,1,0,0:0:0:20:normal-hitnormal.wav
64,192,32490,1,0,0:0:0:20:normal-hitnormal.wav
192,192,32490,1,0,0:0:0:20:normal-hitnormal.wav
320,192,32578,1,0,0:0:0:20:normal-hitnormal.wav
448,192,32667,1,0,0:0:0:20:normal-hitnormal.wav
320,192,32755,1,0,0:0:0:20:normal-hitnormal.wav
448,192,32843,1,0,0:0:0:20:normal-hitnormal.wav
64,192,32843,1,0,0:0:0:20:normal-hitnormal.wav
192,192,32843,1,0,0:0:0:10:soft-hitclap.wav
320,192,32931,1,0,0:0:0:20:normal-hitnormal.wav
192,192,33019,1,0,0:0:0:20:normal-hitnormal.wav
64,192,33108,1,0,0:0:0:20:normal-hitnormal.wav
448,192,33196,1,0,0:0:0:20:normal-hitnormal.wav
320,192,33196,1,0,0:0:0:20:normal-hitnormal.wav
192,192,33284,1,0,0:0:0:20:normal-hitnormal.wav
64,192,33372,1,0,0:0:0:20:normal-hitnormal.wav
320,192,33372,1,0,0:0:0:20:normal-hitnormal.wav
192,192,33461,1,0,0:0:0:20:normal-hitnormal.wav
64,192,33549,1,0,0:0:0:20:normal-hitnormal.wav
448,192,33549,1,0,0:0:0:20:normal-hitnormal.wav
320,192,33549,1,0,0:0:0:10:soft-hitclap.wav
192,192,33637,1,0,0:0:0:20:normal-hitnormal.wav
64,192,33725,1,0,0:0:0:20:normal-hitnormal.wav
320,192,33725,1,0,0:0:0:20:normal-hitnormal.wav
448,192,33814,1,0,0:0:0:20:normal-hitnormal.wav
64,192,33902,1,0,0:0:0:20:normal-hitnormal.wav
192,192,33902,1,0,0:0:0:20:normal-hitnormal.wav
448,192,34078,1,0,0:0:0:20:normal-hitnormal.wav
320,192,34078,1,0,0:0:0:20:normal-hitnormal.wav
64,192,34255,1,0,0:0:0:20:normal-hitnormal.wav
192,192,34255,1,0,0:0:0:10:soft-hitclap.wav
448,192,34431,1,0,0:0:0:20:normal-hitnormal.wav
192,192,34431,1,0,0:0:0:20:normal-hitnormal.wav
320,192,34608,1,0,0:0:0:20:normal-hitnormal.wav
192,192,34608,128,0,34961:0:0:0:20:normal-hitnormal.wav
64,192,34608,1,0,0:0:0:20:normal-hitnormal.wav
320,192,34961,1,0,0:0:0:10:soft-hitclap.wav
448,192,34961,1,0,0:0:0:20:normal-hitnormal.wav
192,192,35137,128,0,35490:0:0:0:20:normal-hitnormal.wav
320,192,35137,1,0,0:0:0:20:normal-hitnormal.wav
64,192,35137,1,0,0:0:0:20:normal-hitnormal.wav
448,192,35490,1,0,0:0:0:20:normal-hitnormal.wav
320,192,35490,1,0,0:0:0:20:normal-hitnormal.wav
192,192,35667,1,0,0:0:0:10:soft-hitclap.wav
64,192,35667,1,0,0:0:0:20:normal-hitnormal.wav
320,192,35843,1,0,0:0:0:20:normal-hitnormal.wav
448,192,35843,1,0,0:0:0:20:normal-hitnormal.wav
64,192,36019,1,0,0:0:0:20:normal-hitnormal.wav
320,192,36019,1,0,0:0:0:20:normal-hitnormal.wav
192,192,36019,128,0,36372:0:0:0:20:normal-hitnormal.wav
64,192,36372,128,0,36725:0:0:0:20:normal-hitnormal.wav
320,192,36372,1,0,0:0:0:10:soft-hitclap.wav
448,192,36372,1,0,0:0:0:20:normal-hitnormal.wav
448,192,36725,1,0,0:0:0:20:normal-hitnormal.wav
192,192,36725,1,0,0:0:0:20:normal-hitnormal.wav
64,192,36902,1,0,0:0:0:20:normal-hitnormal.wav
320,192,36902,1,0,0:0:0:20:normal-hitnormal.wav
192,192,37078,1,0,0:0:0:10:soft-hitclap.wav
448,192,37078,1,0,0:0:0:20:normal-hitnormal.wav
64,192,37255,1,0,0:0:0:20:normal-hitnormal.wav
192,192,37255,1,0,0:0:0:20:normal-hitnormal.wav
448,192,37431,128,0,37784:0:0:0:20:normal-hitnormal.wav
320,192,37431,1,0,0:0:0:20:normal-hitnormal.wav
192,192,37431,1,0,0:0:0:20:normal-hitnormal.wav
192,192,37784,1,0,0:0:0:10:soft-hitclap.wav
64,192,37784,1,0,0:0:0:20:normal-hitnormal.wav
448,192,37961,1,0,0:0:0:20:normal-hitnormal.wav
320,192,37961,128,0,38314:0:0:0:20:normal-hitnormal.wav
192,192,37961,1,0,0:0:0:20:normal-hitnormal.wav
448,192,38314,1,0,0:0:0:20:normal-hitnormal.wav
192,192,38314,1,0,0:0:0:20:normal-hitnormal.wav
320,192,38490,1,0,0:0:0:10:soft-hitclap.wav
64,192,38490,1,0,0:0:0:20:normal-hitnormal.wav
448,192,38667,1,0,0:0:0:20:normal-hitnormal.wav
192,192,38667,1,0,0:0:0:20:normal-hitnormal.wav
448,192,38843,1,0,0:0:0:20:normal-hitnormal.wav
320,192,38843,128,0,39196:0:0:0:20:normal-hitnormal.wav
192,192,38843,1,0,0:0:0:20:normal-hitnormal.wav
448,192,39196,1,0,0:0:0:20:normal-hitnormal.wav
192,192,39196,128,0,39549:0:0:0:20:normal-hitnormal.wav
64,192,39196,1,0,0:0:0:10:soft-hitclap.wav
448,192,39549,1,0,0:0:0:20:normal-hitnormal.wav
64,192,39549,1,0,0:0:0:20:normal-hitnormal.wav
320,192,39725,1,0,0:0:0:20:normal-hitnormal.wav
192,192,39725,1,0,0:0:0:20:normal-hitnormal.wav
448,192,39902,1,0,0:0:0:20:normal-hitnormal.wav
64,192,39902,1,0,0:0:0:10:soft-hitclap.wav
320,192,40078,1,0,0:0:0:20:normal-hitnormal.wav
448,192,40078,1,0,0:0:0:20:normal-hitnormal.wav
64,192,40255,1,0,0:0:0:20:normal-hitnormal.wav
320,192,40255,1,0,0:0:0:20:normal-hitnormal.wav
192,192,40255,128,0,40431:0:0:0:20:normal-hitnormal.wav
320,192,40608,1,0,0:0:0:10:soft-hitclap.wav
448,192,40608,1,0,0:0:0:20:normal-hitnormal.wav
64,192,40784,128,0,40961:0:0:0:20:normal-hitnormal.wav
192,192,40784,1,0,0:0:0:20:normal-hitnormal.wav
320,192,40784,1,0,0:0:0:20:normal-hitnormal.wav
448,192,41137,1,0,0:0:0:20:normal-hitnormal.wav
192,192,41137,1,0,0:0:0:20:normal-hitnormal.wav
320,192,41314,1,0,0:0:0:10:soft-hitclap.wav
192,192,41314,1,0,0:0:0:20:normal-hitnormal.wav
192,192,41490,1,0,0:0:0:20:normal-hitnormal.wav
448,192,41490,1,0,0:0:0:20:normal-hitnormal.wav
448,192,41667,1,0,0:0:0:20:normal-hitnormal.wav
320,192,41667,128,0,41843:0:0:0:20:normal-hitnormal.wav
64,192,41667,1,0,0:0:0:20:normal-hitnormal.wav
448,192,42019,1,0,0:0:0:10:soft-hitclap.wav
192,192,42019,128,0,42196:0:0:0:20:normal-hitnormal.wav
64,192,42019,1,0,0:0:0:20:normal-hitnormal.wav
320,192,42372,1,0,0:0:0:20:normal-hitnormal.wav
448,192,42372,1,0,0:0:0:20:normal-hitnormal.wav
192,192,42461,1,0,0:0:0:20:normal-hitnormal.wav
64,192,42549,1,0,0:0:0:20:normal-hitnormal.wav
192,192,42637,1,0,0:0:0:20:normal-hitnormal.wav
64,192,42725,1,0,0:0:0:20:normal-hitnormal.wav
320,192,42725,1,0,0:0:0:10:soft-hitclap.wav
448,192,42725,1,0,0:0:0:20:normal-hitnormal.wav
192,192,42814,1,0,0:0:0:20:normal-hitnormal.wav
320,192,42902,1,0,0:0:0:20:normal-hitnormal.wav
448,192,42990,1,0,0:0:0:20:normal-hitnormal.wav
64,192,43078,1,0,0:0:0:20:normal-hitnormal.wav
320,192,43078,1,0,0:0:0:20:normal-hitnormal.wav
448,192,43167,1,0,0:0:0:20:normal-hitnormal.wav
320,192,43255,1,0,0:0:0:20:normal-hitnormal.wav
192,192,43343,1,0,0:0:0:20:normal-hitnormal.wav
64,192,43431,1,0,0:0:0:20:normal-hitnormal.wav
320,192,43431,1,0,0:0:0:10:soft-hitclap.wav
448,192,43431,1,0,0:0:0:20:normal-hitnormal.wav
192,192,43519,1,0,0:0:0:20:normal-hitnormal.wav
64,192,43608,1,0,0:0:0:20:normal-hitnormal.wav
192,192,43696,1,0,0:0:0:20:normal-hitnormal.wav
320,192,43784,1,0,0:0:0:20:normal-hitnormal.wav
64,192,43784,1,0,0:0:0:20:normal-hitnormal.wav
448,192,43872,1,0,0:0:0:20:normal-hitnormal.wav
320,192,43961,1,0,0:0:0:20:normal-hitnormal.wav
192,192,44049,1,0,0:0:0:20:normal-hitnormal.wav
64,192,44137,1,0,0:0:0:20:normal-hitnormal.wav
320,192,44137,1,0,0:0:0:10:soft-hitclap.wav
448,192,44137,1,0,0:0:0:20:normal-hitnormal.wav
192,192,44225,1,0,0:0:0:20:normal-hitnormal.wav
64,192,44314,1,0,0:0:0:20:normal-hitnormal.wav
192,192,44402,1,0,0:0:0:20:normal-hitnormal.wav
320,192,44490,1,0,0:0:0:20:normal-hitnormal.wav
448,192,44490,1,0,0:0:0:20:normal-hitnormal.wav
64,192,44578,1,0,0:0:0:20:normal-hitnormal.wav
448,192,44667,1,0,0:0:0:20:normal-hitnormal.wav
192,192,44667,1,0,0:0:0:20:normal-hitnormal.wav
320,192,44755,1,0,0:0:0:20:normal-hitnormal.wav
64,192,44843,1,0,0:0:0:20:normal-hitnormal.wav
192,192,44843,1,0,0:0:0:10:soft-hitclap.wav
448,192,44843,1,0,0:0:0:20:normal-hitnormal.wav
320,192,44931,1,0,0:0:0:20:normal-hitnormal.wav
448,192,45019,1,0,0:0:0:20:normal-hitnormal.wav
192,192,45019,1,0,0:0:0:20:normal-hitnormal.wav
64,192,45108,1,0,0:0:0:20:normal-hitnormal.wav
192,192,45196,128,0,45902:0:0:0:20:normal-hitnormal.wav
448,192,45196,1,0,0:0:0:20:normal-hitnormal.wav
320,192,45372,1,0,0:0:0:15:normal-hitnormal.wav
448,192,45549,1,0,0:0:0:20:normal-hitnormal.wav
64,192,45549,1,0,0:0:0:10:soft-hitclap.wav
320,192,45725,1,0,0:0:0:15:normal-hitnormal.wav
320,192,45902,128,0,46255:0:0:0:20:normal-hitnormal.wav
64,192,45902,1,0,0:0:0:20:normal-hitnormal.wav
448,192,46078,1,0,0:0:0:15:normal-hitnormal.wav
192,192,46255,1,0,0:0:0:20:normal-hitnormal.wav
448,192,46255,128,0,46608:0:0:0:20:normal-hitnormal.wav
64,192,46255,1,0,0:0:0:10:soft-hitclap.wav
192,192,46431,1,0,0:0:0:15:normal-hitnormal.wav
64,192,46608,128,0,47137:0:0:0:20:normal-hitnormal.wav
320,192,46608,1,0,0:0:0:20:normal-hitnormal.wav
192,192,46784,1,0,0:0:0:15:normal-hitnormal.wav
448,192,46961,1,0,0:0:0:20:normal-hitnormal.wav
320,192,46961,1,0,0:0:0:10:soft-hitclap.wav
192,192,47137,1,0,0:0:0:15:normal-hitnormal.wav
320,192,47225,1,0,0:0:0:20:normal-hitnormal.wav
64,192,47314,1,0,0:0:0:20:normal-hitnormal.wav
448,192,47314,128,0,48019:0:0:0:20:normal-hitnormal.wav
192,192,47490,1,0,0:0:0:15:normal-hitnormal.wav
192,192,47667,1,0,0:0:0:20:normal-hitnormal.wav
320,192,47667,1,0,0:0:0:10:soft-hitclap.wav
64,192,47843,1,0,0:0:0:15:normal-hitnormal.wav
320,192,48019,128,0,48725:0:0:0:20:normal-hitnormal.wav
192,192,48019,1,0,0:0:0:20:normal-hitnormal.wav
64,192,48196,1,0,0:0:0:15:normal-hitnormal.wav
192,192,48372,1,0,0:0:0:10:soft-hitclap.wav
448,192,48372,1,0,0:0:0:20:normal-hitnormal.wav
64,192,48549,1,0,0:0:0:15:normal-hitnormal.wav
64,192,48725,128,0,49078:0:0:0:20:normal-hitnormal.wav
448,192,48725,1,0,0:0:0:20:normal-hitnormal.wav
320,192,48902,1,0,0:0:0:15:normal-hitnormal.wav
192,192,49078,1,0,0:0:0:10:soft-hitclap.wav
320,192,49078,128,0,49431:0:0:0:20:normal-hitnormal.wav
448,192,49078,1,0,0:0:0:20:normal-hitnormal.wav
64,192,49255,1,0,0:0:0:15:normal-hitnormal.wav
192,192,49431,128,0,50137:0:0:0:20:normal-hitnormal.wav
448,192,49431,1,0,0:0:0:20:normal-hitnormal.wav
320,192,49608,1,0,0:0:0:15:normal-hitnormal.wav
448,192,49784,1,0,0:0:0:20:normal-hitnormal.wav
64,192,49784,1,0,0:0:0:10:soft-hitclap.wav
320,192,49961,1,0,0:0:0:15:normal-hitnormal.wav
448,192,50137,128,0,50843:0:0:0:20:normal-hitnormal.wav
64,192,50137,1,0,0:0:0:20:normal-hitnormal.wav
192,192,50314,1,0,0:0:0:15:normal-hitnormal.wav
64,192,50490,1,0,0:0:0:10:soft-hitclap.wav
320,192,50490,1,0,0:0:0:20:normal-hitnormal.wav
192,192,50667,1,0,0:0:0:15:normal-hitnormal.wav
64,192,50843,128,0,51549:0:0:0:20:normal-hitnormal.wav
320,192,50843,1,0,0:0:0:20:normal-hitnormal.wav
192,192,51019,1,0,0:0:0:15:normal-hitnormal.wav
320,192,51196,1,0,0:0:0:10:soft-hitclap.wav
448,192,51196,1,0,0:0:0:20:normal-hitnormal.wav
192,192,51372,1,0,0:0:0:15:normal-hitnormal.wav
320,192,51549,128,0,51902:0:0:0:20:normal-hitnormal.wav
448,192,51549,1,0,0:0:0:20:normal-hitnormal.wav
192,192,51725,1,0,0:0:0:20:normal-hitnormal.wav
192,192,51902,128,0,52255:0:0:0:20:normal-hitnormal.wav
448,192,51902,1,0,0:0:0:20:normal-hitnormal.wav
64,192,51902,1,0,0:0:0:10:soft-hitclap.wav
320,192,52078,1,0,0:0:0:20:normal-hitnormal.wav
448,192,52255,128,0,52784:0:0:0:20:normal-hitnormal.wav
64,192,52255,1,0,0:0:0:20:normal-hitnormal.wav
320,192,52431,1,0,0:0:0:20:normal-hitnormal.wav
64,192,52608,1,0,0:0:0:10:soft-hitclap.wav
192,192,52608,1,0,0:0:0:20:normal-hitnormal.wav
320,192,52784,1,0,0:0:0:20:normal-hitnormal.wav
192,192,52872,1,0,0:0:0:20:normal-hitnormal.wav
448,192,52961,1,0,0:0:0:20:normal-hitnormal.wav
64,192,52961,128,0,53667:0:0:0:20:normal-hitnormal.wav
192,192,53137,1,0,0:0:0:20:normal-hitnormal.wav
320,192,53314,1,0,0:0:0:10:soft-hitclap.wav
448,192,53314,1,0,0:0:0:20:normal-hitnormal.wav
192,192,53490,1,0,0:0:0:20:normal-hitnormal.wav
192,192,53667,128,0,54372:0:0:0:20:normal-hitnormal.wav
448,192,53667,1,0,0:0:0:20:normal-hitnormal.wav
320,192,53843,1,0,0:0:0:20:normal-hitnormal.wav
64,192,54019,1,0,0:0:0:10:soft-hitclap.wav
448,192,54019,1,0,0:0:0:20:normal-hitnormal.wav
320,192,54196,1,0,0:0:0:20:normal-hitnormal.wav
320,192,54372,128,0,55078:0:0:0:20:normal-hitnormal.wav
448,192,54372,1,0,0:0:0:20:normal-hitnormal.wav
64,192,54549,1,0,0:0:0:20:normal-hitnormal.wav
192,192,54725,1,0,0:0:0:10:soft-hitclap.wav
448,192,54725,1,0,0:0:0:20:normal-hitnormal.wav
64,192,54902,1,0,0:0:0:20:normal-hitnormal.wav
448,192,55078,128,0,56490:0:0:0:20:normal-hitnormal.wav
192,192,55078,1,0,0:0:0:20:normal-hitnormal.wav
64,192,55255,1,0,0:0:0:20:normal-hitnormal.wav
320,192,55431,1,0,0:0:0:20:normal-hitnormal.wav
192,192,55431,1,0,0:0:0:10:soft-hitclap.wav
320,192,55608,1,0,0:0:0:20:normal-hitnormal.wav
64,192,55784,1,0,0:0:0:20:normal-hitnormal.wav
192,192,55961,1,0,0:0:0:20:normal-hitnormal.wav
64,192,56137,1,0,0:0:0:10:soft-hitclap.wav
320,192,56137,1,0,0:0:0:20:normal-hitnormal.wav
192,192,56314,1,0,0:0:0:20:normal-hitnormal.wav
64,192,56490,1,0,0:0:0:20:normal-hitnormal.wav
320,192,56490,128,0,57196:0:0:0:20:normal-hitnormal.wav
192,192,56667,1,0,0:0:0:20:normal-hitnormal.wav
192,192,56843,1,0,0:0:0:10:soft-hitclap.wav
448,192,56843,1,0,0:0:0:20:normal-hitnormal.wav
64,192,57019,1,0,0:0:0:20:normal-hitnormal.wav
192,192,57196,1,0,0:0:0:20:normal-hitnormal.wav
64,192,57196,128,0,57549:0:0:0:20:normal-hitnormal.wav
320,192,57372,1,0,0:0:0:20:normal-hitnormal.wav
192,192,57549,128,0,57902:0:0:0:20:normal-hitnormal.wav
320,192,57549,1,0,0:0:0:10:soft-hitclap.wav
448,192,57549,1,0,0:0:0:20:normal-hitnormal.wav
448,192,57725,1,0,0:0:0:20:normal-hitnormal.wav
448,192,57902,128,0,58431:0:0:0:20:normal-hitnormal.wav
64,192,57902,1,0,0:0:0:20:normal-hitnormal.wav
192,192,58078,1,0,0:0:0:20:normal-hitnormal.wav
320,192,58255,1,0,0:0:0:20:normal-hitnormal.wav
64,192,58255,1,0,0:0:0:10:soft-hitclap.wav
320,192,58431,1,0,0:0:0:20:normal-hitnormal.wav
192,192,58519,1,0,0:0:0:20:normal-hitnormal.wav
64,192,58608,128,0,59314:0:0:0:20:normal-hitnormal.wav
448,192,58608,1,0,0:0:0:20:normal-hitnormal.wav
320,192,58784,1,0,0:0:0:20:normal-hitnormal.wav
192,192,58961,1,0,0:0:0:10:soft-hitclap.wav
448,192,58961,1,0,0:0:0:20:normal-hitnormal.wav
320,192,59137,1,0,0:0:0:20:normal-hitnormal.wav
192,192,59314,1,0,0:0:0:20:normal-hitnormal.wav
320,192,59314,128,0,60019:0:0:0:20:normal-hitnormal.wav
448,192,59314,1,0,0:0:0:20:normal-hitnormal.wav
192,192,59490,1,0,0:0:0:20:normal-hitnormal.wav
64,192,59667,1,0,0:0:0:10:soft-hitclap.wav
448,192,59667,1,0,0:0:0:20:normal-hitnormal.wav
448,192,59843,1,0,0:0:0:20:normal-hitnormal.wav
64,192,60019,1,0,0:0:0:20:normal-hitnormal.wav
192,192,60019,128,0,60372:0:0:0:20:normal-hitnormal.wav
320,192,60196,1,0,0:0:0:20:normal-hitnormal.wav
448,192,60372,1,0,0:0:0:20:normal-hitnormal.wav
64,192,60372,1,0,0:0:0:10:soft-hitclap.wav
320,192,60372,128,0,60725:0:0:0:20:normal-hitnormal.wav
64,192,60549,1,0,0:0:0:20:normal-hitnormal.wav
448,192,60725,128,0,61431:0:0:0:20:normal-hitnormal.wav
192,192,60725,1,0,0:0:0:20:normal-hitnormal.wav
192,192,60902,1,0,0:0:0:20:normal-hitnormal.wav
64,192,61078,1,0,0:0:0:10:soft-hitclap.wav
320,192,61078,1,0,0:0:0:20:normal-hitnormal.wav
192,192,61255,1,0,0:0:0:20:normal-hitnormal.wav
320,192,61431,128,0,62137:0:0:0:20:normal-hitnormal.wav
64,192,61431,1,0,0:0:0:20:normal-hitnormal.wav
192,192,61608,1,0,0:0:0:20:normal-hitnormal.wav
448,192,61784,1,0,0:0:0:20:normal-hitnormal.wav
64,192,61784,1,0,0:0:0:10:soft-hitclap.wav
448,192,61961,1,0,0:0:0:20:normal-hitnormal.wav
192,192,62137,128,0,62843:0:0:0:20:normal-hitnormal.wav
64,192,62137,1,0,0:0:0:20:normal-hitnormal.wav
64,192,62314,1,0,0:0:0:20:normal-hitnormal.wav
320,192,62490,1,0,0:0:0:10:soft-hitclap.wav
448,192,62490,1,0,0:0:0:20:normal-hitnormal.wav
64,192,62667,1,0,0:0:0:20:normal-hitnormal.wav
64,192,62843,128,0,63549:0:0:0:20:normal-hitnormal.wav
448,192,62843,1,0,0:0:0:20:normal-hitnormal.wav
320,192,63019,1,0,0:0:0:20:normal-hitnormal.wav
192,192,63196,1,0,0:0:0:10:soft-hitclap.wav
448,192,63196,1,0,0:0:0:20:normal-hitnormal.wav
320,192,63372,1,0,0:0:0:20:normal-hitnormal.wav
320,192,63549,128,0,63902:0:0:0:20:normal-hitnormal.wav
192,192,63549,1,0,0:0:0:20:normal-hitnormal.wav
64,192,63725,1,0,0:0:0:20:normal-hitnormal.wav
64,192,63902,128,0,64255:0:0:0:20:normal-hitnormal.wav
192,192,63902,1,0,0:0:0:10:soft-hitclap.wav
448,192,63902,1,0,0:0:0:20:normal-hitnormal.wav
448,192,64078,1,0,0:0:0:20:normal-hitnormal.wav
192,192,64255,128,0,64608:0:0:0:20:normal-hitnormal.wav
320,192,64255,1,0,0:0:0:20:normal-hitnormal.wav
448,192,64431,1,0,0:0:0:20:normal-hitnormal.wav
320,192,64608,128,0,64961:0:0:0:20:normal-hitnormal.wav
448,192,64608,1,0,0:0:0:20:normal-hitnormal.wav
64,192,64608,1,0,0:0:0:10:soft-hitclap.wav
64,192,64784,1,0,0:0:0:20:normal-hitnormal.wav
192,192,64961,1,0,0:0:0:20:normal-hitnormal.wav
448,192,64961,1,0,0:0:0:20:normal-hitnormal.wav
64,192,65049,1,0,0:0:0:20:normal-hitnormal.wav
192,192,65137,1,0,0:0:0:20:normal-hitnormal.wav
320,192,65225,1,0,0:0:0:20:normal-hitnormal.wav
64,192,65314,1,0,0:0:0:20:normal-hitnormal.wav
448,192,65314,1,0,0:0:0:20:normal-hitnormal.wav
192,192,65314,1,0,0:0:0:10:soft-hitclap.wav
320,192,65402,1,0,0:0:0:20:normal-hitnormal.wav
192,192,65490,1,0,0:0:0:20:normal-hitnormal.wav
448,192,65578,1,0,0:0:0:20:normal-hitnormal.wav
64,192,65667,1,0,0:0:0:20:normal-hitnormal.wav
320,192,65667,1,0,0:0:0:20:normal-hitnormal.wav
448,192,65755,1,0,0:0:0:20:normal-hitnormal.wav
320,192,65843,1,0,0:0:0:20:normal-hitnormal.wav
192,192,65931,1,0,0:0:0:20:normal-hitnormal.wav
320,192,66019,1,0,0:0:0:20:normal-hitnormal.wav
448,192,66019,1,0,0:0:0:20:normal-hitnormal.wav
64,192,66019,1,0,0:0:0:10:soft-hitclap.wav
192,192,66108,1,0,0:0:0:20:normal-hitnormal.wav
64,192,66196,1,0,0:0:0:20:normal-hitnormal.wav
192,192,66284,1,0,0:0:0:20:normal-hitnormal.wav
64,192,66372,1,0,0:0:0:20:normal-hitnormal.wav
448,192,66372,1,0,0:0:0:20:normal-hitnormal.wav
320,192,66461,1,0,0:0:0:20:normal-hitnormal.wav
448,192,66549,1,0,0:0:0:20:normal-hitnormal.wav
320,192,66637,1,0,0:0:0:20:normal-hitnormal.wav
192,192,66725,1,0,0:0:0:10:soft-hitclap.wav
64,192,66725,1,0,0:0:0:20:normal-hitnormal.wav
448,192,66725,1,0,0:0:0:20:normal-hitnormal.wav
320,192,66814,1,0,0:0:0:20:normal-hitnormal.wav
192,192,66902,1,0,0:0:0:20:normal-hitnormal.wav
64,192,66990,1,0,0:0:0:20:normal-hitnormal.wav
448,192,67078,1,0,0:0:0:20:normal-hitnormal.wav
192,192,67078,1,0,0:0:0:20:normal-hitnormal.wav
320,192,67167,1,0,0:0:0:20:normal-hitnormal.wav
64,192,67255,1,0,0:0:0:20:normal-hitnormal.wav
448,192,67255,1,0,0:0:0:20:normal-hitnormal.wav
320,192,67343,1,0,0:0:0:20:normal-hitnormal.wav
64,192,67431,1,0,0:0:0:20:normal-hitnormal.wav
192,192,67431,1,0,0:0:0:10:soft-hitclap.wav
448,192,67431,1,0,0:0:0:20:normal-hitnormal.wav
320,192,67519,1,0,0:0:0:20:normal-hitnormal.wav
64,192,67608,1,0,0:0:0:20:normal-hitnormal.wav
448,192,67608,1,0,0:0:0:20:normal-hitnormal.wav
320,192,67696,1,0,0:0:0:20:normal-hitnormal.wav
64,192,67784,1,0,0:0:0:20:normal-hitnormal.wav
192,192,67784,128,0,68137:0:0:0:20:normal-hitnormal.wav
448,192,67784,1,0,0:0:0:20:normal-hitnormal.wav
320,192,67961,1,0,0:0:0:20:normal-hitnormal.wav
64,192,68137,1,0,0:0:0:20:normal-hitnormal.wav
448,192,68137,1,0,0:0:0:20:normal-hitnormal.wav
320,192,68314,1,0,0:0:0:20:normal-hitnormal.wav
448,192,68314,1,0,0:0:0:20:normal-hitnormal.wav
64,192,68314,128,0,68667:0:0:0:20:normal-hitnormal.wav
192,192,68490,1,0,0:0:0:20:normal-hitnormal.wav
320,192,68490,1,0,0:0:0:20:normal-hitnormal.wav
192,192,68667,1,0,0:0:0:20:normal-hitnormal.wav
448,192,68667,1,0,0:0:0:20:normal-hitnormal.wav
448,192,68843,1,0,0:0:0:20:normal-hitnormal.wav
64,192,68843,1,0,0:0:0:20:normal-hitnormal.wav
192,192,69019,1,0,0:0:0:20:normal-hitnormal.wav
448,192,69196,1,0,0:0:0:20:normal-hitnormal.wav
64,192,69196,1,0,0:0:0:20:normal-hitnormal.wav
320,192,69372,1,0,0:0:0:20:normal-hitnormal.wav
448,192,69549,1,0,0:0:0:20:normal-hitnormal.wav
64,192,69549,1,0,0:0:0:20:normal-hitnormal.wav
192,192,69725,1,0,0:0:0:20:normal-hitnormal.wav
64,192,69902,1,0,0:0:0:20:normal-hitnormal.wav
320,192,69902,1,0,0:0:0:20:normal-hitnormal.wav
448,192,70078,1,0,0:0:0:20:normal-hitnormal.wav
192,192,70255,1,0,0:0:0:20:normal-hitnormal.wav
64,192,70255,1,0,0:0:0:20:normal-hitnormal.wav
320,192,70431,1,0,0:0:0:20:normal-hitnormal.wav
192,192,70431,1,0,0:0:0:20:normal-hitnormal.wav
64,192,70608,1,0,0:0:0:20:normal-hitnormal.wav
320,192,70608,1,0,0:0:0:20:normal-hitnormal.wav
448,192,70608,128,0,70961:0:0:0:20:normal-hitnormal.wav
192,192,70784,1,0,0:0:0:20:normal-hitnormal.wav
64,192,70961,1,0,0:0:0:20:normal-hitnormal.wav
320,192,70961,1,0,0:0:0:20:normal-hitnormal.wav
64,192,71137,1,0,0:0:0:20:normal-hitnormal.wav
320,192,71137,128,0,71490:0:0:0:20:normal-hitnormal.wav
448,192,71314,1,0,0:0:0:20:normal-hitnormal.wav
192,192,71314,1,0,0:0:0:20:normal-hitnormal.wav
448,192,71490,1,0,0:0:0:20:normal-hitnormal.wav
64,192,71490,1,0,0:0:0:20:normal-hitnormal.wav
320,192,71667,1,0,0:0:0:20:normal-hitnormal.wav
192,192,71667,1,0,0:0:0:20:normal-hitnormal.wav
64,192,71843,1,0,0:0:0:20:normal-hitnormal.wav
320,192,72019,1,0,0:0:0:20:normal-hitnormal.wav
448,192,72019,1,0,0:0:0:20:normal-hitnormal.wav
64,192,72196,1,0,0:0:0:20:normal-hitnormal.wav
192,192,72372,1,0,0:0:0:20:normal-hitnormal.wav
320,192,72372,1,0,0:0:0:20:normal-hitnormal.wav
448,192,72549,1,0,0:0:0:20:normal-hitnormal.wav
64,192,72549,1,0,0:0:0:20:normal-hitnormal.wav
64,192,72725,1,0,0:0:0:20:normal-hitnormal.wav
192,192,72725,1,0,0:0:0:20:normal-hitnormal.wav
320,192,72902,1,0,0:0:0:20:normal-hitnormal.wav
448,192,72902,1,0,0:0:0:20:normal-hitnormal.wav
448,192,73078,1,0,0:0:0:20:normal-hitnormal.wav
64,192,73078,1,0,0:0:0:20:normal-hitnormal.wav
320,192,73255,1,0,0:0:0:20:normal-hitnormal.wav
64,192,73255,1,0,0:0:0:20:normal-hitnormal.wav
192,192,73431,128,0,73784:0:0:0:20:normal-hitnormal.wav
448,192,73431,1,0,0:0:0:20:normal-hitnormal.wav
320,192,73608,1,0,0:0:0:20:normal-hitnormal.wav
448,192,73784,1,0,0:0:0:20:normal-hitnormal.wav
64,192,73961,1,0,0:0:0:20:normal-hitnormal.wav
320,192,73961,128,0,74314:0:0:0:20:normal-hitnormal.wav
192,192,74137,1,0,0:0:0:20:normal-hitnormal.wav
64,192,74314,1,0,0:0:0:20:normal-hitnormal.wav
320,192,74402,1,0,0:0:0:20:normal-hitnormal.wav
448,192,74490,1,0,0:0:0:20:normal-hitnormal.wav
192,192,74667,1,0,0:0:0:20:normal-hitnormal.wav
64,192,74843,1,0,0:0:0:20:normal-hitnormal.wav
448,192,75019,1,0,0:0:0:20:normal-hitnormal.wav
64,192,75196,1,0,0:0:0:20:normal-hitnormal.wav
320,192,75284,1,0,0:0:0:20:normal-hitnormal.wav
448,192,75372,1,0,0:0:0:20:normal-hitnormal.wav
192,192,75549,1,0,0:0:0:20:normal-hitnormal.wav
320,192,75725,1,0,0:0:0:20:normal-hitnormal.wav
64,192,75902,1,0,0:0:0:20:normal-hitnormal.wav
192,192,75990,1,0,0:0:0:20:normal-hitnormal.wav
320,192,76078,1,0,0:0:0:20:normal-hitnormal.wav
64,192,76255,128,0,76608:0:0:0:20:normal-hitnormal.wav
320,192,76255,128,0,76608:0:0:0:20:normal-hitnormal.wav
448,192,76255,1,0,0:0:0:20:normal-hitnormal.wav
192,192,76431,1,0,0:0:0:20:normal-hitnormal.wav
448,192,76608,1,0,0:0:0:20:normal-hitnormal.wav
448,192,76784,128,0,76961:0:0:0:20:normal-hitnormal.wav
64,192,76784,1,0,0:0:0:20:normal-hitnormal.wav
192,192,76784,128,0,76961:0:0:0:20:normal-hitnormal.wav
320,192,76961,1,0,0:0:0:20:normal-hitnormal.wav
64,192,77137,1,0,0:0:0:20:normal-hitnormal.wav
192,192,77225,1,0,0:0:0:20:normal-hitnormal.wav
320,192,77314,1,0,0:0:0:20:normal-hitnormal.wav
192,192,77490,1,0,0:0:0:20:normal-hitnormal.wav
448,192,77667,1,0,0:0:0:20:normal-hitnormal.wav
320,192,77667,1,0,0:0:0:20:normal-hitnormal.wav
192,192,77843,1,0,0:0:0:20:normal-hitnormal.wav
64,192,77843,1,0,0:0:0:20:normal-hitnormal.wav
320,192,77931,1,0,0:0:0:20:normal-hitnormal.wav
448,192,78019,1,0,0:0:0:20:normal-hitnormal.wav
192,192,78019,1,0,0:0:0:20:normal-hitnormal.wav
320,192,78196,1,0,0:0:0:20:normal-hitnormal.wav
192,192,78196,1,0,0:0:0:20:normal-hitnormal.wav
448,192,78372,1,0,0:0:0:20:normal-hitnormal.wav
64,192,78372,1,0,0:0:0:20:normal-hitnormal.wav
64,192,78549,1,0,0:0:0:20:normal-hitnormal.wav
320,192,78549,1,0,0:0:0:20:normal-hitnormal.wav
64,192,78725,1,0,0:0:0:15:soft-hitclap.wav
192,192,78725,1,0,0:0:0:15:soft-hitclap.wav
320,192,78725,1,0,0:0:0:15:soft-hitclap.wav
448,192,78725,1,0,0:0:0:15:soft-hitclap.wav
64,192,78902,1,0,0:0:0:20:normal-hitnormal.wav
448,192,78902,1,0,0:0:0:20:normal-hitnormal.wav
