osu file format v13

[General]
AudioFilename: chocobo.mp3
AudioLeadIn: 0
PreviewTime: 12958
Countdown: 0
SampleSet: Normal
StackLeniency: 0.7
Mode: 0
LetterboxInBreaks: 0
WidescreenStoryboard: 0

[Editor]
DistanceSpacing: 1.4
BeatDivisor: 4
GridSize: 4
TimelineZoom: 3.399999

[Metadata]
Title:Chocobo
TitleUnicode:Chocobo
Artist:Hyadain
ArtistUnicode:Hyadain
Creator:ertyukjh010
Version:Chocobo
Source:Final Fantasy
Tags:
BeatmapID:455028
BeatmapSetID:191134

[Difficulty]
HPDrainRate:7
CircleSize:5
OverallDifficulty:8
ApproachRate:9
SliderMultiplier:1.8
SliderTickRate:1

[Events]
//Background and Video events
Video,0,"chocobo.AVI"
0,0,"chocobo.jpg",0,0
//Break Periods
2,35922,40770
2,64157,71828
2,98039,101476
2,126275,127770
//Storyboard Layer 0 (Background)
//Storyboard Layer 1 (Fail)
//Storyboard Layer 2 (Pass)
//Storyboard Layer 3 (Foreground)
//Storyboard Sound Samples
//Background Colour Transformations
3,100,163,162,255

[TimingPoints]
429,352.941176470588,4,1,1,100,1,0
13134,-100,4,1,1,60,0,0
24428,-83.3333333333333,4,1,1,60,0,1
35370,-66.6666666666667,4,1,1,60,0,1
35723,-100,4,1,1,70,0,0
41370,-100,4,1,1,60,0,0
52664,-83.3333333333333,4,1,1,60,0,1
63605,-66.6666666666667,4,1,1,60,0,1
63958,-100,4,1,1,70,0,0
72428,-133.333333333333,4,2,1,70,0,0
73840,-133.333333333333,4,1,1,50,0,0
75252,-83.3333333333333,4,1,1,60,0,0
97487,-66.6666666666667,4,1,1,60,0,0
97840,-100,4,1,1,70,0,0
102076,-100,4,1,1,60,0,0
103134,-66.6666666666667,4,1,1,60,0,1
103487,-83.3333333333333,4,1,1,60,0,0
114781,-83.3333333333333,4,1,1,60,0,1
125723,-66.6666666666667,4,1,1,60,0,1
126076,-66.6666666666667,4,1,1,70,0,0
128370,-100,4,1,1,50,0,0

[Colours]
Combo1 : 255,169,83
Combo2 : 255,255,128
Combo3 : 242,242,0

[HitObjects]
216,40,13134,6,0,P|232:124|312:168,1,180,4|8,0:0|0:0,0:0:0:0:
472,144,13664,1,0,0:0:0:0:
332,60,13840,1,0,0:0:0:0:
320,220,14017,1,0,0:0:0:0:
412,84,14194,1,8,0:0:0:0:
248,52,14370,1,0,0:3:0:0:
332,60,14546,6,0,P|304:116|236:136,1,135
44,48,14899,2,0,P|108:60|148:120,1,135,8|0,0:0|0:0,0:0:0:0:
204,328,15252,2,0,P|168:280|176:208,1,135,0|0,0:0|0:0,0:0:0:0:
175,208,15605,1,8,0:0:0:0:
308,152,15781,1,0,0:0:0:0:
360,288,15958,6,0,L|448:264,1,90
400,188,16223,1,0,0:0:0:0:
400,188,16311,2,0,L|488:168,1,90,8|0,0:0|0:0,0:0:0:0:
424,56,16664,1,0,0:0:0:0:
352,112,16840,1,0,0:0:0:0:
280,168,17017,1,8,0:0:0:0:
208,224,17193,1,0,0:0:0:0:
88,96,17370,6,0,L|152:160,1,90
76,208,17634,1,0,0:0:0:0:
76,208,17723,2,0,L|140:272,1,90,8|0,0:0|0:0,0:0:0:0:
272,336,18076,1,0,0:0:0:0:
456,196,18252,1,8,0:0:0:0:
272,336,18428,1,8,0:0:0:0:
456,196,18605,1,0,0:0:0:0:
312,252,18781,6,0,P|256:192|268:100,1,180,4|8,0:0|0:0,0:0:0:0:
424,52,19311,1,0,0:0:0:0:
392,212,19487,1,0,0:0:0:0:
236,164,19664,1,0,0:0:0:0:
124,280,19840,1,8,0:0:0:0:
280,328,20017,1,0,0:0:0:0:
392,212,20193,6,0,P|324:212|272:252,1,135
112,348,20546,2,0,P|60:304|52:240,1,135,8|0,0:0|0:0,0:0:0:0:
204,116,20899,2,0,L|164:248,1,135
164,245,21252,1,8,0:0:0:0:
304,200,21428,1,0,0:0:0:0:
120,88,21605,6,0,L|140:176,1,90
216,228,21870,1,0,0:0:0:0:
216,228,21958,2,0,L|176:316,1,90,8|0,0:0|0:0,0:0:0:0:
20,272,22311,1,0,0:0:0:0:
52,188,22487,1,0,0:0:0:0:
140,172,22664,1,8,0:0:0:0:
212,120,22840,1,0,0:0:0:0:
264,44,23017,6,0,L|360:36,1,90
428,84,23281,1,0,0:0:0:0:
428,84,23370,2,0,L|512:120,1,90,8|0,0:0|0:0,0:0:0:0:
496,232,23723,1,0,0:0:0:0:
264,44,23899,1,8,0:0:0:0:
496,232,24076,1,8,0:0:0:0:
264,44,24252,1,0,0:0:0:0:
392,216,24428,6,0,P|300:280|208:252,1,215.999993408203,4|8,0:0|0:0,0:0:0:0:
264,44,24958,1,0,0:0:0:0:
456,144,25134,1,0,0:0:0:0:
276,268,25311,1,0,0:0:0:0:
364,124,25487,1,8,0:0:0:0:
476,312,25664,1,0,0:0:0:0:
352,32,25840,6,0,L|296:184,1,161.999995056153
364,288,26193,2,0,P|416:228|416:148,1,161.999995056153,8|0,0:0|0:0,0:0:0:0:
232,76,26546,2,0,P|180:136|180:216,1,161.999995056153
252,300,26899,1,8,0:0:0:0:
252,300,27076,1,0,0:0:0:0:
320,124,27252,6,0,P|260:164|176:148,1,161.999995056153
120,76,27605,1,8,0:0:0:0:
12,224,27781,1,0,0:0:0:0:
144,344,27958,2,0,L|188:240,1,107.999996704102
268,176,28223,1,0,0:0:0:0:
268,176,28311,2,0,L|296:280,1,107.999996704102,8|0,0:0|0:0,0:0:0:0:
388,332,28576,1,0,0:0:0:0:
388,332,28664,2,0,L|432:232,1,107.999996704102
476,116,28928,1,0,0:0:0:0:
476,116,29017,2,0,P|428:140|376:124,1,107.999996704102,8|0,0:0|0:0,0:0:0:0:
328,56,29281,1,0,0:0:0:0:
328,56,29370,5,0,0:0:0:0:
328,232,29546,1,8,0:0:0:0:
160,316,29723,1,8,0:0:0:0:
0,192,29899,1,0,0:0:0:0:
140,8,30076,6,0,P|152:88|100:144,1,161.999995056153
24,112,30428,1,8,0:0:0:0:
168,248,30605,1,0,0:0:0:0:
332,136,30781,1,0,0:0:0:0:
216,136,30958,1,0,0:0:0:0:
316,288,31134,1,8,0:0:0:0:
432,288,31311,1,0,0:0:0:0:
136,352,31487,6,0,P|144:272|204:220,1,161.999995056153
152,48,31840,2,0,P|225:76|260:148,1,161.999995056153,8|0,0:0|0:0,0:0:0:0:
435,205,32193,2,0,P|369:249|292:236,1,161.999995056153
292,44,32546,2,0,L|260:148,1,107.999996704102,8|0,0:0|0:0,0:0:0:0:
200,308,32899,5,0,0:0:0:0:
124,120,33076,2,0,L|180:140,1,53.9999983520508
248,112,33252,1,8,0:0:0:0:
392,36,33428,1,0,0:0:0:0:
460,184,33605,2,0,P|404:248|332:240,1,161.999995056153,0|0,0:0|0:0,0:0:0:0:
264,208,33958,2,0,L|156:208,1,107.999996704102,8|0,0:0|0:0,0:0:0:0:
40,248,34311,5,0,0:0:0:0:
136,352,34487,1,8,0:0:0:0:
332,352,34664,1,8,0:0:0:0:
448,168,34840,1,8,0:0:0:0:
232,0,35017,1,0,0:0:0:0:
56,148,35370,6,2,L|328:148,1,270.000010299683,0|4,0:0|0:0,0:0:0:0:
324,328,41370,6,0,P|384:272|384:180,1,180,4|8,0:0|0:0,0:0:0:0:
264,68,41899,1,0,0:0:0:0:
184,208,42076,2,0,L|272:184,1,90
472,112,42428,1,8,0:0:0:0:
440,272,42605,1,0,0:0:0:0:
292,336,42781,6,0,P|240:288|228:224,1,135
360,117,43134,2,0,P|361:184|332:244,1,135,8|0,0:0|0:0,0:0:0:0:
144,260,43487,2,0,P|80:264|36:320,1,135,0|0,0:0|0:0,0:0:0:0:
116,336,43840,1,8,0:0:0:0:
168,184,44017,1,0,0:0:0:0:
336,28,44193,6,0,L|328:120,1,90
228,104,44458,1,0,0:0:0:0:
228,104,44546,2,0,L|260:192,1,90,8|0,0:0|0:0,0:0:0:0:
476,304,44899,1,0,0:0:0:0:
388,284,45076,1,0,0:0:0:0:
308,324,45252,1,8,0:0:0:0:
220,300,45428,1,0,0:0:0:0:
132,324,45605,6,0,L|56:276,1,90
120,212,45870,1,0,0:0:0:0:
120,212,45958,2,0,L|80:132,1,90,8|0,0:0|0:0,0:0:0:0:
244,52,46311,1,0,0:0:0:0:
64,44,46487,1,8,0:0:0:0:
196,168,46664,1,8,0:0:0:0:
376,176,46840,1,0,0:0:0:0:
244,52,47017,6,0,P|152:68|100:136,1,180,0|8,0:0|0:0,0:0:0:0:
140,292,47546,1,0,0:0:0:0:
304,300,47723,2,0,L|256:220,1,90
140,108,48076,1,8,0:0:0:0:
284,36,48252,1,0,0:0:0:0:
432,112,48428,6,0,P|368:136|300:112,1,135
204,184,48781,2,0,L|236:324,1,135,8|0,0:0|0:0,0:0:0:0:
364,364,49134,2,0,L|408:236,1,135
407,236,49487,1,8,0:0:0:0:
368,80,49664,1,0,0:0:0:0:
236,172,49840,6,0,L|328:184,1,90
292,260,50105,1,0,0:0:0:0:
292,260,50193,2,0,L|372:304,1,90,8|0,0:0|0:0,0:0:0:0:
452,292,50546,5,0,0:0:0:0:
452,164,50723,1,0,0:0:0:0:
312,56,50899,1,8,0:0:0:0:
312,184,51076,1,0,0:0:0:0:
228,324,51252,6,0,L|176:248,1,90
104,276,51517,1,0,0:0:0:0:
104,276,51605,2,0,L|92:184,1,90,8|0,0:0|0:0,0:0:0:0:
64,52,51958,1,0,0:0:0:0:
304,92,52134,1,8,0:0:0:0:
64,52,52311,1,8,0:0:0:0:
304,92,52487,1,0,0:0:0:0:
276,336,52664,6,0,P|204:272|212:160,1,215.999993408203,4|8,0:0|0:0,0:0:0:0:
412,80,53193,1,0,0:0:0:0:
460,292,53370,1,0,0:0:0:0:
388,192,53546,1,0,0:0:0:0:
276,248,53723,1,8,0:0:0:0:
412,80,53899,1,0,0:0:0:0:
200,36,54076,6,0,P|200:116|256:176,1,161.999995056153
356,196,54428,2,0,L|444:132,1,107.999996704102,8|0,0:0|0:0,0:0:0:0:
380,312,54693,1,0,0:0:0:0:
380,312,54781,2,0,P|308:272|228:292,1,161.999995056153
136,340,55134,2,0,L|68:256,1,107.999996704102,8|0,0:0|0:0,0:0:0:0:
272,64,55487,6,0,P|256:116|164:164,1,161.999995056153
108,96,55840,1,8,0:0:0:0:
276,224,56017,1,0,0:0:0:0:
468,144,56193,2,0,L|420:48,1,107.999996704102
360,140,56458,1,0,0:0:0:0:
360,140,56546,2,0,L|384:248,1,107.999996704102,8|0,0:0|0:0,0:0:0:0:
264,332,56811,1,0,0:0:0:0:
264,332,56899,2,0,L|276:224,1,107.999996704102
172,272,57164,1,0,0:0:0:0:
172,272,57252,2,0,L|84:336,1,107.999996704102,8|0,0:0|0:0,0:0:0:0:
16,288,57517,1,0,0:0:0:0:
16,288,57605,5,0,0:0:0:0:
192,352,57781,1,8,0:0:0:0:
248,168,57958,1,8,0:0:0:0:
428,120,58134,1,0,0:0:0:0:
428,232,58311,6,0,P|348:200|312:136,1,161.999995056153
256,80,58664,2,0,L|148:80,1,107.999996704102,8|0,0:0|0:0,0:0:0:0:
184,192,59017,1,0,0:0:0:0:
368,44,59193,1,0,0:0:0:0:
188,36,59370,1,8,0:0:0:0:
348,264,59546,1,0,0:0:0:0:
272,24,59723,6,0,P|260:84|172:120,1,161.999995056153
352,168,60076,2,0,P|436:172|488:228,1,161.999995056153,8|0,0:0|0:0,0:0:0:0:
236,328,60428,2,0,L|384:264,1,161.999995056153
460,296,60781,1,8,0:0:0:0:
460,296,60958,1,0,0:0:0:0:
504,116,61134,5,0,0:0:0:0:
364,180,61311,2,0,L|308:180,1,53.9999983520508
248,224,61487,1,8,0:0:0:0:
84,328,61664,1,0,0:0:0:0:
76,136,61840,6,0,P|152:116|228:148,1,161.999995056153
248,224,62193,2,0,L|344:176,1,107.999996704102,8|0,0:0|0:0,0:0:0:0:
488,152,62546,5,0,0:0:0:0:
436,264,62723,1,8,0:0:0:0:
272,320,62899,1,8,0:0:0:0:
88,248,63076,1,8,0:0:0:0:
32,24,63252,1,0,0:0:0:0:
328,232,63605,6,2,L|84:116,1,270.000010299683,0|4,0:0|0:0,0:0:0:0:
256,72,72428,5,4,0:0:0:0:
256,148,72693,1,2,0:0:0:0:
256,148,72781,1,0,0:0:0:0:
256,224,73046,1,2,0:0:0:0:
256,224,73134,1,0,0:0:0:0:
256,300,73664,1,0,0:0:0:0:
104,56,73840,5,4,0:0:0:0:
408,56,74193,1,0,0:0:0:0:
256,300,74546,1,4,0:0:0:0:
256,300,74899,5,0,0:0:0:0:
256,272,74987,1,0,0:0:0:0:
256,244,75076,1,0,0:0:0:0:
256,216,75164,1,0,0:0:0:0:
256,188,75252,2,0,L|148:188,1,107.999996704102,4|0,0:0|0:0,0:0:0:0:
296,60,75605,2,0,L|404:60,1,107.999996704102,8|0,0:0|0:0,0:0:0:0:
476,248,75958,1,0,0:0:0:0:
296,60,76134,1,0,0:0:0:0:
476,136,76311,1,8,0:0:0:0:
296,324,76487,1,0,0:0:0:0:
256,192,76664,5,0,0:0:0:0:
256,192,77017,1,0,0:0:0:0:
256,192,77370,1,4,0:0:0:0:
420,192,77546,1,0,0:0:0:0:
420,192,77634,1,0,0:0:0:0:
420,192,77723,1,8,0:0:0:0:
92,192,77899,1,0,0:0:0:0:
256,32,78076,6,0,P|244:88|208:120,1,107.999996704102
144,160,78340,1,0,0:0:0:0:
144,160,78428,2,0,L|188:260,1,107.999996704102,8|0,0:0|0:0,0:0:0:0:
256,288,78693,1,0,0:0:0:0:
256,288,78781,5,0,0:0:0:0:
444,240,78958,1,0,0:0:0:0:
348,72,79134,1,8,0:0:0:0:
152,76,79311,1,0,0:0:0:0:
88,308,79487,6,0,L|176:244,1,107.999996704102
256,244,79752,1,0,0:0:0:0:
256,244,79840,2,0,L|304:148,1,107.999996704102,8|0,0:0|0:0,0:0:0:0:
312,72,80105,1,0,0:0:0:0:
312,72,80193,5,0,0:0:0:0:
460,200,80370,1,8,0:0:0:0:
284,328,80546,1,8,0:0:0:0:
92,228,80723,1,0,0:0:0:0:
228,64,80899,6,0,P|232:136|180:204,1,161.999995056153
84,148,81252,1,8,0:0:0:0:
216,320,81428,1,0,0:0:0:0:
356,132,81605,2,0,L|460:96,1,107.999996704102
356,216,81958,2,0,L|248:252,1,107.999996704102,8|0,0:0|0:0,0:0:0:0:
172,236,82311,5,0,0:0:0:0:
96,204,82664,1,0,0:0:0:0:
20,172,83017,1,4,0:0:0:0:
256,56,83193,1,0,0:0:0:0:
256,56,83281,1,0,0:0:0:0:
256,56,83370,1,8,0:0:0:0:
256,328,83546,1,0,0:0:0:0:
208,148,83723,6,0,L|312:192,1,107.999996704102
332,264,83987,1,0,0:0:0:0:
332,264,84076,2,0,L|444:280,1,107.999996704102,8|0,0:0|0:0,0:0:0:0:
500,228,84340,1,0,0:0:0:0:
500,228,84428,5,0,0:0:0:0:
396,64,84605,1,0,0:0:0:0:
204,48,84781,1,8,0:0:0:0:
64,184,84958,1,0,0:0:0:0:
316,336,85134,6,0,L|284:232,1,107.999996704102
208,220,85399,1,0,0:0:0:0:
208,220,85487,2,0,L|236:116,1,107.999996704102,8|0,0:0|0:0,0:0:0:0:
300,76,85752,1,0,0:0:0:0:
300,76,85840,5,0,0:0:0:0:
160,120,86017,1,8,0:0:0:0:
400,208,86193,1,8,0:0:0:0:
164,344,86370,1,0,0:0:0:0:
360,124,86546,6,0,B|312:160|304:232|304:232|284:200,1,161.999995056153,4|0,0:0|0:0,0:0:0:0:
228,144,86899,2,0,P|180:116|128:108,1,107.999996704102,8|0,0:0|0:0,0:0:0:0:
16,204,87252,1,0,0:0:0:0:
224,296,87428,1,0,0:0:0:0:
204,44,87605,1,8,0:0:0:0:
104,280,87781,1,0,0:0:0:0:
92,152,87958,6,0,P|152:204|232:200,1,161.999995056153
404,36,88311,2,0,L|424:196,1,161.999995056153,8|0,0:0|0:0,0:0:0:0:
480,292,88664,2,0,P|396:300|336:252,1,161.999995056153
320,172,89017,1,8,0:0:0:0:
320,172,89193,1,0,0:0:0:0:
172,56,89370,6,0,P|152:140|88:176,1,161.999995056153
12,156,89723,2,0,L|12:264,1,107.999996704102,8|0,0:0|0:0,0:0:0:0:
196,328,90076,1,0,0:0:0:0:
196,328,90252,1,0,0:0:0:0:
328,88,90428,1,8,0:0:0:0:
472,252,90605,1,0,0:0:0:0:
344,328,90781,6,0,P|320:280|324:224,1,107.999996704102
268,168,91046,1,0,0:0:0:0:
268,168,91134,2,0,L|192:244,1,107.999996704102,8|0,0:0|0:0,0:0:0:0:
112,252,91399,1,0,0:0:0:0:
112,252,91487,5,0,0:0:0:0:
172,116,91664,1,8,0:0:0:0:
292,280,91840,1,8,0:0:0:0:
304,76,92017,1,0,0:0:0:0:
432,152,92193,6,0,P|360:140|304:76,1,161.999995056153
240,128,92546,2,0,L|200:228,1,107.999996704102,8|0,0:0|0:0,0:0:0:0:
328,340,92899,1,0,0:0:0:0:
456,228,93076,1,0,0:0:0:0:
392,72,93252,1,8,0:0:0:0:
208,48,93428,1,0,0:0:0:0:
128,232,93605,6,0,P|208:248|276:208,1,161.999995056153
368,100,93958,2,0,L|208:80,1,161.999995056153,8|0,0:0|0:0,0:0:0:0:
88,160,94311,2,0,P|76:224|120:308,1,161.999995056153
119,307,94664,1,8,0:0:0:0:
312,316,94840,1,0,0:0:0:0:
380,136,95017,6,0,L|272:124,1,107.999996704102
172,248,95281,1,0,0:0:0:0:
172,248,95370,2,0,L|280:228,1,107.999996704102,8|0,0:0|0:0,0:0:0:0:
352,256,95634,1,0,0:0:0:0:
352,256,95723,5,0,0:0:0:0:
392,56,95899,1,0,0:0:0:0:
176,36,96076,1,8,0:0:0:0:
80,224,96252,1,0,0:0:0:0:
288,328,96428,6,0,P|264:276|264:224,1,107.999996704102,0|8,0:0|0:0,0:0:0:0:
316,156,96693,1,0,0:0:0:0:
316,156,96781,2,0,L|260:64,1,107.999996704102,8|8,0:0|0:0,0:0:0:0:
176,36,97046,1,0,0:0:0:0:
176,36,97134,1,0,0:0:0:0:
376,216,97487,2,2,P|296:284|152:232,1,270.000010299683,2|6,0:0|0:0,0:0:0:0:
412,92,102076,5,2,0:0:0:0:
348,128,102193,1,0,0:0:0:0:
320,196,102311,1,0,0:0:0:0:
324,268,102428,1,2,0:0:0:0:
284,328,102546,1,0,0:0:0:0:
212,340,102664,1,0,0:0:0:0:
144,316,102781,1,2,0:0:0:0:
44,164,103134,6,2,P|148:164|212:232,1,202.500007724762,0|0,0:0|0:0,0:0:0:0:
272,296,103487,6,0,P|376:300|440:216,1,215.999993408203,4|8,0:0|0:0,0:0:0:0:
352,68,104017,1,0,0:0:0:0:
204,196,104193,2,0,L|312:196,1,107.999996704102
484,304,104546,2,0,L|376:304,1,107.999996704102,8|0,0:0|0:0,0:0:0:0:
180,300,104899,6,0,P|264:264|296:204,1,161.999995056153
352,132,105252,2,0,L|204:196,1,161.999995056153,8|0,0:0|0:0,0:0:0:0:
288,68,105605,2,0,P|344:76|436:128,1,161.999995056153
434,127,105958,1,8,0:0:0:0:
444,300,106134,1,0,0:0:0:0:
272,316,106311,6,0,L|236:212,1,107.999996704102
124,208,106576,1,0,0:0:0:0:
124,208,106664,2,0,L|152:104,1,107.999996704102,8|0,0:0|0:0,0:0:0:0:
272,48,107017,1,0,0:0:0:0:
348,88,107193,1,0,0:0:0:0:
424,128,107370,1,8,0:0:0:0:
500,168,107546,1,0,0:0:0:0:
336,228,107723,6,0,L|228:228,1,107.999996704102
168,144,107987,1,0,0:0:0:0:
168,144,108075,2,0,L|60:144,1,107.999996704102,8|0,0:0|0:0,0:0:0:0:
24,256,108428,1,0,0:0:0:0:
172,344,108605,1,8,0:0:0:0:
344,320,108781,1,8,0:0:0:0:
440,176,108958,1,0,0:0:0:0:
168,44,109134,6,0,P|208:128|272:156,1,161.999995056153
352,152,109487,2,0,L|304:252,1,107.999996704102,8|0,0:0|0:0,0:0:0:0:
204,300,109840,1,0,0:0:0:0:
160,116,110017,1,0,0:0:0:0:
352,152,110193,1,8,0:0:0:0:
204,300,110370,1,0,0:0:0:0:
160,116,110546,6,0,B|260:132|300:60,1,161.999995056153
400,88,110899,2,0,B|388:172|456:236,1,161.999995056153,8|0,0:0|0:0,0:0:0:0:
344,288,111252,2,0,P|292:232|208:232,1,161.999995056153
144,264,111605,1,8,0:0:0:0:
144,264,111781,1,0,0:0:0:0:
244,140,111958,6,0,L|336:84,1,107.999996704102
212,56,112223,1,0,0:0:0:0:
212,56,112311,2,0,L|104:36,1,107.999996704102,8|0,0:0|0:0,0:0:0:0:
28,192,112664,1,0,0:0:0:0:
116,188,112840,1,0,0:0:0:0:
164,260,113017,1,8,0:0:0:0:
252,260,113193,1,0,0:0:0:0:
328,220,113370,6,0,L|364:116,1,107.999996704102
252,148,113634,1,0,0:0:0:0:
252,148,113723,2,0,L|292:44,1,107.999996704102,8|0,0:0|0:0,0:0:0:0:
464,28,114076,1,0,0:0:0:0:
500,220,114252,1,8,0:0:0:0:
368,364,114428,1,8,0:0:0:0:
176,332,114605,1,0,0:0:0:0:
208,112,114781,6,0,P|268:164|348:160,1,161.999995056153,4|0,0:0|0:0,0:0:0:0:
304,216,115134,2,0,P|248:228|208:260,1,107.999996704102,8|0,0:0|0:0,0:0:0:0:
392,240,115487,1,0,0:0:0:0:
144,176,115664,1,0,0:0:0:0:
272,328,115840,1,8,0:0:0:0:
256,60,116017,1,0,0:0:0:0:
56,224,116193,6,0,P|128:256|208:232,1,161.999995056153
456,160,116546,2,0,P|384:128|304:152,1,161.999995056153,8|0,0:0|0:0,0:0:0:0:
312,256,116899,2,0,P|232:224|200:156,1,161.999995056153
264,84,117252,2,0,L|372:84,1,107.999996704102,8|0,0:0|0:0,0:0:0:0:
476,248,117605,5,0,0:0:0:0:
476,248,117781,1,0,0:0:0:0:
216,328,117958,1,8,0:0:0:0:
216,328,118134,1,0,0:0:0:0:
264,84,118311,2,0,P|284:136|276:192,1,107.999996704102
80,160,118576,1,0,0:0:0:0:
80,160,118664,2,0,P|132:140|188:148,1,107.999996704102,8|0,0:0|0:0,0:0:0:0:
160,336,118928,1,0,0:0:0:0:
160,336,119017,2,0,P|140:284|148:228,1,107.999996704102
340,260,119281,1,0,0:0:0:0:
340,260,119370,2,0,P|288:280|232:272,1,107.999996704102,8|0,0:0|0:0,0:0:0:0:
220,184,119634,1,0,0:0:0:0:
220,184,119723,5,0,0:0:0:0:
220,56,119899,1,8,0:0:0:0:
80,224,120076,1,8,0:0:0:0:
360,224,120252,1,0,0:0:0:0:
188,284,120428,6,0,P|120:220|120:152,1,161.999995056153
220,76,120781,2,0,L|220:184,1,107.999996704102,8|0,0:0|0:0,0:0:0:0:
376,304,121134,1,0,0:0:0:0:
444,100,121311,1,0,0:0:0:0:
492,312,121487,1,8,0:0:0:0:
332,164,121664,1,0,0:0:0:0:
192,328,121840,6,0,P|104:292|76:232,1,161.999995056153
303,127,122193,2,0,P|263:195|188:220,1,161.999995056153,8|0,0:0|0:0,0:0:0:0:
34,112,122546,2,0,L|196:112,1,161.999995056153
264,44,122899,1,8,0:0:0:0:
264,44,123076,1,0,0:0:0:0:
424,308,123252,5,0,0:0:0:0:
256,192,123428,1,0,0:0:0:0:
256,192,123517,1,0,0:0:0:0:
256,192,123605,1,8,0:0:0:0:
88,76,123781,1,0,0:0:0:0:
128,288,123958,5,0,0:0:0:0:
384,96,124134,1,8,0:0:0:0:
128,288,124311,1,8,0:0:0:0:
384,96,124487,1,0,0:0:0:0:
212,140,124664,6,0,P|196:88|216:40,1,107.999996704102,0|8,0:0|0:0,0:0:0:0:
320,192,124928,1,0,0:0:0:0:
320,192,125017,2,0,P|376:192|420:220,1,107.999996704102,8|8,0:0|0:0,0:0:0:0:
228,252,125281,1,0,0:0:0:0:
228,252,125370,2,0,P|192:296|144:304,1,107.999996704102
56,176,125723,6,2,P|136:76|272:72,1,270.000010299683,0|4,0:0|0:0,0:0:0:0:
256,192,128370,5,0,0:0:0:0:
256,192,128458,1,0,0:0:0:0:
256,192,128546,1,8,0:0:0:0:
208,192,131193,5,0,0:0:0:0:
256,192,131281,1,0,0:0:0:0:
304,192,131370,1,8,0:0:0:0:
332,192,134017,5,0,0:0:0:0:
256,192,134105,1,0,0:0:0:0:
180,192,134193,1,8,0:0:0:0:
44,192,135958,5,2,0:0:0:0:
256,192,136311,1,2,0:0:0:0:
468,192,136664,1,2,0:0:0:0:
256,192,137017,5,4,0:0:0:0:
