osu file format v5

[General]
AudioFilename: Nobuo Uematsu- Battle with the Four Fiends (Hyadain Mix).mp3
AudioLeadIn: 0
PreviewTime: 22776
Countdown: 0
SampleSet: Normal
StackLeniency: 0.7
Mode: 0
LetterboxInBreaks: 1
EditorBookmarks: 13434,24401,38458,53201,64176,69319,80287,94344,109087,120048,125201,141662,152634

[Metadata]
Title:Battle with the Four Fiends
Artist:Hyadain
Creator:mtmcl
Version:Sinistro
Source:
Tags:

[Difficulty]
HPDrainRate:5
CircleSize:6
OverallDifficulty:8
SliderMultiplier:1.4
SliderTickRate:2

[Events]
//Background and Video events
1,-150,"Four Fiends.avi"
//Break Periods
2,64372,68415
2,120172,124295
2,141858,151722
//Storyboard Layer 0 (Background)
//Storyboard Layer 1 (Failing)
//Storyboard Layer 2 (Passing)
//Storyboard Layer 3 (Foreground)
//Storyboard Sound Samples
//Background Colour Transformations
3,100,163,162,255

[TimingPoints]
13472,342.857142857143,4,1,0,100

[Colours]
Combo1 : 232,0,0
Combo2 : 85,43,43
Combo3 : 3,3,148
Combo4 : 243,255,102

[HitObjects]
48,304,13472,1,0
160,304,13814,1,0
272,304,14157,1,0
384,304,14500,1,0
408,192,14843,2,2,B|264:192,1,140
208,192,15357,1,0
152,192,15529,2,2,B|-8:192,1,140
16,72,16214,5,0
72,72,16386,1,0
128,72,16557,1,0
184,72,16729,1,0
240,72,16900,1,0
296,72,17072,1,0
352,72,17243,1,4
408,72,17414,1,0
464,72,17586,6,0,B|464:144,1,70
408,144,17929,2,0,B|408:224,1,70
352,216,18272,2,0,B|352:288,1,70
296,288,18614,2,0,B|296:360,1,70
232,360,18957,6,0,B|160:360,3,70
160,304,19643,2,2,B|88:304,3,70
88,248,20329,2,0,B|16:248,3,70
16,192,21014,1,2
16,136,21186,1,2
16,136,21272,1,2
16,136,21357,1,6
128,136,21700,5,0
168,96,21872,1,0
208,136,22043,1,0
248,96,22214,1,0
288,136,22386,1,0
328,96,22557,1,0
368,136,22729,1,4
256,192,22900,12,4,24100
136,152,24443,2,0,B|171:117|208:129|236:113|296:152,1,140
360,208,25129,2,0,B|415:245|355:293|321:270|280:312,1,140
192,328,25814,1,0
136,312,25986,1,0
80,296,26157,2,0,B|84:255|57:207|40:175|64:128,1,140
72,104,26672,1,0
144,64,26843,2,2,B|176:17|207:-4|264:0,1,140
224,104,27529,5,0
280,104,27700,1,0
248,152,27872,1,0
224,200,28043,1,0
280,200,28214,1,4
224,304,28557,6,2,B|72:304,1,140
24,304,29072,1,0
24,248,29243,2,2,B|24:96,1,140
24,48,29757,1,0
80,48,29929,2,0,B|128:48|144:80,3,70
144,128,30614,1,0
200,128,30786,1,0
256,128,30957,2,0,B|304:128|320:160,1,70
320,208,31300,1,2
376,208,31472,1,2
376,208,31557,1,2
376,208,31643,1,6
488,208,31986,5,0
488,152,32157,1,0
488,96,32329,1,0
488,40,32500,1,0
432,40,32672,2,0,B|434:85|401:124|368:136|336:136,1,140
320,80,33186,2,0,B|300:80|267:92|234:131|232:176,1,140
296,176,33700,2,0,B|298:221|265:260|232:272|211:271,1,140
192,216,34214,2,0,B|172:216|139:228|106:267|104:320,1,140
168,312,34729,5,2
168,312,34900,1,0
224,328,35072,1,2
224,328,35243,1,0
280,344,35414,1,2
280,344,35586,1,0
336,360,35757,1,2
392,360,35929,1,0
448,360,36100,2,2,B|448:288,1,70
256,192,36443,12,4,38157
384,184,38500,5,2
432,80,38843,1,0
384,48,39014,1,0
336,80,39186,1,2
240,144,39529,1,0
192,176,39700,1,0
144,144,39871,1,2
24,144,40214,6,0,B|24:72,1,70
24,16,40557,1,0
80,16,40729,2,0,B|152:16,1,70
152,72,41071,1,0
192,112,41243,1,2
248,112,41414,1,2
248,112,41500,1,2
248,112,41586,1,6
360,112,41929,2,0,B|360:200,2,70
304,112,42443,1,2
304,112,42529,1,2
304,112,42614,1,6
304,224,42957,6,0,B|304:312,1,70
248,296,43300,2,0,B|248:208,1,70
192,224,43643,2,0,B|192:320,2,70
136,224,44157,1,0
80,224,44329,1,0
40,176,44500,1,0
80,136,44671,2,2,B|40:72,1,70
80,32,45014,1,0
136,32,45186,1,0
172,76,45357,2,2,B|124:156,1,70
106,85,45700,1,4
106,85,46043,1,4
176,176,46386,6,0,B|216:176|240:144,1,70
280,112,46729,2,0,B|302:84|342:84,1,70
344,24,47071,1,2
456,48,47414,1,0
456,104,47586,1,2
344,120,47929,1,0
344,176,48100,1,2
456,192,48443,1,0
456,248,48614,1,2
344,264,48957,5,0
344,320,49129,2,2,B|312:368|288:376|256:376|224:376,1,140
184,336,49643,1,0
152,288,49814,1,0
96,288,49986,1,0
64,336,50157,1,0
64,336,50329,1,0
24,384,50500,1,0
24,384,50671,1,0
24,264,51014,6,0,B|24:192,1,70
24,80,51529,1,0
80,80,51700,1,0
24,80,51871,1,0
80,80,52043,1,0
256,80,52557,5,4
136,80,52900,1,4
144,192,53243,6,0,B|92:203|96:264,1,70
96,296,53586,2,0,B|107:348|168:344,1,70
200,344,53929,2,0,B|252:333|248:272,1,70
248,240,54271,2,0,B|237:188|176:192,1,70
176,144,54614,5,2
128,120,54786,1,0
104,64,54957,1,2
128,16,55129,1,0
184,0,55300,1,2
232,24,55471,1,0
248,80,55643,1,2
224,128,55814,1,0
216,184,55986,6,0,B|296:184,1,70
288,240,56329,2,0,B|368:240,2,70
288,296,56843,2,0,B|208:296,1,70
216,240,57186,1,0
160,240,57357,2,0,B|120:240,7,35
64,240,58043,2,0,B|24:240,7,35
32,184,58729,5,0
32,128,58900,1,0
88,128,59071,1,0
144,128,59243,1,0
144,184,59414,1,2
200,184,59586,1,2
200,184,59671,1,2
200,184,59757,1,2
256,184,59929,1,0
312,184,60100,5,0
368,184,60271,1,0
368,128,60443,1,0
368,72,60614,1,0
312,72,60786,1,2
256,72,60957,1,2
256,72,61043,1,2
256,72,61129,1,2
200,72,61300,1,0
144,72,61471,6,0,B|64:72,1,70
16,72,61814,1,0
16,128,61986,1,0
16,184,62157,2,0,B|72:240,1,70
120,232,62500,2,0,B|176:288,1,70
224,280,62843,6,0,B|264:280,3,35
224,280,63186,6,0,B|224:320,3,35
224,280,63529,6,0,B|184:280,3,35
224,280,63871,6,0,B|224:240,3,35
224,280,64214,5,4
472,352,69357,6,0,B|320:352,1,140
216,352,70043,1,0
104,352,70386,1,0
40,256,70729,2,2,B|192:256,1,140
184,200,71243,1,0
144,160,71414,1,2
104,200,71586,1,0
64,160,71757,1,2
24,200,71929,1,0
8,144,72100,2,0,B|8:96|40:64|80:40|96:32,1,140
200,40,72786,1,0
416,40,73129,5,4
424,256,73471,1,4
232,152,73814,1,4
40,40,74157,1,4
40,256,74500,1,4
144,256,74843,6,0,B|224:256,1,70
264,256,75186,1,0
264,200,75357,2,0,B|264:128,1,70
264,72,75700,1,0
320,72,75871,2,0,B|392:72,1,70
440,72,76214,1,0
440,128,76386,2,0,B|440:216,1,70
440,248,76729,1,0
384,248,76900,1,2
352,200,77071,1,2
352,200,77157,1,2
352,200,77243,1,2
248,200,77586,5,0
192,200,77757,1,0
192,144,77929,1,0
136,144,78100,1,0
80,144,78271,1,2
80,144,78357,1,0
80,144,78443,1,2
80,144,78529,1,0
80,144,78614,1,2
256,192,78957,12,4,79986
368,344,80329,2,0,B|425:301|504:320,1,140
496,264,80843,1,0
464,216,81014,2,0,B|424:216|384:224|352:240|328:264,1,140
296,296,81529,1,0
256,256,81700,2,0,B|280:224|312:208,1,70
360,192,82043,2,0,B|408:176|440:176,1,70
424,120,82386,1,0
368,128,82557,1,0
320,144,82729,1,0
272,176,82900,2,2,B|264:248,1,70
272,352,83414,5,0
216,352,83586,1,0
160,352,83757,1,2
104,352,83929,1,2
104,352,84014,1,2
104,352,84100,1,2
48,256,84443,5,0
104,256,84614,1,0
160,256,84786,2,0,B|160:176,1,70
160,128,85129,1,0
216,128,85300,1,0
272,128,85471,2,0,B|272:200,1,70
272,248,85814,2,0,L|320:304|368:240,1,140
360,192,86329,1,0
360,136,86500,2,0,L|408:80|464:152,1,140
501,132,87014,1,0
504,216,87186,1,2
504,40,87529,1,2
384,40,87872,5,0
328,40,88043,1,0
328,40,88129,1,0
328,40,88214,1,0
272,40,88386,1,0
216,40,88557,5,2
160,40,88729,1,0
112,72,88900,1,0
64,104,89072,1,2
16,136,89243,1,0
64,160,89414,1,0
112,184,89586,1,2
160,208,89757,1,0
112,240,89929,1,0
64,272,90100,1,2
16,304,90272,1,0
64,336,90443,1,0
112,360,90614,1,2
168,360,90786,1,0
224,360,90957,1,2
280,360,91129,1,0
336,360,91300,1,2
392,360,91472,1,0
448,360,91643,1,2
504,360,91814,1,0
504,304,91986,5,4
504,248,92157,1,0
256,192,92500,12,4,94043
72,192,94386,1,0
184,192,94729,2,0,L|254:192,1,70
256,248,95072,1,0
254,192,95243,1,0
256,136,95414,2,0,L|326:136,1,70
328,192,95757,1,0
328,136,95929,1,0
384,136,96100,2,0,L|384:232,1,70
440,208,96443,1,0
384,206,96614,2,0,L|384:296,1,70
384,328,96957,1,0
328,328,97129,1,0
272,328,97300,2,2,L|216:272,1,70
224,224,97643,1,0
224,224,97729,1,0
224,224,97814,6,0,L|264:160,1,70
256,104,98157,2,0,L|184:40,1,70
144,56,98500,1,4
104,96,98672,1,0
104,96,98757,1,0
104,96,98843,6,0,L|56:160,1,70
64,208,99186,1,0
64,264,99357,1,0
64,208,99529,2,0,L|136:208,1,70
203,208,99872,2,0,L|131:208,1,70
136,152,100214,2,0,L|192:96,1,70
184,103,100472,1,2
185,103,100557,1,2
240,104,100729,1,0
296,104,100900,2,0,L|368:104,3,70
424,104,101586,1,2
424,104,101672,1,0
424,104,101757,1,2
424,104,101843,1,0
424,104,101929,1,2
352,192,102272,5,0
296,192,102443,1,0
240,192,102614,1,0
184,192,102786,1,0
184,248,102957,2,2,B|104:248,1,70
184,248,103300,1,0
184,248,103472,2,2,B|184:328,1,70
184,248,103814,1,0
184,248,103986,2,2,B|256:248,1,70
184,248,104329,1,0
184,248,104500,2,2,B|184:168,1,70
184,248,104843,1,0
184,304,105014,2,0,B|256:304,1,70
312,312,105357,2,0,B|392:312,1,70
432,320,105700,1,0
432,376,105872,2,0,B|528:376,2,70
432,320,106386,1,0
432,376,106557,1,4
432,264,106900,5,0
432,208,107072,1,0
512,128,107414,1,0
464,104,107586,1,0
408,104,107757,1,0
360,128,107929,1,0
296,216,108272,1,0
320,264,108443,1,0
344,312,108614,1,4
344,312,108700,1,4
344,312,108786,1,4
232,320,109129,6,0,B|202:362|173:366|129:352|112:304,1,140
64,216,109814,1,0
40,160,109986,1,2
40,160,110072,1,2
40,160,110157,1,2
40,104,110329,1,0
40,48,110500,2,0,B|70:6|99:2|143:16|160:64,1,140
160,160,111186,1,0
160,104,111357,1,2
160,104,111443,1,2
160,104,111529,1,2
208,72,111700,1,0
264,72,111872,6,0,B|264:32,2,35
264,72,112129,2,0,B|296:40,2,35
264,72,112386,2,0,B|304:72,2,35
264,72,112643,2,0,B|312:120,2,35
264,72,112900,2,0,B|264:120,2,35
264,72,113157,6,0,B|232:104,2,35
264,72,113414,2,0,B|216:72,2,35
264,72,113672,2,0,B|232:40,2,35
264,72,113929,2,0,B|264:24,2,35
264,72,114186,2,0,B|304:48,1,35
400,72,114614,6,0,B|456:208,1,140
440,256,115129,1,0
392,224,115300,2,0,B|328:80,1,140
280,72,115814,1,0
272,128,115986,2,0,B|336:272,1,140
296,304,116500,1,0
240,304,116672,1,0
184,304,116843,1,2
168,280,116929,1,2
152,304,117014,1,2
40,304,117357,6,0,B|40:16,1,280
152,24,118386,1,0
264,24,118729,2,0,B|216:72,1,35
216,72,118900,2,0,B|248:104,1,35
256,112,119072,2,0,B|216:152,1,35
232,160,119243,2,0,B|264:192,1,35
272,200,119414,2,0,B|232:240,1,35
224,240,119586,2,0,B|272:288,1,35
264,280,119757,2,0,B|232:320,1,35
224,328,119929,2,0,B|272:376,1,35
40,344,125243,5,4
152,344,125586,1,0
200,312,125757,1,0
248,280,125929,1,4
152,232,126272,1,0
200,200,126443,1,0
248,168,126614,1,4
152,112,126957,1,0
200,80,127129,1,0
248,48,127300,1,4
352,48,127643,1,0
408,48,127814,1,0
456,72,127986,6,2,B|465:116|424:144,1,70
384,136,128329,2,0,B|355:156|364:200,1,70
416,200,128672,2,2,B|446:220|437:264,1,70
408,312,129014,2,0,B|366:321|346:291,1,70
336,240,129357,2,2,B|317:211|273:220,1,70
224,232,129700,2,0,B|195:252|203:294,1,70
200,344,130043,1,2
144,344,130214,1,2
144,344,130300,1,2
144,344,130386,1,2
32,344,130729,5,0
32,288,130900,1,2
32,288,130986,1,2
32,288,131072,1,2
32,232,131243,1,0
32,176,131414,1,0
32,120,131586,1,2
32,120,131672,1,2
32,120,131757,1,2
32,64,131929,1,0
32,8,132100,1,0
88,8,132272,1,2
88,8,132357,1,2
88,8,132443,1,2
144,8,132614,1,0
200,8,132786,1,2
200,8,132872,1,0
200,8,132957,1,2
200,8,133043,1,0
200,8,133129,1,6
224,120,133472,5,0
224,176,133643,1,0
224,232,133814,1,0
224,288,133986,1,0
280,288,134157,1,0
280,232,134329,1,0
280,176,134500,1,0
280,120,134672,1,0
256,192,134843,12,2,136214
256,192,136386,1,0
256,192,136557,1,0
312,192,136729,1,2
368,192,136900,1,0
368,192,137072,1,0
424,192,137243,1,2
480,192,137414,1,0
480,192,137586,1,4
256,192,137929,12,2,138957
256,192,139129,1,0
256,192,139300,1,0
200,192,139472,1,2
144,192,139643,1,0
144,192,139814,1,0
88,192,139986,1,2
32,192,140157,1,0
32,192,140329,1,4
256,192,141014,12,0,141700
48,296,152672,1,0
48,240,152843,1,0
48,184,153014,1,4
144,128,153357,1,0
144,184,153529,1,0
144,240,153700,1,4
240,184,154043,5,0
240,128,154214,1,0
240,72,154386,1,0
240,16,154557,1,0
296,16,154729,1,0
352,16,154900,1,0
352,72,155072,1,0
352,128,155243,1,0
352,184,155414,1,4
296,280,155757,5,0
296,224,155929,1,0
296,168,156100,1,0
296,112,156272,1,0
296,56,156443,1,4
200,112,156786,6,0,B|200:32,1,70
144,40,157129,2,0,B|144:120,1,70
88,112,157472,2,0,B|88:32|88:40,1,70
32,40,157814,2,0,B|32:120,1,70
32,168,158157,2,0,B|32:248,1,70
88,240,158500,2,0,B|88:160,1,70
144,168,158843,2,0,B|144:256,1,70
200,240,159186,1,4
256,240,159357,1,4
312,240,159529,2,2,B|480:240,1,140
456,128,160214,5,0
400,128,160386,1,0
344,128,160557,2,0,B|344:56,1,70
288,56,160900,2,0,B|288:128,2,70
232,56,161414,2,0,B|152:56,1,70
160,112,161757,1,0
104,112,161929,2,0,B|24:112,2,70
104,168,162443,2,0,B|104:240,1,70
160,240,162786,1,0
216,240,162957,2,0,B|216:328,1,70
272,312,163300,1,0
272,368,163472,1,0
256,192,163643,12,0,166043
256,32,166386,1,2
104,88,166729,1,0
64,160,166900,5,2
88,320,167243,1,0
168,344,167414,1,2
328,344,167757,5,0
400,312,167929,1,2
376,152,168272,1,0
328,88,168443,1,2
248,88,168614,5,0
184,144,168786,1,2
192,232,168957,1,0
264,272,169129,5,2
320,216,169300,1,2
424,248,169643,5,0
480,248,169814,1,0
480,136,170157,5,0
424,136,170329,1,0
424,80,170500,5,0
480,80,170672,1,0
256,192,170843,12,4,171529
