osu file format v5

[General]
AudioFilename: Nobuo Uematsu- Battle with the Four Fiends (Hyadain Mix).mp3
AudioLeadIn: 0
PreviewTime: 22776
Countdown: 0
SampleSet: Normal
StackLeniency: 0.7
Mode: 0
LetterboxInBreaks: 1
EditorBookmarks: 13434,24401,38458,53201,64176,69319,80287,94344,109087,120048,125201,141662,152634

[Metadata]
Title:Battle with the Four Fiends
Artist:Hyadain
Creator:mtmcl
Version:Hard
Source:
Tags:

[Difficulty]
HPDrainRate:5
CircleSize:6
OverallDifficulty:8
SliderMultiplier:1.4
SliderTickRate:2

[Events]
//Background and Video events
1,-150,"Four Fiends.avi"
//Break Periods
2,22897,23661
2,36440,38061
2,50839,52461
2,64382,79547
2,92325,93947
2,106725,108347
2,120097,124461
2,151125,151890
//Storyboard Layer 0 (Background)
4,0,1,"awp.png",320,264 S,0,23040,24068,10,0
4,0,1,"awp.png",320,70 F,0,24411,36240,1,1
4,0,1,"max.png",320,264 S,0,36582,37782,10,0
4,0,1,"max.png",320,70 F,0,38811,50640,1,1
4,0,1,"hito.png",320,264 S,0,78925,79954,10,0
4,0,1,"hito.png",320,70 F,0,80297,92125,1,1
4,0,1,"sinistro.png",320,264 S,0,92468,93668,10,0
4,0,1,"sinistro.png",320,70 F,0,94697,106525,1,1
4,0,1,"mifune.png",320,264 S,0,151268,152297,10,0
4,0,1,"mifune.png",320,70 F,0,152640,163440,1,1
4,0,1,"mifune.png",320,70 F,0,166354,171497,1,1
//Storyboard Layer 1 (Failing)
//Storyboard Layer 2 (Passing)
//Storyboard Layer 3 (Foreground)
//Storyboard Sound Samples
//Background Colour Transformations
3,100,163,162,255

[TimingPoints]
13472,342.857142857143,4,1,0,100

[Colours]
Combo1 : 232,0,0
Combo2 : 85,43,43
Combo3 : 3,3,148
Combo4 : 243,255,102

[HitObjects]
256,48,13472,2,0,C|256:200,1,140
480,192,14157,2,0,C|480:48,1,140
480,288,14843,2,0,C|320:288,1,140
340,288,15357,1,0
340,288,15529,2,0,C|192:288,1,140
192,64,16214,6,0,C|352:64,1,140
128,64,16900,2,0,C|128:224,1,140
352,192,17586,2,0,C|352:96,1,70
288,128,17929,2,0,C|288:224,1,70
224,192,18272,2,0,C|224:96,1,70
160,128,18614,2,0,C|160:224,1,70
160,256,18957,6,0,C|320:256,1,140
512,256,19643,2,0,C|512:96,1,140
288,128,20329,2,0,C|192:128,1,70
218,128,20672,1,0
218,128,20843,2,0,C|224:224,1,70
222,197,21186,1,0
222,197,21357,1,0
448,192,21700,5,0
224,192,22043,1,0
448,192,22386,1,0
224,192,22729,1,0
88,88,24443,5,0
152,88,24614,1,0
152,88,24700,1,0
152,88,24786,1,0
280,88,25129,1,0
216,88,25300,1,0
216,88,25386,1,0
216,88,25472,1,0
144,192,25814,6,0,B|144:264,1,70
74,262,26157,2,0,B|144:262,1,70
144,332,26500,2,0,B|144:262,1,70
214,262,26843,2,0,L|144:262,2,70
328,264,27529,5,0
408,264,27700,1,0
368,200,27872,1,0
368,128,28043,1,0
368,56,28214,1,0
224,56,28557,6,0,L|152:56|184:120,1,140
240,240,29243,2,0,L|279:300|208:328,1,140
104,240,29929,1,0
104,168,30100,1,0
104,168,30186,1,0
104,168,30272,1,0
104,96,30443,1,0
104,96,30529,1,0
104,96,30614,1,0
176,96,30786,2,0,L|176:144,4,35
248,96,31300,6,0,L|400:96,2,140
296,152,32157,1,0
248,208,32329,1,0
296,256,32500,1,0
256,312,32672,6,0,L|416:312,1,140
396,312,33186,1,0
256,192,33357,12,0,36272
96,240,38843,1,0
96,184,39014,1,0
96,128,39186,1,4
200,64,39529,1,0
256,64,39700,1,0
312,64,39871,1,0
376,160,40214,1,4
376,216,40386,1,4
376,272,40557,1,4
376,216,40729,1,4
320,216,40900,6,0,B|240:216,1,70
192,216,41243,2,4,B|192:64,1,140
312,80,41929,2,4,B|464:80,1,140
452,80,42443,1,4
454,138,42614,5,2
384,232,42957,1,4
320,232,43129,1,0
264,232,43300,1,0
264,120,43643,1,4
264,176,43814,1,0
264,232,43986,1,0
144,232,44329,5,0
112,280,44500,1,0
72,320,44671,2,4,B|72:168,1,140
72,120,45186,1,0
256,192,45357,12,0,45700
144,24,46043,1,6
144,144,46386,1,0
144,144,46557,1,0
144,144,46729,1,0
185,102,46900,1,4
232,64,47071,6,0,B|232:208,1,140
288,184,47586,2,0,B|288:344,1,140
336,360,48100,1,0
384,328,48271,2,0,B|384:240,2,70
440,328,48786,2,0,B|440:248,1,70
384,232,49129,6,0,B|384:152,1,70
328,160,49471,2,0,B|176:160,1,140
186,100,49986,1,2
256,192,50157,12,0,50671
256,192,53243,6,0,C|256:96,1,70
256,122,53586,1,0
256,122,53757,1,0
256,122,53929,2,0,C|352:128,1,70
325,126,54271,1,0
325,126,54443,1,0
325,126,54614,1,0
320,352,54957,1,0
96,352,55300,1,0
96,128,55643,1,0
256,192,55814,12,0,57357
256,192,57700,5,0
256,96,58043,1,0
256,96,58214,1,0
256,96,58386,1,0
256,96,58557,1,0
256,96,58729,6,0,C|160:96,1,70
186,96,58986,1,0
186,96,59071,1,0
192,32,59414,2,0,C|288:32,1,70
262,32,59671,1,0
262,32,59757,1,0
256,96,60100,2,0,C|352:96,1,70
326,96,60357,1,0
326,96,60443,1,0
320,160,60786,2,0,C|224:160,3,70
160,160,61471,5,0
32,320,62157,5,0
256,320,62500,1,0
480,320,62843,1,0
256,192,63186,12,0,64214
136,264,80329,5,0
136,264,80414,1,0
136,264,80500,1,0
176,208,80671,1,0
216,152,80843,1,0
288,152,81014,5,0
288,152,81100,1,0
288,152,81186,1,0
328,208,81357,1,0
368,264,81529,1,0
328,320,81700,5,0
328,320,81786,1,0
328,320,81871,1,0
272,280,82043,1,0
216,320,82214,1,0
160,280,82386,1,0
104,320,82557,1,0
104,320,82643,1,0
104,320,82729,1,0
48,280,82900,1,0
48,208,83071,2,0,B|48:120,1,70
104,96,83414,5,0
104,96,83500,1,0
104,96,83586,1,0
176,96,83757,2,0,B|248:96,1,70
312,96,84100,2,0,B|384:96,1,70
424,152,84443,5,0
424,152,84529,1,0
424,152,84614,1,0
424,224,84786,1,0
424,296,84957,1,0
360,336,85129,5,0
360,336,85214,1,0
360,336,85300,1,0
296,296,85471,1,0
296,224,85643,1,0
256,192,85729,12,0,86157
256,192,86243,12,0,86500
256,192,86586,12,0,86843
256,144,87014,1,0
256,144,87186,2,0,B|368:248,1,140
256,336,87872,1,0
184,336,88043,1,0
128,288,88214,1,0
72,240,88386,1,0
72,168,88557,2,0,B|192:72,1,140
112,80,89072,6,0,B|200:192,1,140
128,192,89586,6,0,B|288:192,1,140
224,136,90100,6,0,B|312:248,1,140
312,312,90614,1,0
392,232,90786,1,0
312,152,90957,1,0
232,232,91129,1,0
152,312,91300,5,0
72,232,91472,1,0
152,152,91643,1,0
232,232,91814,1,0
232,344,91986,6,0,B|232:272,1,70
464,336,94729,6,0,B|376:336,1,70
320,336,95072,1,2
320,336,95243,1,0
320,264,95414,2,0,B|408:264,1,70
456,264,95757,1,2
456,264,95929,1,0
456,192,96100,2,0,B|384:192,2,70
386,192,96614,1,2
312,192,96786,2,0,B|256:136,1,70
208,96,97129,1,0
272,72,97300,1,2
208,32,97472,1,4
72,64,97814,5,0
144,64,97986,1,0
108,124,98157,1,0
109,194,98329,1,0
109,194,98414,1,0
109,194,98500,1,2
248,192,98843,5,0
320,192,99014,1,0
392,192,99186,1,4
320,192,99357,1,0
320,120,99529,1,0
320,192,99700,1,4
320,264,99872,1,0
320,192,100043,1,0
248,192,100214,6,0,B|192:248,1,70
152,192,100557,2,0,B|208:248,1,70
248,288,100900,2,0,B|198:237,1,70
152,288,101243,2,0,B|208:232,1,70
201,238,101586,1,2
201,238,101757,1,2
201,238,101929,1,2
200,96,102272,5,0
272,96,102443,1,0
344,96,102614,1,0
416,96,102786,1,0
256,192,102957,12,4,103472
256,32,103814,5,0
256,104,103986,1,4
256,240,104329,1,0
256,312,104500,1,4
256,192,105014,12,4,105357
256,312,105700,1,0
256,240,105872,1,0
256,168,106043,1,2
256,192,106214,12,4,106557
32,192,109129,5,0
96,192,109300,1,0
96,192,109386,1,0
96,192,109472,1,0
160,192,109643,1,0
224,192,109814,1,0
288,192,109986,1,0
288,192,110072,1,0
288,192,110157,1,0
352,192,110329,1,0
416,192,110500,1,0
480,192,110672,1,0
480,192,110757,1,0
480,192,110843,1,0
480,256,111014,1,0
416,256,111186,1,0
416,256,111272,1,0
416,256,111357,1,0
416,256,111443,1,0
416,256,111529,1,0
352,256,111700,5,0
288,256,111872,2,0,B|288:176|288:176|288:192,1,70
224,176,112214,2,0,B|224:256,1,70
160,256,112557,1,0
160,176,112900,1,0
160,96,113243,1,0
160,96,113329,1,0
160,96,113414,1,0
96,96,113586,1,0
96,160,113757,1,0
96,224,113929,1,0
96,224,114014,1,0
96,224,114100,1,0
96,288,114272,1,0
96,352,114443,1,0
160,352,114614,5,0
224,352,114786,1,0
288,352,114957,1,0
352,352,115129,1,0
352,288,115300,1,0
288,288,115472,1,0
224,288,115643,1,0
160,288,115814,1,0
160,224,115986,5,0
224,224,116157,1,0
288,224,116329,1,0
352,224,116500,1,0
352,160,116672,1,0
352,160,116757,1,0
352,160,116843,1,0
288,160,117014,1,0
224,160,117186,1,0
160,160,117357,5,0
112,208,117529,1,0
64,256,117700,1,0
16,304,117872,1,0
16,240,118043,1,0
64,192,118214,1,0
112,144,118386,1,0
160,96,118557,1,0
224,96,118729,5,0
224,304,119072,1,0
432,304,119414,1,0
432,96,119757,1,0
432,96,119929,1,0
256,192,125243,5,0
320,192,125414,1,0
320,192,125500,1,0
320,192,125586,1,0
320,128,125757,1,0
320,64,125929,1,0
256,64,126100,1,0
256,64,126186,1,0
256,64,126272,1,0
256,128,126443,5,0
192,128,126614,1,0
128,128,126786,1,0
128,128,126872,1,0
128,128,126957,1,0
128,192,127129,1,0
192,192,127300,1,0
256,192,127472,1,0
256,192,127557,1,0
256,192,127643,1,0
320,192,127814,5,0
320,256,127986,1,0
256,256,128157,1,0
256,256,128243,1,0
256,256,128329,1,0
192,256,128500,1,0
128,256,128672,1,0
128,192,128843,1,0
128,192,128929,1,0
128,192,129014,1,0
192,192,129186,5,0
192,128,129357,1,0
256,128,129529,1,0
256,128,129614,1,0
256,128,129700,1,0
256,192,129872,1,0
320,192,130043,1,0
320,192,130129,1,0
320,192,130214,1,0
320,192,130300,1,0
320,192,130386,1,0
320,128,130557,5,0
320,64,130729,1,0
256,64,130900,1,0
256,64,130986,1,0
256,64,131072,1,0
256,128,131243,1,0
256,192,131414,1,0
192,192,131586,1,0
192,192,131672,1,0
192,192,131757,1,0
192,128,131929,5,0
192,64,132100,1,0
128,64,132272,1,0
128,64,132357,1,0
128,64,132443,1,0
128,128,132614,1,0
128,192,132786,1,0
128,256,132957,2,0,B|176:256,6,35
64,256,133643,1,0
64,256,133729,1,0
64,256,133814,1,0
64,192,133986,5,0
64,128,134157,1,0
64,64,134329,1,0
64,64,134414,1,0
64,64,134500,1,0
128,64,134672,1,0
192,64,134843,1,0
256,64,135014,1,0
320,64,135186,1,0
384,64,135357,1,0
448,64,135529,1,0
448,128,135700,1,0
384,128,135872,1,0
320,128,136043,1,0
256,128,136214,5,0
192,128,136386,2,0,B|192:208,1,70
256,192,136729,1,0
256,256,136900,2,0,B|176:256,1,70
128,256,137243,1,0
128,192,137414,2,0,B|128:112,1,70
128,32,137929,5,0
192,32,138100,1,0
192,32,138186,1,0
192,32,138272,1,0
256,32,138443,1,0
320,32,138614,1,0
384,32,138786,1,0
384,96,138957,6,0,B|304:96,1,70
256,96,139300,2,0,B|256:176,1,70
256,224,139643,1,0
320,224,139814,2,0,B|320:128,1,70
384,160,140157,1,0
384,224,140329,1,0
256,192,141700,12,0,142729
256,192,142900,6,0,B|176:192|96:80|477:32|544:240,1,490
256,192,144272,12,0,145472
256,192,145643,6,0,B|336:192|416:80|35:32|-32:240,1,490
256,192,147186,12,0,148214
256,192,148386,6,0,B|336:192|416:304|35:352|-32:144,1,490
256,192,149757,12,0,150957
288,224,152672,5,0
317,176,152843,1,0
312,120,153014,2,0,B|300:81|259:65,1,70
213,83,153357,1,0
188,133,153529,1,0
185,188,153700,2,0,B|189:230|258:245,1,70
271,274,154043,5,0
315,308,154214,1,0
296,361,154386,1,0
250,328,154557,1,0
199,302,154729,2,0,B|158:265|111:314,1,70
165,341,155072,2,0,B|116:362|75:320,1,70
46,359,155414,2,2,B|-1:281|67:198,1,140
74,176,155929,5,0
109,133,156100,1,0
163,120,156272,1,0
211,147,156443,2,2,B|263:194|219:279,1,140
199,327,156957,1,0
220,275,157129,2,0,B|292:314|370:286,1,140
386,337,157643,1,0
355,290,157814,2,0,B|309:203|351:130,1,140
368,107,158329,1,0
339,155,158500,1,0
314,104,158672,1,0
344,57,158843,1,0
368,107,159014,1,0
314,104,159186,1,0
344,57,159357,1,0
287,55,159529,1,4
174,54,159872,1,4
77,109,160214,5,0
37,148,160386,1,0
91,161,160557,1,0
106,215,160729,1,0
51,200,160900,1,0
129,279,161243,2,2,B|177:327|214:291,1,70
196,360,161586,1,0
190,305,161757,2,2,B|225:244|269:250,1,70
266,206,162100,1,0
237,254,162272,2,2,B|285:252|317:308,1,70
320,333,162614,1,0
351,286,162786,2,2,B|391:238|440:271,1,70
439,307,163129,1,0
411,258,163300,1,0
438,209,163472,1,0
408,160,163643,5,0
320,160,163986,1,0
320,96,164157,1,0
240,96,164500,1,0
240,160,164672,1,0
160,160,165014,1,0
160,96,165186,1,0
208,48,165529,2,0,B|288:48,2,70
278,48,166043,1,0
336,32,166214,1,0
384,72,166386,5,0
294,138,166729,2,0,B|266:172|229:180,1,70
259,229,167072,1,0
237,177,167243,2,0,B|197:123|165:123,1,70
186,128,167586,1,0
172,182,167757,2,0,B|132:229|83:221,1,70
130,274,168100,1,0
114,220,168272,2,0,B|61:256|75:297,1,70
78,329,168614,1,0
132,343,168786,2,0,B|188:369|222:329,1,70
244,313,169129,1,0
199,347,169300,1,0
256,64,169643,5,2
256,119,169814,1,2
272,225,170157,1,2
234,192,170329,1,2
274,192,170500,1,2
235,224,170672,1,2
258,355,171529,1,4
