osu file format v7

[General]
AudioFilename: Hwayobi - Bye Bye Bye.mp3
AudioLeadIn: 0
PreviewTime: 47519
Countdown: 1
SampleSet: Normal
StackLeniency: 0.7
Mode: 0
LetterboxInBreaks: 1

[Editor]
DistanceSpacing: 2
BeatDivisor: 4
GridSize: 8

[Metadata]
Title:Bye Bye Bye
Artist:Hwayobi
Creator:Sunny Holic
Version:Insane
Source:
Tags:_llkey_18

[Difficulty]
HPDrainRate:7
CircleSize:4
OverallDifficulty:7
SliderMultiplier:2
SliderTickRate:1

[Events]
//Background and Video events
0,0,"hwayobi.jpg"
//Break Periods
2,70402,74790
//Storyboard Layer 0 (Background)
//Storyboard Layer 1 (Fail)
//Storyboard Layer 2 (Pass)
//Storyboard Layer 3 (Foreground)
//Storyboard Sound Samples
//Background Colour Transformations
3,100,255,255,255

[TimingPoints]
12398,731.707317073171,4,1,0,50,1,0
147032,-100,4,1,0,50,0,1
152885,-100,4,1,0,50,0,0
153617,-100,4,1,0,50,0,1
155446,-100,4,1,0,50,0,0

[Colours]
Combo1 : 255,255,255
Combo2 : 161,126,71

[HitObjects]
144,88,12398,2,0,B|85:89|76:161,1,100
175,174,13129,1,8
120,256,13495,2,0,B|192:312|272:248,1,150
258,257,14227,1,0
329,187,14593,1,8
488,72,15324,6,0,B|416:72,1,50
387,72,15690,1,0
387,72,15873,1,0
336,72,16056,2,0,B|272:81|272:150,1,100,8|0
321,225,16788,2,0,B|290:298|180:302,1,150
200,300,17519,1,8
398,74,18251,5,0
322,74,18434,1,0
359,139,18617,1,0
283,139,18800,1,0
322,202,18983,2,0,B|297:259|203:263,1,100,8|0
168,258,19532,2,0,B|102:259|82:182,1,100
90,131,20080,1,0
138,74,20263,2,0,B|210:23|294:83,1,150
427,207,21178,5,0
242,283,21544,1,0
67,209,21910,1,8
180,44,22276,1,0
379,44,22641,1,8
237,185,23007,1,0
378,326,23373,1,8
487,158,24105,5,0
487,158,24288,1,0
447,127,24471,1,0
447,127,24654,1,0
406,97,24837,2,0,B|322:18|215:81,1,200,8|0
222,76,25751,1,0
314,195,26300,1,8
451,267,27032,5,0
400,267,27215,1,0
425,309,27398,1,0
375,309,27580,1,0
375,309,27763,2,0,B|302:361|163:345,1,200,8|0
182,346,28678,1,0
76,240,29227,1,8
167,62,29958,5,0
213,43,30141,1,0
263,43,30324,1,0
313,43,30507,1,0
359,62,30690,2,0,B|482:119|420:261,1,200,8|0
432,225,31605,1,0
397,261,31788,1,0
326,190,32154,2,0,B|278:163|226:191,1,100,8|0
73,64,32885,6,0,B|37:28,1,50
144,135,33251,2,0,B|179:170,1,50,0|0
143,63,33617,2,0,B|179:28,1,50,8|0
72,135,33983,2,0,B|37:170,1,50
179,312,34349,1,0
479,312,34715,1,0
323,56,35080,1,8
124,55,35812,5,0
324,55,35995,1,0
221,226,36178,1,0
221,226,36361,1,0
441,22,36727,2,0,B|521:22,1,50
101,143,38373,6,0,C|136:107,1,50
190,55,38739,1,0
390,55,38922,1,0
293,226,39105,1,0
293,226,39288,1,0
78,359,39654,2,0,B|-2:359,1,50
187,100,41666,6,0,B|254:41|335:107,1,150
323,98,42397,1,8
323,297,43129,2,0,B|256:356|175:290,1,150
187,299,43861,1,8
45,157,44593,5,0
63,127,44776,1,0
91,107,44958,1,0
126,107,45141,1,0
158,95,45324,1,0
189,79,45507,1,0
223,71,45690,1,0
258,70,45873,2,0,B|421:26|313:190|489:164,1,250
115,275,47519,6,0,B|43:347,1,100,4|0
397,109,48251,2,0,B|469:37,1,100,8|0
115,109,48983,1,0
397,275,49349,1,0
115,275,49715,1,8
397,109,50080,1,0
115,109,50446,6,0,B|43:37,1,100
397,275,51178,2,0,B|469:347,1,100,8|0
397,109,51910,1,0
115,275,52276,1,0
397,275,52642,1,8
115,109,53007,1,0
365,45,53373,6,0,B|300:6|301:106|201:37,1,150
123,51,54105,2,0,B|49:69|120:139|1:161,1,150,8|0
27,254,54837,2,0,B|45:328|115:257|137:376,1,150
230,350,55568,2,0,B|303:389|395:346,1,150,8|0
375,354,56300,1,0
256,192,56483,12,0,58129
256,144,58495,6,0,B|256:244,1,100,8|0
392,192,59227,6,0,B|512:192,1,100
120,192,59958,2,0,B|0:192,1,100,8|0
256,40,60690,1,0
176,144,61056,1,0
336,240,61422,1,8
256,344,61788,1,0
104,192,62154,6,0,B|32:120,1,100
408,192,62885,2,0,B|480:120,1,100,8|0
256,56,63617,1,0
256,240,63983,1,0
256,144,64349,1,8
256,336,64715,1,0
397,343,65080,6,0,B|332:382|333:282|233:351,1,150
155,337,65812,2,0,B|81:319|152:249|33:227,1,150,8|0
59,134,66544,2,0,B|77:60|147:131|169:12,1,150
262,38,67276,2,0,B|352:17|395:108,1,150,8|0
388,94,68007,1,0
256,192,68190,12,0,70202
131,103,75690,5,0
231,103,76056,1,8
281,103,76239,1,0
381,103,76605,1,0
405,146,76788,2,0,B|407:276|262:258,1,200,0|8
267,160,77885,1,0
160,53,78434,2,0,B|59:60|51:191,1,150,0|8
149,323,79715,6,0,B|194:368|282:307,1,100
307,254,80446,2,0,B|360:208|434:281,1,100,8|0
494,220,81178,5,0
486,185,81361,1,0
471,153,81544,1,0
442,132,81727,1,0
355,81,81910,5,0
319,81,82093,1,0
294,56,82276,1,0
276,56,82367,1,0
258,56,82458,1,0
207,56,82641,6,0,B|104:55|95:178,1,150,0|0
101,191,83373,2,0,B|100:280|226:277,1,150,8|0
202,276,84105,1,0
295,241,84471,1,0
295,241,84654,2,0,B|363:160|458:217,1,150
505,17,85568,5,0
434,87,85751,1,0
363,16,85934,1,0
292,86,86117,1,0
191,86,86300,2,0,B|118:89|99:151,1,100,8|0
107,281,87215,1,0
256,281,87763,1,8
343,101,88495,6,0,B|392:143|333:195,1,100
343,101,89227,2,0,B|300:150|248:91,1,100,8|0
343,101,89958,2,0,B|293:58|352:7,1,100
343,101,90690,2,0,B|384:51|437:110,1,100,8|0
96,288,91422,5,0
416,288,91788,1,0
144,192,92154,1,8
368,192,92519,1,0
256,72,92885,1,0
256,192,93251,1,0
256,304,93617,1,8
156,130,94349,6,0,B|135:76|13:132|174:239,1,200,0|8
225,296,95446,1,0
275,296,95629,1,0
375,296,95995,1,0
481,189,96544,1,8
356,130,97276,6,0,B|377:76|499:132|338:239,1,200,0|8
287,296,98373,1,0
236,296,98556,1,0
137,296,98922,1,0
31,189,99471,1,8
172,47,100202,6,0,B|324:47,1,150
322,47,100934,1,8
322,247,101666,2,0,B|170:247,1,150
172,247,102398,1,8
84,67,103129,5,0
63,95,103312,1,0
56,129,103495,1,0
56,164,103678,1,0
126,234,103861,5,0
150,258,104044,1,0
185,258,104227,1,0
220,258,104410,1,0
320,258,104593,5,0
370,258,104776,1,0
405,222,104958,1,0
422,204,105050,1,0
439,186,105141,1,0
439,85,105324,5,0
403,49,105507,1,0
352,49,105690,1,0
326,49,105782,1,0
301,49,105873,1,0
250,49,106056,6,0,B|110:49,1,100,4|0
262,335,106788,2,0,B|402:335,1,100,8|0
456,192,107519,1,0
256,32,107885,1,0
56,192,108251,1,8
256,352,108617,1,0
376,96,108983,6,0,B|464:8,1,100
136,288,109715,2,0,B|48:376|48:376,1,100,8|0
136,96,110446,2,0,B|48:8|48:8,1,100
376,288,111178,2,0,B|464:376|464:376,1,100,8|0
195,90,111910,6,0,B|216:-16|354:23|355:122|313:152|235:154|259:258,1,350
256,294,113373,1,0
203,100,114105,2,0,B|315:100,1,100,8|0
256,192,114837,12,0,116666
256,144,117032,6,0,B|256:244,1,100,8|0
128,192,117763,6,0,B|8:192,1,100
384,192,118495,2,0,B|504:192,1,100,8|0
115,109,119227,1,0
397,109,119593,1,0
115,275,119959,1,8
397,275,120324,1,0
256,264,120690,6,0,B|256:384,1,100
256,120,121422,2,0,B|256:0,1,100,8|0
397,275,122154,1,0
115,275,122520,1,0
397,109,122886,1,8
115,109,123251,1,0
397,343,123617,6,0,B|332:382|333:282|233:351,1,150
155,337,124349,2,0,B|81:319|152:249|33:227,1,150,8|0
59,134,125081,2,0,B|77:60|147:131|169:12,1,150
262,38,125813,2,0,B|352:17|395:108,1,150,8|0
387,194,126544,2,0,B|328:318|281:170|211:264,1,200,0|8
28,307,127641,1,0
89,116,128007,6,0,B|140:78,1,50
215,35,128373,5,0
240,35,128465,1,0
257,52,128556,1,0
247,151,128739,5,0
262,170,128830,1,0
286,176,128922,1,0
310,174,129013,1,0
334,180,129105,1,0
355,192,129196,1,0
373,209,129288,1,0
381,232,129379,1,0
380,257,129471,6,0,B|363:360|218:341,1,200,4|8
124,338,130568,2,0,B|63:326|53:251,1,100
57,121,131483,1,0
127,50,131666,1,8
227,50,131849,1,0
377,50,132398,2,0,B|451:84|387:173,1,100
310,128,133129,2,0,B|278:193|369:226,1,100,8|0
435,235,133861,2,0,B|394:346|273:318,1,200,0|8
311,237,134958,5,0
311,237,135141,2,0,B|236:179|162:248,2,150
358,219,136422,2,0,B|464:162,2,100
299,27,137519,1,0
201,48,137702,1,0
144,130,137885,1,0
201,48,138068,2,0,B|150:3|90:56,1,100
73,76,138617,6,0,B|25:124,1,50
469,302,139166,2,0,B|517:254,1,50
407,61,139715,2,0,B|371:25,1,50
135,317,140263,2,0,B|170:352,1,50
239,189,140812,2,0,B|319:189,1,50
339,187,141178,5,0
494,60,141544,1,0
393,60,141727,1,0
192,60,142093,1,0
80,192,142641,2,0,B|0:272,1,100
80,333,143190,1,0
180,333,143373,1,8
180,333,143556,1,0
325,296,144105,6,0,B|237:208,1,100
183,154,144837,2,0,B|254:83,1,100,8|0
324,12,145568,2,0,B|425:113,1,100
465,153,146300,1,8
286,243,147032,6,0,B|248:306|158:306|118:243,1,200,0|8
202,189,148129,1,0
116,136,148495,2,0,B|159:74|244:71|284:136,1,200,0|8
283,134,149593,1,0
256,192,149958,12,0,152885
256,192,153617,12,0,155446
262,49,155812,6,0,B|402:49,1,100
250,335,156544,2,0,B|110:335,1,100,8|0
56,192,157275,1,0
256,32,157641,1,0
456,192,158007,1,8
256,352,158373,1,0
136,96,158739,6,0,B|48:8,1,100
376,288,159471,2,0,B|464:376|464:376,1,100,8|0
376,96,160202,2,0,B|464:8|464:8,1,100
136,288,160934,2,0,B|48:376|48:376,1,100,8|0
195,90,161666,6,0,B|216:-16|354:23|355:122|313:152|235:154|259:258,1,350
256,294,163129,1,0
203,100,163861,2,0,B|315:100,1,100,8|0
256,192,164593,12,0,166422
256,144,166788,6,0,B|256:264,1,100,8|0
384,192,167519,6,0,B|504:192,1,100
128,192,168251,2,0,B|8:192,1,100,8|0
397,109,168983,1,0
115,109,169349,1,0
397,275,169715,1,8
115,275,170080,1,0
256,264,170446,6,0,B|256:384,1,100
256,120,171178,2,0,B|256:0,1,100,8|0
115,275,171910,1,0
397,275,172276,1,0
115,109,172642,1,8
397,109,173007,1,0
115,343,173373,6,0,B|180:382|179:282|279:351,1,150
357,337,174105,2,0,B|431:319|360:249|479:227,1,150,8|0
453,134,174837,2,0,B|435:60|365:131|343:12,1,150
250,38,175569,2,0,B|160:17|117:108,1,150,8|0
125,194,176300,2,0,B|184:318|231:170|301:264,1,200,0|8
484,307,177397,1,0
423,116,177763,6,0,B|376:74,1,50
290,49,178129,5,0
265,49,178221,1,0
248,66,178312,1,0
283,160,178495,5,0
268,179,178586,1,0
244,185,178678,1,0
220,183,178769,1,0
196,189,178861,1,0
175,201,178952,1,0
161,222,179044,1,0
237,285,179227,5,4
