osu file format v7

[General]
AudioFilename: Hwayobi - Bye Bye Bye.mp3
AudioLeadIn: 0
PreviewTime: 47519
Countdown: 1
SampleSet: Normal
StackLeniency: 0.7
Mode: 0
LetterboxInBreaks: 1

[Editor]
DistanceSpacing: 1
BeatDivisor: 8
GridSize: 8

[Metadata]
Title:Bye Bye Bye
Artist:Hwayobi
Creator:Sunny Holic
Version:Hard
Source:
Tags:_llkey_18

[Difficulty]
HPDrainRate:4
CircleSize:4
OverallDifficulty:6
SliderMultiplier:2
SliderTickRate:1

[Events]
//Background and Video events
0,0,"hwayobi.jpg"
//Break Periods
2,70402,74640
//Storyboard Layer 0 (Background)
//Storyboard Layer 1 (Fail)
//Storyboard Layer 2 (Pass)
//Storyboard Layer 3 (Foreground)
//Storyboard Sound Samples
//Background Colour Transformations
3,100,255,255,255

[TimingPoints]
12398,731.707317073171,4,1,0,50,1,0
147032,-100,4,1,0,50,0,1
152885,-100,4,1,0,50,0,0
153617,-100,4,1,0,50,0,1
155446,-100,4,1,0,50,0,0

[Colours]
Combo1 : 255,255,255
Combo2 : 161,126,71

[HitObjects]
61,107,12398,2,0,B|68:45|127:44,1,100
164,136,13129,1,8
208,46,13495,2,0,B|284:84|264:170,1,150
264,170,14227,1,0
187,234,14593,1,8
314,326,15324,6,0,B|364:326,1,50
412,313,15690,1,0
412,313,15873,1,0
449,279,16056,2,0,B|487:227|439:178,1,100,8|0
387,106,16788,2,0,B|332:36|231:52,1,150
254,49,17519,1,8
34,254,18251,5,0
71,318,18434,1,0
109,254,18617,1,0
147,318,18800,1,0
188,255,18983,2,0,B|241:254|266:311,1,100,8|0
340,308,19532,2,0,B|406:309|426:232,1,100
438,183,20080,1,0
417,110,20263,2,0,B|345:59|261:86,1,150
104,188,21178,5,0
245,329,21544,1,0
386,187,21910,1,8
244,45,22276,1,0
44,45,22641,1,8
185,186,23007,1,0
43,327,23373,1,8
43,126,24105,5,0
43,126,24288,1,0
77,90,24471,1,0
77,90,24654,1,0
119,63,24837,2,0,B|216:-2|321:66,1,200,8|0
307,57,25751,1,0
437,131,26300,1,8
321,294,27032,5,0
270,294,27215,1,0
295,336,27398,1,0
245,336,27580,1,0
245,336,27763,2,0,B|120:362|58:239,1,200,8|0
72,264,28678,1,0
56,114,29227,1,8
235,26,29958,5,0
270,61,30141,1,0
305,25,30324,1,0
340,60,30507,1,0
375,24,30690,2,0,B|498:81|436:223,1,200,8|0
448,187,31605,1,0
426,232,31788,1,0
350,298,32154,2,0,B|302:325|250:297,1,100,8|0
75,208,32885,6,0,B|11:208,1,50
125,208,33251,2,0,B|181:208,1,50,0|0
99,142,33617,2,0,B|35:142,1,50,8|0
149,142,33983,2,0,B|205:142,1,50
249,55,34349,1,0
449,55,34715,1,0
449,254,35080,1,8
56,330,35812,5,0
19,264,35995,1,0
94,264,36178,1,0
56,198,36361,1,0
128,329,36727,2,0,B|208:329,1,50
471,89,38373,6,0,C|436:53,1,50
361,53,38739,1,0
398,119,38922,1,0
323,119,39105,1,0
361,185,39288,1,0
289,54,39654,2,0,B|209:54,1,50
187,100,41666,6,0,B|254:41|335:107,1,150
323,98,42397,1,8
181,239,43129,2,0,B|248:298|329:232,1,150
317,241,43861,1,8
458,99,44593,5,0
422,63,44776,1,0
386,98,44958,1,0
350,62,45141,1,0
314,97,45324,1,0
263,97,45507,1,0
227,61,45690,1,0
176,61,45873,2,0,B|13:107|190:192|26:260,1,250
237,319,47519,6,0,B|349:319,1,100,4|0
136,319,48251,2,0,B|16:319,1,100,8|0
36,118,48983,1,0
214,28,49349,1,0
393,116,49715,1,8
216,208,50080,1,0
373,331,50446,6,0,B|493:331,1,100
272,331,51178,2,0,B|152:331,1,100,8|0
313,189,51910,1,0
171,47,52276,1,0
29,188,52642,1,8
170,329,53007,1,0
370,329,53373,6,0,B|444:311|373:241|492:219,1,150,0|0
465,125,54105,2,0,B|448:56|378:128|362:36,1,150,8|0
262,36,54837,2,0,B|196:-3|197:96|97:27,1,150
50,112,55568,2,0,B|18:221|132:255,1,150,8|0
95,240,56300,1,0
256,192,56483,12,0,58129
360,275,58495,6,0,B|260:275,1,100,8|0
260,74,59227,6,0,B|380:74,1,100
159,74,59958,2,0,B|39:74,1,100,8|0
59,274,60690,1,0
242,353,61056,1,0
426,275,61422,1,8
243,193,61788,1,0
379,46,62154,6,0,B|480:46,1,100
278,46,62885,2,0,B|176:46,1,100,8|0
319,187,63617,1,0
177,328,63983,1,0
35,186,64349,1,8
176,44,64715,1,0
375,44,65080,6,0,B|448:62|377:132|496:154,1,150
470,248,65812,2,0,B|452:323|382:251|360:370,1,150,8|0
266,343,66544,2,0,B|200:382|201:282|101:351,1,150
54,266,67276,2,0,B|33:176|124:133,1,150,8|0
110,140,68007,1,0
256,192,68190,12,0,70202
94,148,75690,5,0
164,77,76056,1,8
199,112,76239,1,0
269,41,76605,1,0
319,41,76788,2,0,B|463:37|418:165,1,200,0|8
362,243,77885,1,0
233,320,78434,2,0,B|171:379|94:313,1,150,0|8
98,116,79715,6,0,B|143:71|231:132,1,100
261,179,80446,2,0,B|314:225|388:152,1,100,8|0
435,123,81178,1,0
485,123,81361,1,0
485,173,81544,1,0
434,173,81727,1,0
434,223,81910,1,0
484,223,82093,1,0
484,273,82276,2,0,L|513:292,2,25
448,308,82641,6,0,B|400:374|297:342,1,150,0|0
265,329,83373,2,0,B|172:304|148:218,1,150,8|0
154,236,84105,1,0
154,135,84471,1,0
154,135,84654,2,0,B|190:35|298:56,1,150
416,53,85568,5,0
362,106,85751,1,0
308,52,85934,1,0
254,105,86117,1,0
200,51,86300,2,0,B|127:54|108:116,1,100,8|0
60,314,87215,1,0
284,314,87763,1,8
425,172,88495,6,0,B|475:128|426:86,1,100
427,87,89227,2,0,B|384:38|332:97,1,100,8|0
340,87,89958,2,0,B|290:130|349:181,1,100
340,172,90690,2,0,B|381:222|434:163,1,100,8|0
283,29,91422,5,0
141,170,91788,1,0
282,311,92154,1,8
423,169,92519,1,0
281,27,92885,1,0
139,168,93251,1,0
0,309,93617,1,8
200,309,94349,6,0,B|245:357|358:320|389:247,1,200,0|8
431,187,95446,1,0
324,80,95995,1,0
474,80,96544,1,8
474,280,97276,2,0,B|429:328|316:291|285:218,1,200,0|8
240,160,98373,1,0
133,53,98922,1,0
26,159,99471,1,8
167,300,100202,6,0,B|319:300,1,150
317,300,100934,1,8
317,99,101666,2,0,B|165:99,1,150
167,99,102398,1,8
57,266,103129,5,0
81,290,103312,1,0
114,299,103495,1,0
149,299,103678,1,0
231,242,103861,5,0
263,228,104044,1,0
297,231,104227,1,0
328,245,104410,1,0
411,300,104593,5,0
444,288,104776,1,0
473,269,104958,2,0,L|505:244,2,25
473,168,105324,5,0
459,135,105507,1,0
433,111,105690,2,0,L|392:94,2,25
335,86,106056,6,0,B|195:86,1,100,4|0
235,286,106788,2,0,B|375:286,1,100,8|0
476,144,107519,1,0
311,29,107885,1,0
146,143,108251,1,8
310,257,108617,1,0
121,325,108983,6,0,B|-12:325,1,100
162,183,109715,2,0,B|282:183,1,100,8|0
419,59,110446,2,0,B|307:59,1,100
118,59,111178,2,0,B|76:73|72:149|156:142,1,100,8|0
198,83,111910,6,0,B|219:-23|357:16|358:115|316:145|238:147|262:251,1,350
259,283,113373,1,0
206,89,114105,2,0,B|318:89,1,100,8|0
256,192,114837,12,0,116666
264,264,117032,6,0,B|164:264,1,100,8|0
164,63,117763,6,0,B|44:63,1,100
264,63,118495,2,0,B|384:63,1,100,8|0
222,204,119227,1,0
21,204,119593,1,0
162,345,119959,1,8
361,345,120324,1,0
361,144,120690,6,0,B|361:24,1,100
160,44,121422,2,0,B|160:164,1,100,8|0
360,144,122154,1,0
159,144,122520,1,0
300,285,122886,1,8
100,285,123251,1,0
100,84,123617,6,0,B|165:45|164:145|264:76,1,150
341,90,124349,2,0,B|415:108|344:178|463:200,1,150,8|0
436,293,125081,2,0,B|370:332|371:232|271:301,1,150
194,287,125813,2,0,B|115:238|149:143,1,150,8|0
196,72,126544,2,0,B|293:-24|287:130|385:66,1,200,0|8
485,238,127641,1,0
304,323,128007,6,0,B|224:323,1,50
153,323,128373,2,0,L|153:354,2,25
81,251,128739,2,0,L|41:251,7,25
27,209,129471,6,0,B|67:89|173:79,1,200,4|8
264,79,130568,2,0,B|324:73|359:134,1,100
398,261,131483,1,0
362,296,131666,1,8
326,260,131849,1,0
225,148,132398,2,0,B|181:98|123:166,1,100
76,228,133129,2,0,B|44:293|135:326,1,100,8|0
201,334,133861,2,0,B|331:351|378:239,1,200,0|8
404,162,134958,5,0
404,162,135141,2,0,B|388:68|287:68,2,150
404,212,136422,2,0,B|514:212,2,100
203,212,137519,1,0
105,233,137702,1,0
48,315,137885,1,0
105,233,138068,2,0,B|54:188|-6:241,1,100
13,125,138617,6,0,B|48:89,1,50
248,89,139166,2,0,B|212:124,1,50
70,266,139715,2,0,B|105:301,1,50
305,301,140263,2,0,B|270:266,1,50
127,123,140812,2,0,B|207:123,1,50
227,123,141178,5,0
327,123,141544,1,0
362,158,141727,1,0
362,258,142093,1,0
212,258,142641,2,0,B|124:170,1,100
141,136,143190,1,0
163,91,143373,1,8
163,91,143556,1,0
308,56,144105,6,0,B|378:126,1,100
449,197,144837,2,0,B|378:268,1,100,8|0
307,338,145568,2,0,B|206:237,1,100
165,196,146300,1,8
3,84,147032,6,0,B|36:23|128:20|171:84,1,200,0|8
83,140,148129,1,0
3,197,148495,2,0,B|36:258|128:261|171:197,1,200,0|8
169,198,149593,1,0
256,192,149958,12,0,152885
256,192,153617,12,0,155446
177,86,155812,6,0,B|317:86,1,100,4|0
277,286,156544,2,0,B|137:286,1,100,8|0
35,144,157275,1,0
201,32,157641,1,0
366,144,158007,1,8
200,256,158373,1,0
387,325,158739,6,0,B|520:325,1,100
336,192,159471,2,0,B|216:192,1,100,8|0
86,58,160202,2,0,B|198:58,1,100
386,58,160934,2,0,B|357:102|265:91,1,100,8|0
196,82,161666,6,0,B|217:-24|355:15|356:114|314:144|236:146|260:250,1,350
257,286,163129,1,0
207,92,163861,2,0,B|307:92,1,100,8|0
256,192,164593,12,0,166422
248,264,166788,6,0,B|348:264,1,100,8|0
348,63,167519,6,0,B|468:63,1,100
248,63,168251,2,0,B|128:63,1,100,8|0
290,204,168983,1,0
491,204,169349,1,0
350,345,169715,1,8
151,345,170080,1,0
151,144,170446,6,0,B|151:24,1,100
352,44,171178,2,0,B|352:164,1,100,8|0
152,144,171910,1,0
353,144,172276,1,0
212,285,172642,1,8
412,285,173007,1,0
412,84,173373,6,0,B|347:45|348:145|248:76,1,150
171,90,174105,2,0,B|97:108|168:178|49:200,1,150,8|0
76,293,174837,2,0,B|142:332|141:232|241:301,1,150
318,287,175569,2,0,B|397:238|363:143,1,150,8|0
316,72,176300,2,0,B|219:-24|225:130|127:66,1,200,0|8
27,238,177397,1,0
208,323,177763,6,0,B|288:323,1,50
359,323,178129,2,0,L|359:354,2,25
431,251,178495,2,0,L|466:269,6,25
378,164,179227,1,4
