osu file format v9

[General]
AudioFilename: f_001127.mp3
AudioLeadIn: 993
PreviewTime: -1
Countdown: 1
SampleSet: Soft
StackLeniency: 0.7
Mode: 0
LetterboxInBreaks: 1

[Editor]
DistanceSpacing: 0.8
BeatDivisor: 4
GridSize: 8

[Metadata]
Title:Illuminated
Artist:Hurts
Creator:rockleejkooo
Version:[Ryuu] Edition
Source:
Tags:

[Difficulty]
HPDrainRate:5
CircleSize:3
OverallDifficulty:7
ApproachRate:8
SliderMultiplier:1.4
SliderTickRate:1

[Events]
//Background and Video events
0,0,"767411.jpg"
//Break Periods
2,64260,74144
//Storyboard Layer 0 (Background)
//Storyboard Layer 1 (Fail)
//Storyboard Layer 2 (Pass)
//Storyboard Layer 3 (Foreground)
//Storyboard Sound Samples
//Background Colour Transformations
3,100,163,162,255

[TimingPoints]
894,666.666666666667,4,2,0,20,1,0
38894,-200,4,2,0,20,0,0
42227,-100,4,2,0,50,0,0
182060,-100,4,2,0,50,0,0

[Colours]
Combo1 : 240,240,123
Combo2 : 119,208,125
Combo3 : 163,160,226
Combo4 : 255,64,69

[HitObjects]
221,73,894,1,2
304,88,1227,1,2
368,144,1560,1,2
400,224,1894,1,2
376,304,2227,1,2
304,352,2560,1,2
224,352,2894,6,2,B|144:336|128:256,1,140,4|2
400,192,3894,1,2
296,128,4227,1,2
176,128,4560,1,2
80,192,4894,1,6
256,344,5560,6,2,B|336:344|336:248,1,140,2|6
336,224,6894,1,2
336,200,7560,1,2
336,176,8227,1,2
336,152,8894,1,2
336,128,9560,1,2
336,104,10227,1,2
96,160,10894,6,2,B|152:208|160:176|192:256|208:240,1,140,2|6
224,264,12227,1,2
248,272,12893,1,2
272,272,13560,1,2
296,264,14227,1,2
320,248,14893,1,2
336,224,15560,5,6
320,128,15893,1,6
240,64,16227,2,2,B|192:120|160:112|120:104|96:144,1,140,4|2
104,152,17060,1,2
96,176,17227,1,2
88,200,17393,1,2
80,224,17560,1,10
144,280,17893,5,2
240,312,18227,1,2
336,288,18560,1,2
408,224,18894,1,6
416,128,19227,1,2
392,112,19394,1,6
376,96,19560,2,2,B|312:104|320:48|256:104|240:112,1,140,2|10
152,176,20560,5,2
104,304,20894,1,2
240,336,21227,1,2
296,208,21560,1,6
208,312,21894,1,2
384,312,22227,1,2
432,200,22560,1,2
424,96,22894,1,10
336,56,23227,1,2
232,56,23560,5,2
216,80,23727,1,2
200,104,23894,1,2
184,128,24060,1,2
168,152,24227,2,6,B|120:224|80:192|128:248,1,105
120,256,24894,1,2
144,272,25060,1,2
152,296,25227,1,6
152,296,25560,5,10
240,328,25894,1,2
336,312,26227,1,2
432,232,26560,1,2
448,112,26894,1,6
448,112,27394,5,6
448,112,27894,1,6
328,32,28227,1,10
334,59,28394,1,2
340,86,28560,1,2
338,114,28727,1,2
330,141,28894,1,2
322,167,29060,1,2
323,195,29227,1,2
324,250,29560,5,6
472,312,30060,2,2,B|432:280|400:232,1,105,6|2
401,234,30894,1,10
112,144,31227,2,2,B|152:88|200:112|208:56|208:48,1,140
256,248,32227,1,6
400,144,32560,2,2,B|360:88|312:112|304:56|304:48,1,140
232,128,33560,5,10
211,147,33727,1,2
195,171,33894,1,2
184,196,34060,1,2
177,223,34227,1,2
177,252,34394,1,2
180,279,34560,1,2
193,303,34727,1,2
210,324,34894,1,6
256,256,35394,5,6
256,232,35560,1,2
320,296,35894,1,6
339,315,36060,1,2
350,295,36227,1,10
352,336,36560,6,6,B|424:360|432:360,3,70
416,352,38894,2,2,B|360:216,1,140
362,222,40893,2,2,B|320:200,1,35
331,206,41560,2,2,B|296:184,1,35
40,192,42227,1,6
472,192,42477,1,6
472,192,42893,6,2,B|464:128|416:128|456:80|424:64,1,140,6|2
320,136,43893,1,2
216,200,44227,1,10
96,200,44560,1,2
160,304,44893,1,2
280,328,45227,1,2
384,272,45560,6,2,B|448:232|448:152,1,140,6|2
432,216,46560,1,2
384,272,46893,1,10
304,312,47227,1,2
176,328,47560,1,2
56,248,47893,1,2
32,112,48227,1,6
32,112,48727,5,6
32,112,49227,1,6
32,112,49560,2,2,B|96:160|144:152|160:184,1,140,10|2
256,240,50560,1,2
392,280,50893,1,6
392,280,51393,5,6
392,280,51893,1,6
384,64,52227,1,2
383,91,52393,1,2
360,107,52560,1,2
360,135,52727,1,2
340,154,52893,1,2
337,181,53060,1,2
315,199,53227,1,2
310,226,53393,1,2
290,246,53560,5,6
72,248,54060,2,2,B|88:144|168:112,1,175,6|10
194,103,55060,1,2
220,94,55227,1,2
246,103,55393,1,2
272,111,55560,1,2
291,128,55893,5,6
328,224,56227,1,2
352,192,56560,1,2
320,176,56893,1,2
296,208,57227,1,2
336,304,57560,1,10
208,208,57893,1,2
296,88,58227,1,2
432,176,58560,1,2
336,304,58893,1,6
336,304,59393,5,6
336,304,59893,1,6
168,240,60227,2,2,B|112:200|136:160|112:152|104:120,1,140,10|2
120,88,61060,1,2
96,72,61227,1,2
368,256,61560,1,6
368,256,62060,5,6
368,256,62560,1,6
248,280,62893,1,10
232,303,63060,1,2
213,324,63227,1,2
185,330,63393,1,2
164,311,63560,1,2
138,300,63727,1,2
110,300,63893,1,6
85,313,64060,1,6
160,184,74894,5,2
160,184,75394,2,2,B|208:240|272:232,1,105
368,264,76227,1,10
272,304,76560,1,2
168,304,76894,1,2
72,264,77227,2,6,B|48:224|72:184,1,70,2|6
64,200,78060,1,6
64,200,78560,5,6
144,128,78894,1,10
216,208,79227,1,2
144,280,79560,1,2
64,200,79894,5,2
168,96,80227,1,2
272,200,80560,1,2
168,304,80894,1,2
64,200,81227,5,2
224,40,81560,1,10
384,200,81894,1,2
224,360,82227,1,2
64,200,82560,1,2
224,360,82894,5,6
384,200,83394,1,6
224,40,83894,1,6
224,360,84227,5,10
352,304,84560,1,2
432,192,84894,1,2
352,72,85227,1,2
224,8,85560,6,2,B|152:48|136:112,1,140
112,192,86560,1,2
112,280,86894,1,10
224,280,87227,1,2
224,136,87560,1,2
360,136,87894,1,2
360,344,88227,1,6
360,344,88727,5,6
360,344,89227,1,6
360,344,89560,2,0,B|288:352|304:320|240:312|208:336,1,140,10|2
128,304,90560,1,2
80,216,90894,5,6
101,198,91060,1,2
126,187,91227,1,2
150,187,91394,1,6
176,196,91560,1,2
203,200,91727,1,2
230,201,91894,1,6
257,200,92060,1,2
284,193,92227,5,10
256,80,92560,1,2
256,304,92894,1,2
256,192,93227,1,2
256,16,93560,1,6
256,16,94060,5,6
256,16,94560,1,6
256,368,94894,1,10
352,256,95227,1,2
160,256,95560,1,2
448,128,95894,1,2
64,128,96227,1,2
328,56,96560,1,2
184,56,96894,1,2
256,120,97227,5,2
256,32,97560,1,2
256,296,97894,1,2
256,208,98227,1,2
256,368,98560,1,2
256,192,98894,12,2,101227
230,184,101560,5,6
246,161,101727,1,2
272,169,101894,1,2
277,196,102060,1,6
250,204,102227,1,2
192,272,102560,1,6
288,320,102894,1,10
400,296,103227,1,2
440,192,103560,1,2
384,96,103894,1,2
247,100,104227,5,6
222,87,104394,1,2
239,64,104560,1,2
265,71,104727,1,6
270,98,104894,1,2
168,168,105227,1,6
248,288,105560,1,10
352,192,105894,1,2
248,288,106227,1,2
168,168,106560,1,2
272,72,106894,1,6
272,72,107394,5,6
272,72,107894,1,6
456,192,108227,1,10
56,192,108560,1,2
456,192,108894,1,2
56,192,109227,1,2
240,312,109560,1,6
240,312,110060,5,6
240,312,110560,1,6
320,160,110894,1,10
200,240,111227,1,2
104,96,111560,1,2
408,288,111894,1,2
256,192,112227,12,2,113227
192,192,113560,5,10
320,192,113894,1,2
64,192,114227,1,2
448,192,114560,1,2
256,192,114894,12,2,115894
384,80,116227,6,2,B|328:56|344:112|304:120,1,70,10|2
144,304,116894,2,2,B|200:328|184:272|224:264,1,70
160,80,117560,1,6
160,80,118060,2,6,B|224:160|240:104,1,105
368,192,118894,2,2,B|288:232|312:312,1,140,10|2
312,304,119894,1,2
152,192,120227,5,6
200,152,120727,1,6
248,112,121227,1,6
432,112,121560,2,2,B|448:136|432:152|432:152,1,35,10|2
418,167,121894,1,2
402,190,122061,1,2
394,216,122228,1,2
395,243,122394,1,2
414,267,122561,1,2
441,274,122728,1,2
458,252,122894,1,6
456,248,123394,5,6
456,248,123894,1,6
456,248,124227,1,10
64,200,124560,1,2
84,180,124727,1,2
107,164,124894,1,2
132,152,125060,1,2
159,144,125227,1,2
186,151,125394,1,2
211,162,125560,1,6
272,200,126060,5,6
272,200,126560,1,6
272,200,126894,2,2,B|312:240,8,35,10|2|2|2|2|2|2|2|6
88,296,128727,6,6,B|72:224|96:176,1,105
89,192,129560,1,10
256,336,129894,1,2
232,321,130060,1,2
221,295,130227,1,2
226,267,130394,1,2
243,245,130560,1,2
261,223,130727,1,2
265,195,130894,1,6
280,144,131394,5,6
280,144,131894,1,6
280,144,132227,1,10
253,135,132394,1,2
231,117,132560,1,2
220,91,132727,1,2
227,63,132894,1,2
250,48,133060,1,2
277,42,133227,1,2
304,48,133394,1,2
323,66,133560,1,6
112,344,134060,6,2,B|64:328|112:232|64:224|8:248,1,175,6|10
10,246,135227,1,2
37,243,135394,1,2
64,238,135560,1,2
96,248,135727,1,2
123,244,135894,1,2
150,240,136060,1,2
177,245,136227,1,6
256,288,136727,5,6
256,288,137227,1,6
256,288,137560,1,10
283,283,137727,1,2
308,270,137893,1,2
329,251,138060,1,2
347,228,138227,1,2
364,206,138393,1,2
372,179,138560,1,2
372,150,138727,1,2
56,264,138894,2,6,B|24:200|64:136,1,105
50,162,139894,2,2,B|112:120,1,70,6|10
256,160,140561,5,2
240,184,140727,1,2
272,184,140894,1,2
256,160,141061,1,2
240,184,141227,1,2
272,184,141394,1,2
256,192,141560,2,6,B|256:296,2,105
256,192,142894,12,2,143894
256,192,144227,5,2
256,37,144560,1,2
256,192,144894,1,2
101,114,145227,1,2
256,192,145560,1,10
101,269,145894,1,2
256,192,146227,1,2
256,346,146560,1,2
256,37,146894,5,2
256,192,147227,1,2
410,114,147560,1,2
256,192,147894,1,2
410,269,148227,1,10
256,192,148560,1,2
256,346,148894,1,2
256,192,149227,1,2
464,120,149560,6,6,B|464:48|400:40,2,105
464,120,150894,1,10
72,120,151227,1,2
88,144,151394,1,2
104,168,151560,1,2
120,192,151727,1,2
136,168,151894,1,2
152,144,152060,1,2
168,120,152227,1,6
160,120,152727,6,6,B|136:176|184:232,1,105
184,240,153394,1,2
200,264,153560,1,10
431,306,153894,1,2
407,291,154060,1,2
397,264,154227,1,2
411,245,154394,1,2
438,242,154560,1,2
461,257,154727,1,2
460,285,154894,1,6
464,288,155394,6,6,B|432:336|360:336,1,105
256,160,156227,1,10
184,176,156394,1,2
176,248,156560,1,2
240,280,156727,1,2
288,224,156894,1,2
232,200,157060,5,2
216,224,157227,1,2
248,224,157394,1,2
232,200,157560,1,6
232,216,158060,1,6
232,216,158560,1,6
232,216,158894,2,2,B|288:280|320:176|336:312|208:320,1,210,10|2
424,64,160227,6,6,B|352:144,2,105
80,312,161560,1,10
80,312,161894,2,2,B|136:344,6,35,2|2|2|2|2|2|6
88,312,163394,1,6
88,312,163894,1,6
296,40,164227,5,10
272,56,164394,1,2
296,72,164560,1,2
272,88,164727,1,2
296,104,164894,1,2
272,120,165060,1,2
296,136,165227,1,2
272,152,165394,1,2
296,168,165560,1,6
296,264,166060,6,6,B|296:160,1,105
296,264,166894,1,10
210,34,167227,1,2
416,157,167560,1,2
301,349,167894,1,2
95,226,168227,1,6
95,226,168727,5,6
95,226,169227,1,6
210,34,169560,1,10
96,224,169894,1,2
301,349,170227,1,2
416,157,170560,1,2
208,32,170894,1,6
304,352,171394,1,6
320,320,171894,5,6
79,242,172227,1,10
97,220,172394,1,2
111,195,172560,1,2
111,166,172727,1,2
105,138,172894,1,2
106,110,173061,1,2
121,87,173227,1,2
138,65,173394,1,2
224,64,173561,5,6
224,64,174060,1,6
224,64,174560,1,6
256,192,174894,12,6,176227
256,192,176727,5,6
256,192,177227,1,6
248,38,177561,1,10
220,38,177727,1,2
193,47,177894,1,2
168,60,178061,1,2
148,80,178227,1,2
135,105,178394,1,2
124,130,178561,1,2
119,158,178727,1,2
118,186,178894,1,6
256,192,179394,5,6
256,192,179894,1,6
431,209,180227,1,10
431,236,180393,1,2
425,263,180560,1,2
413,288,180727,1,2
397,311,180893,1,2
373,326,181060,1,2
345,332,181227,1,2
317,335,181393,1,2
289,337,181560,1,6
256,192,182060,5,6
256,192,182560,1,6
236,139,182893,1,10
214,120,183059,1,2
193,124,183226,1,2
169,138,183393,1,2
159,164,183559,1,2
165,191,183727,1,2
183,212,183893,1,2
204,229,184060,1,2
224,248,184227,1,6
249,266,184727,21,6
248,266,185227,1,6
248,266,185560,5,10
272,252,185727,1,2
293,233,185894,1,2
311,211,186060,1,2
326,187,186228,1,2
332,164,186394,1,2
318,139,186561,1,2
291,127,186728,1,2
264,141,186894,1,6
256,192,187060,12,14,189560
