osu file format v9

[General]
AudioFilename: Hurts - Illuminated.mp3
AudioLeadIn: 0
PreviewTime: 42545
Countdown: 0
SampleSet: Soft
StackLeniency: 0.7
Mode: 0
LetterboxInBreaks: 0
EpilepsyWarning: 1

[Editor]
DistanceSpacing: 1.2
BeatDivisor: 4
GridSize: 4

[Metadata]
Title:Illuminated
Artist:Hurts
Creator:Vass_Bass
Version:Light
Source:
Tags:Synthpop Happiness

[Difficulty]
HPDrainRate:6
CircleSize:4
OverallDifficulty:6
ApproachRate:7
SliderMultiplier:2
SliderTickRate:1

[Events]
//Background and Video events
0,0,"BG.jpg"
//Break Periods
//Storyboard Layer 0 (Background)
//Storyboard Layer 1 (Fail)
//Storyboard Layer 2 (Pass)
//Storyboard Layer 3 (Foreground)
//Storyboard Sound Samples
//Background Colour Transformations
3,100,163,162,255

[TimingPoints]
16033,667.408231368187,4,2,0,20,1,0
16033,-100,4,2,1,30,0,0
35380,-100,4,2,1,25,0,0
36048,-100,4,2,1,20,0,0
36715,-100,4,2,1,15,0,0
37383,-133.333333333333,4,2,1,10,0,0
42712,666.666666666667,4,2,0,30,1,0
42712,-100,4,1,1,40,0,1
52712,-100,4,2,1,40,0,1
52878,-100,4,1,1,40,0,1
63378,-100,4,2,1,40,0,1
63545,-100,4,1,1,40,0,1
64045,-100,4,1,1,10,0,0
66705,667.408231368187,4,2,0,30,1,0
66705,-100,4,2,1,30,0,0
86059,-100,4,2,1,20,0,0
86727,-100,4,2,1,15,0,0
87394,-100,4,2,1,10,0,0
88062,-133.333333333333,4,2,1,10,0,0
93382,666.666666666667,4,2,0,49,1,0
93382,-100,4,1,1,40,0,1
103382,-100,4,2,1,40,0,1
103548,-100,4,1,1,40,0,1
114048,-100,4,2,1,40,0,1
114215,-100,4,1,1,40,0,1
114715,-100,4,2,1,40,0,0
134715,-200,4,2,1,10,0,0
136048,-100,4,1,1,45,0,1
154382,-100,4,2,1,45,0,1
154548,-100,4,1,1,45,0,1
157382,-100,4,1,1,30,0,0
159715,-100,4,2,1,30,0,0
159882,-100,4,1,1,30,0,0
162382,-100,4,2,1,30,0,0
162548,-100,4,1,1,30,0,0
165048,-100,4,2,1,30,0,0
165215,-100,4,1,1,30,0,0
170382,-100,4,2,1,30,0,0
170548,-100,4,1,1,30,0,0
173048,-100,4,2,1,30,0,0
173215,-100,4,1,1,30,0,0
175715,-100,4,2,1,30,0,0
175882,-100,4,1,1,30,0,0
178382,-100,4,2,1,30,0,0
178548,-100,4,1,1,30,0,0
178715,-100,4,2,1,30,0,0
180060,-100,4,1,1,20,0,0
180727,-100,4,1,1,10,0,0
181382,-100,4,2,1,5,0,0

[Colours]
Combo1 : 249,169,138
Combo2 : 33,158,211
Combo3 : 252,209,182
Combo4 : 186,227,252

[HitObjects]
112,48,16032,2,0,B|168:104|136:188,1,150,4|0
80,216,16700,2,0,B|140:212|168:256,1,100,0|0
368,336,17367,2,0,B|312:324|284:272|288:216|336:176,1,200,8|0
432,244,18368,1,0
304,36,18702,22,0,B|264:68|244:116,1,100,4|0
148,344,19370,2,0,B|188:312|208:264,1,100
60,200,20037,1,8
156,144,20371,1,0
252,208,20704,1,8
360,160,21038,1,0
416,256,21372,22,0,B|456:232|464:148|440:116,1,150,4|0
369,63,22039,2,0,B|349:107|361:163,1,100,0|0
416,256,22707,2,0,B|340:204|276:260,1,150,8|0
276,272,23374,1,0
156,300,23708,2,0,B|96:208|140:108,1,200
228,40,24709,2,0,B|276:72|324:72,1,100
492,52,25376,2,0,B|452:20|396:24,1,100,8|0
428,132,26044,21,0
420,148,26377,1,0
413,162,26711,2,0,B|345:190|317:274,1,150,4|0
256,348,27378,2,0,B|152:360,1,100,0|0
52,240,28046,2,0,B|151:228,1,100,8|0
308,108,28713,1,0
192,120,29047,1,0
192,120,29381,22,0,B|168:176|180:232|212:260,1,150,4|0
316,324,30048,2,0,B|316:264|292:228,1,100,0|0
360,140,30715,1,8
192,120,31049,1,0
56,208,31383,2,0,B|56:268|80:304,1,100,0|0
196,332,32050,22,0,B|268:288|340:332,1,150,4|0
348,340,32718,2,0,B|344:284|364:240,1,100,8|0
464,60,33385,1,8
460,76,33719,1,0
456,92,34053,1,0
452,108,34386,22,0,B|476:212|428:308,1,200
328,336,35387,2,0,B|320:288|336:236,1,100,2|0
324,56,36055,2,0,B|336:108|316:156,1,100,2|0
128,136,36722,1,2
252,100,37056,1,0
216,216,37390,22,0,B|216:280|192:364,1,149.999995529652,2|0
40,192,38391,2,0,B|40:128|64:44,1,149.999995529652
156,80,39392,2,0,B|200:92|232:88,1,74.9999977648259,2|0
300,20,40059,2,0,B|248:96|304:160,2,149.999995529652
388,264,42061,2,0,B|420:208|396:156,1,112.499996647239,2|0
316,148,42712,6,0,B|208:164,1,100,4|0
40,72,43378,2,0,B|138:57,1,100,0|0
108,164,44045,2,0,B|108:248|60:308,1,150,8|0
16,332,44711,2,0,B|128:352,1,100
208,292,45378,21,4
332,340,45711,1,0
308,220,46045,1,0
232,224,46378,21,8
256,352,46711,1,8
356,272,47045,1,0
418,198,47378,2,0,B|402:250|356:272,1,100,0|0
500,204,48045,22,0,B|420:180|416:88,1,150,4|0
368,40,48711,2,0,B|260:52,1,100,0|8
160,192,49378,2,0,B|200:84|128:-4,1,200
60,124,50378,1,0
60,124,50711,2,0,B|40:188|56:280,1,150,4|0
64,284,51378,1,0
256,348,51711,1,8
256,348,52045,22,0,B|320:308|404:328,1,150
408,312,52711,1,0
416,300,52878,1,0
424,288,53045,1,0
432,276,53211,1,0
440,264,53378,22,0,B|424:212|440:164,1,100,4|0
488,16,54045,2,0,B|503:67|487:115,1,100,0|0
388,68,54711,2,0,B|336:60|292:96,1,100,8|0
336,196,55378,2,0,B|304:116|224:108,1,150
216,100,56045,21,0
120,48,56378,1,0
124,160,56711,2,0,B|116:216|124:264,1,100
336,344,57378,2,0,B|352:272|336:188,1,150,8|0
340,100,58045,2,0,B|436:76,1,100
304,24,58711,22,0,B|160:60,1,150,4|0
80,40,59378,2,0,B|72:84|92:144,1,100,0|8
224,180,60045,2,0,B|140:152|80:188|52:244,1,200,8|0
220,284,61045,1,0
220,284,61378,22,0,B|308:296|360:240,1,150,4|0
448,260,62045,2,0,B|456:200|452:156,1,100,0|8
376,16,62711,2,0,B|348:84|368:168,1,150,8|0
351,167,63378,1,0
336,172,63545,1,0
320,176,63711,1,0
305,180,63878,1,0
289,185,64045,1,0
116,304,66705,38,0,B|76:232|108:160,1,150,4|0
208,32,67372,2,0,B|208:88|192:132,1,100,0|0
84,152,68039,2,0,B|192:116|260:208,1,200,8|0
372,212,69040,1,0
452,136,69374,22,0,B|472:84|468:32,1,100,4|0
372,212,70042,2,0,B|352:264|356:316,1,100,8|0
244,304,70709,1,8
52,332,71043,1,0
224,308,71376,1,0
72,328,71710,1,0
136,240,72044,22,0,B|124:184|136:140,1,100,4|0
240,28,72711,2,0,B|251:84|240:128,1,100,0|0
136,140,73379,1,8
344,180,73712,1,0
240,128,74046,1,0
240,128,74380,2,0,B|244:224|208:328,1,200
36,304,75381,22,0,B|84:276|140:280,1,100,8|0
396,296,76048,2,0,B|348:324|292:320,2,100
332,96,77049,1,0
332,96,77383,22,0,B|316:180|332:256,1,150,4|0
240,240,78050,2,0,B|136:228,1,100,8|0
96,128,78718,2,0,B|112:204|96:280|52:324,1,200
24,188,79719,1,0
24,188,80053,22,0,B|8:104|44:36,1,150,4|0
56,36,80720,1,0
260,84,81054,1,0
168,16,81387,1,0
164,144,81721,1,0
164,144,82055,2,0,B|148:196|160:248,1,100
272,240,82722,22,0,B|188:216|128:268,1,150,4|0
80,344,83390,2,0,B|136:360|184:328,1,100,8|0
272,240,84057,1,0
368,340,84391,1,0
272,240,84725,1,0
372,192,85058,2,0,B|360:148|304:112|232:128|208:168,1,200
208,168,86059,22,0,B|208:108|184:68,1,100,2|0
88,192,86727,2,0,B|88:252|112:291,1,100,2|0
308,296,87394,2,0,B|264:264|216:260,1,100,2|0
208,168,88062,22,0,B|192:96|220:12,1,149.999995529652,0|0
440,96,89063,2,0,B|370:121|283:105,1,149.999995529652,0|0
292,107,90064,2,0,B|296:160|288:204,1,74.9999977648259
204,264,90731,2,0,B|284:240|348:296,1,149.999995529652,0|0
208,352,92066,2,0,B|72:356|28:220,1,224.999993294478
56,52,93382,38,0,B|108:56|140:108,1,100,4|0
196,276,94048,2,0,B|140:272|112:220,1,100,0|0
200,192,94715,1,8
292,32,95048,1,0
208,176,95382,1,0
284,44,95715,1,0
300,152,96048,22,0,B|304:212|276:248,1,100,4|0
108,352,96715,2,0,B|104:292|132:256,1,100,0|8
208,176,97382,1,0
316,76,97715,1,8
368,212,98048,1,0
256,292,98382,1,8
256,292,98715,22,0,B|192:344|112:328,1,150,4|0
100,316,99382,1,0
116,76,99715,1,8
116,76,100048,2,0,B|156:88|176:140|188:204|164:260,1,200,4|0
72,192,101048,1,0
72,192,101382,22,0,B|156:160|224:180,1,150,4|0
232,184,102048,1,0
344,48,102382,1,8
344,48,102715,2,0,B|320:116|344:196,1,150,4|0
348,208,103382,1,0
352,220,103548,1,0
356,236,103715,1,0
360,248,103882,1,0
364,264,104048,22,0,B|328:308|276:304,1,100,4|0
56,312,104715,2,0,B|92:268|144:272,1,100,0|0
216,188,105382,1,8
260,28,105715,1,0
216,188,106048,2,0,B|152:168|96:172,1,100
296,136,106548,1,0
296,136,106715,2,0,B|344:160|396:152,1,100,4|0
452,60,107382,2,0,B|420:136|460:204,1,150,0|0
460,204,108048,21,8
444,232,108382,1,0
428,260,108715,1,0
412,288,109048,1,8
392,316,109382,22,0,B|324:352|244:340,1,150,4|0
232,332,110048,1,0
264,72,110382,1,8
264,72,110715,2,0,B|316:148|304:268,1,200,4|0
164,196,111715,1,0
164,196,112048,22,0,B|132:124|140:48,1,150,4|0
148,40,112715,1,0
264,72,113048,1,8
376,32,113382,2,0,B|384:80|392:192,1,150,4|0
392,200,114048,1,0
392,220,114215,1,0
388,240,114382,1,0
384,260,114548,1,0
380,280,114715,38,0,B|328:308|252:304,1,100,4|0
100,248,115382,2,0,B|184:184|304:228,1,200,0|8
196,296,116382,1,0
280,80,116715,2,0,B|224:64|172:80,1,100
196,296,117382,6,0,B|232:224|228:140,1,150,4|0
136,160,118048,2,0,B|32:180,1,100
256,240,118715,2,0,B|452:196,1,200,8|0
440,88,119715,1,4
424,76,119882,1,0
412,64,120048,6,0,B|340:92|252:60,1,150,4|0
208,20,120715,2,0,B|228:68|212:120,1,100
116,272,121382,2,0,B|80:172|132:72,1,200,8|0
216,148,122382,1,4
224,168,122548,1,0
232,188,122715,6,0,B|240:264|236:344,1,150,4|0
220,344,123382,1,0
132,276,123715,1,8
324,140,124048,2,0,B|340:208|328:296,1,150,8|0
336,300,124715,1,4
344,312,124882,1,0
352,324,125048,1,0
360,336,125215,1,0
372,352,125382,6,0,B|424:340|460:296,1,100,4|0
480,172,126048,2,0,B|456:248|484:324,1,150
372,348,126715,2,0,B|264:336,1,100,8|0
120,224,127382,2,0,B|219:235,1,100,0|4
219,235,127882,1,0
220,236,128048,6,0,B|184:160|228:92,1,150,4|0
296,76,128715,2,0,B|180:64,1,100
280,160,129382,2,0,B|480:176,1,200,8|0
432,276,130382,1,4
400,284,130548,1,0
364,296,130715,6,0,B|296:308|220:356,1,150,4|0
228,352,131382,2,0,B|120:344,1,100
192,88,132048,2,0,B|240:148|220:236|164:268,1,200,8|0
112,172,133048,1,4
140,175,133215,1,0
164,176,133382,6,0,B|312:188,1,150,4|0
324,184,134048,1,0
452,56,134382,1,0
456,176,134715,22,0,B|459:202|459:202|440:221|440:221|443:247|443:247|424:266|424:266|428:293|428:293|410:308|410:308|415:331,1,175
328,336,136048,22,0,B|280:348|224:340,1,100,4|0
68,240,136715,2,0,B|116:227|172:236,1,100,0|0
264,264,137382,2,0,B|272:200|260:160,1,100,8|0
176,32,138048,2,0,B|160:80|184:136,1,100
411,184,138715,22,0,B|364:176|312:188,1,100
56,216,139382,2,0,B|103:224|155:212,1,100,0|0
264,264,140048,1,8
228,64,140382,1,0
260,248,140715,1,0
224,48,141048,1,0
148,148,141382,22,0,B|128:216|148:312,1,150,4|0
152,308,142048,1,0
360,344,142382,1,8
360,344,142715,2,0,B|376:244|348:140,1,200,4|0
260,104,143715,1,0
260,104,144048,22,0,B|336:140|404:100,1,150,4|0
412,88,144715,1,0
320,40,145048,1,8
320,40,145382,2,0,B|240:16|172:44,1,150,4|0
152,52,146048,1,0
136,64,146215,1,0
120,76,146382,1,0
104,92,146548,1,0
88,104,146715,22,0,B|68:156|76:204,1,100,4|0
176,344,147382,2,0,B|196:292|188:244,1,100,0|0
200,132,148048,2,0,B|264:44|380:72,2,200,8|0|4
160,244,149715,1,0
160,244,150048,22,0,B|224:248|256:212,1,100,0|0
448,168,150715,2,0,B|392:160|356:200,1,100,8|0
428,276,151381,1,0
424,76,151715,1,0
424,76,152048,22,0,B|360:28|284:36,1,150,4|0
252,48,152715,1,0
192,208,153048,1,8
192,208,153381,2,0,B|224:160|228:64|184:16,1,200,4|0
100,120,154381,1,4
96,136,154548,1,0
92,152,154715,22,0,B|76:224|112:300,1,150,4|0
104,312,155381,2,0,B|216:320,1,100
316,360,156048,2,0,B|288:260|332:160,1,200
396,268,157048,1,0
396,268,157215,1,0
396,268,157382,1,4
396,268,157715,6,0,B|444:176|408:56,1,200
316,148,158715,2,0,B|264:168|212:172,1,100,8|0
64,92,159381,2,0,B|116:72|168:68,1,100,0|4
184,88,159881,1,0
196,116,160048,2,0,B|200:236|152:312,1,200,4|0
36,280,161048,5,0
148,320,161381,1,8
268,332,161715,1,0
384,308,162048,1,0
472,224,162381,5,4
468,204,162548,1,0
464,184,162715,2,0,B|464:104|440:32,1,150,4|0
356,80,163381,2,0,B|252:72,1,100,0|8
188,216,164048,2,0,B|232:128|192:20,1,200,8|0
104,104,165048,1,4
96,124,165215,1,0
88,144,165381,6,0,B|72:228|100:304,1,150,4|0
188,364,166048,2,0,B|192:312|180:264,1,100,0|8
264,88,166715,2,0,B|248:156|264:240,1,150,8|0
276,244,167381,1,8
288,252,167548,1,0
300,260,167715,1,8
312,268,167881,1,0
324,276,168048,5,4
420,348,168381,2,0,B|456:252|420:148,1,200
324,20,169381,2,0,B|324:76|348:120,1,100,8|0
324,276,170048,2,0,B|324:220|300:176,1,100,0|4
288,172,170548,1,0
272,164,170715,5,4
248,44,171048,2,0,B|264:120|208:188|128:184,1,200
24,136,172048,2,0,B|72:104|120:112,1,100,8|0
88,228,172715,1,0
160,324,173048,1,4
176,324,173215,1,0
192,324,173381,6,0,B|284:328|348:316,1,150,4|0
352,308,174048,1,0
300,64,174381,1,8
300,64,174715,2,0,B|248:96|232:192|268:252,1,200
352,164,175715,5,4
328,160,175881,1,0
304,156,176048,2,0,B|144:124,1,150,4|0
100,56,176715,2,0,B|76:108|76:160,1,100,0|8
204,272,177381,2,0,B|140:168|24:208,1,200
80,312,178381,5,4
88,316,178548,1,0
96,320,178715,1,0
256,192,178881,12,0,181381
