osu file format v9

[General]
AudioFilename: Hurts - Illuminated.mp3
AudioLeadIn: 0
PreviewTime: 42545
Countdown: 0
SampleSet: Normal
StackLeniency: 0.7
Mode: 0
LetterboxInBreaks: 0
EpilepsyWarning: 1

[Editor]
DistanceSpacing: 0.8
BeatDivisor: 4
GridSize: 4

[Metadata]
Title:Illuminated
Artist:Hurts
Creator:Vass_Bass
Version:Dark
Source:
Tags:Synthpop Happiness

[Difficulty]
HPDrainRate:2
CircleSize:3
OverallDifficulty:2
ApproachRate:3
SliderMultiplier:1.1
SliderTickRate:1

[Events]
//Background and Video events
0,0,"BG.jpg"
//Break Periods
2,37589,38619
2,88261,89291
//Storyboard Layer 0 (Background)
//Storyboard Layer 1 (Fail)
//Storyboard Layer 2 (Pass)
//Storyboard Layer 3 (Foreground)
//Storyboard Sound Samples
//Background Colour Transformations
3,100,163,162,255

[TimingPoints]
16033,667.408231368187,4,2,0,20,1,0
16033,-100,4,2,1,30,0,0
35380,-100,4,2,1,25,0,0
36048,-100,4,2,1,20,0,0
36715,-100,4,2,1,15,0,0
37377,-100,4,2,1,10,0,0
40059,-100,4,2,0,10,0,0
42712,666.666666666667,4,2,0,30,1,0
42712,-100,4,1,1,40,0,1
64045,-100,4,1,1,10,0,0
66705,667.408231368187,4,2,1,30,1,0
66705,-100,4,2,1,30,0,0
86727,-100,4,2,1,20,0,0
87394,-100,4,2,1,15,0,0
88062,-100,4,2,1,10,0,0
90731,-100,4,2,0,10,0,0
93382,666.666666666667,4,2,0,49,1,0
93382,-100,4,1,1,40,0,1
114715,-100,4,2,1,40,0,0
134715,-100,4,2,1,10,0,0
136048,-100,4,1,1,45,0,1
157382,-100,4,1,1,30,0,0
178715,-100,4,1,1,30,0,0
178882,-100,4,1,1,30,0,0
180060,-100,4,1,1,20,0,0
180727,-100,4,1,1,10,0,0
181382,-100,4,1,1,5,0,0

[Colours]
Combo1 : 249,169,138
Combo2 : 33,158,211
Combo3 : 252,209,182
Combo4 : 186,227,252

[HitObjects]
112,108,16032,2,0,B|172:132|220:108,1,110,4|0
280,52,17367,2,0,B|200:136|260:264,1,220,8|4
344,276,19370,2,0,B|340:220|320:168,2,110,0|8|0
260,256,21372,22,0,B|208:300|100:216|44:260,2,220,4|8|4
344,272,24709,1,0
420,228,25376,2,0,B|392:172|324:188,1,110,8|0
260,248,26711,22,0,B|316:144|248:32,1,220,4|8
184,92,28713,2,0,B|208:152|188:200,1,110,0|4
112,152,30048,1,0
104,240,30715,2,0,B|232:216|300:332,1,220,8|4
380,336,32718,21,0
448,280,33385,1,8
368,248,34053,2,0,B|324:136|372:20,1,220,0|2
276,36,36055,2,0,B|156:44,2,110,2|2|4
256,192,40059,12,2,42061
120,68,42712,6,0,B|136:132|116:180,1,110,4|0
32,196,44045,2,0,B|168:188|188:324,1,220,8|0
272,344,46045,2,0,B|328:376|380:352,2,110,0|8|0
328,276,48045,22,0,B|308:136|420:92,2,220,4|8|0
256,336,51378,2,0,B|136:324,2,110,0|8|0
264,248,53378,21,4
344,208,54045,2,0,B|360:272|320:316,2,110,0|8|0
264,248,56045,2,0,B|208:204|120:292|52:252,1,220,4|8
100,176,58045,1,0
140,96,58712,22,0,B|260:124|352:64,2,220,4|8|0
88,168,62045,1,0
92,256,62712,1,8
164,304,63378,1,0
252,304,64045,1,0
76,108,66705,38,0,B|132:84|184:112,1,110,4|0
192,200,68039,2,0,B|200:64|332:56,1,220,8|4
416,40,70042,1,0
456,120,70709,2,0,B|468:176|452:232,1,110,8|0
372,192,72044,22,0,B|320:192|276:340|216:340,1,220,4|8
200,252,74046,1,0
112,256,74713,2,0,B|108:168|220:132|268:196,1,220,4|8
352,176,76716,21,0
304,100,77383,2,0,B|260:68|200:68,1,110,4|0
160,148,78718,2,0,B|188:88|144:20|64:24|28:72,1,220,8|4
72,148,80720,21,0
32,228,81387,1,8
120,240,82055,2,0,B|160:260|164:312|148:340,1,110,0|4
72,308,83390,21,0
152,336,84057,2,0,B|268:344|400:296,2,220,8|4|2
188,240,87394,2,0,B|248:244|300:228,1,110,2|4
256,192,90731,12,2,92733
112,80,93382,37,4
196,112,94048,2,0,B|208:180|180:224,1,110,0|8
96,232,95381,1,0
184,220,96048,2,0,B|304:228|364:348,1,220,4|8
444,344,98048,1,0
412,260,98715,22,0,B|364:148|444:44,2,220,4|8|4
444,344,102048,2,0,B|328:376,1,110,0|8
288,300,103381,1,0
216,356,104048,22,0,B|144:264|196:140,1,220,4|8
164,64,106048,2,0,B|204:108|264:104,2,110,0|4|0
240,20,108048,2,0,B|300:16|340:60,1,110,8|0
324,144,109381,22,0,B|364:16|496:48,2,220,4|8|4
408,172,112715,2,0,B|392:232|352:268,1,110,0|8
268,240,114048,1,0
236,324,114715,6,0,B|100:372|28:256,1,220,4|8
116,232,116715,1,0
44,180,117381,2,0,B|24:120|64:76,1,110,4|0
124,140,118715,2,0,B|216:160|276:132|316:56,1,220,8|4
396,32,120715,5,0
388,120,121381,2,0,B|432:160|492:140,1,110,8|0
484,52,122715,2,0,B|424:140|428:268,1,220,4|8
260,316,125381,6,0,B|148:344|40:316,1,220,4|8
84,240,127381,2,0,B|144:256|204:240,2,110,0|4|0
136,168,129381,1,8
120,80,130048,1,0
208,80,130715,6,0,B|260:116|260:240|208:288,1,220,4|8
128,308,132715,2,0,B|192:308|228:344,1,110,0|4
308,308,134048,1,0
372,368,134715,6,0,B|420:316|356:220|400:156,1,220,0|4
468,100,136715,5,0
396,52,137381,2,0,B|332:32|292:72,2,110,8|0|4
360,132,139381,1,0
276,160,140048,2,0,B|164:200|56:160,1,220,8|4
100,84,142048,21,0
61,162,142715,2,0,B|45:222|57:274,1,110,8|0
128,320,144048,1,4
200,372,144715,2,0,B|220:320|200:264,1,110,0|8
216,176,146048,1,0
164,104,146715,22,0,B|220:72|268:108,2,110,4|0|8
216,176,148715,1,0
296,212,149381,2,0,B|388:120|328:8,1,220,4|8
256,60,151382,1,0
180,16,152048,22,0,B|121:124|213:216,2,220,4|8|4
256,60,155382,1,0
340,28,156048,2,0,B|352:92|308:128,1,110,8|0
232,172,157382,6,0,B|372:152|420:268,2,220,4|8|0
156,216,160715,2,0,B|136:156|168:108,1,110,0|8
256,100,162048,1,0
304,172,162715,1,4
196,304,164048,6,0,B|288:388|400:328,1,220,8|4
340,264,166048,2,0,B|324:192|348:140,2,110,0|8|0
260,304,168048,6,0,B|228:208|272:84,1,220,4|8
192,48,170048,2,0,B|136:40|80:60,1,110,0|4
144,128,171382,1,0
60,152,172048,2,0,B|12:236|80:320|156:292,1,220,8|4
220,348,174048,5,0
300,308,174715,2,0,B|364:324|412:304,1,110
452,228,176048,2,0,B|344:268|236:224,2,220,4|8|0
256,192,178882,12,0,181382
