osu file format v13

[General]
AudioFilename: Hurts - Illuminated.mp3
AudioLeadIn: 0
PreviewTime: 42488
Countdown: 0
SampleSet: Soft
StackLeniency: 0.7
Mode: 0
LetterboxInBreaks: 1
WidescreenStoryboard: 0

[Editor]
Bookmarks: 37488,42821,64155,66821,88155,93488,114821,125488,134821,136155,157488,168155,178821
DistanceSpacing: 1.5
BeatDivisor: 4
GridSize: 4
TimelineZoom: 1.500001

[Metadata]
Title:Illuminated
TitleUnicode:Illuminated
Artist:Hurts
ArtistUnicode:Hurts
Creator:Autumn
Version:Normal
Source:
Tags:AMV Ao no Exorcist 青の祓魔師 Big Contest 2012 Ds-studio Sellenite Umika
BeatmapID:387163
BeatmapSetID:157801

[Difficulty]
HPDrainRate:3
CircleSize:3
OverallDifficulty:3
ApproachRate:4
SliderMultiplier:1.15
SliderTickRate:1

[Events]
//Background and Video events
0,0,"BG.jpg",0,0
Video,-1348,"Umika-Metamorphose.avi"
//Break Periods
2,37688,41501
2,88354,92168
//Storyboard Layer 0 (Background)
//Storyboard Layer 1 (Fail)
//Storyboard Layer 2 (Pass)
//Storyboard Layer 3 (Foreground)
//Storyboard Sound Samples
//Background Colour Transformations
3,100,163,162,255

[TimingPoints]
16155,666.666666666667,4,2,1,30,1,0
42821,-100,4,2,1,40,0,1
42988,-100,4,2,1,40,0,0
68155,-100,4,2,1,30,0,0
93488,-100,4,2,1,40,0,1
93655,-100,4,2,1,40,0,0
136155,-100,4,2,1,40,0,1
136321,-100,4,2,1,40,0,0
178821,-100,4,2,1,5,0,0

[Colours]
Combo1 : 145,196,192
Combo2 : 235,179,203
Combo3 : 252,251,246
Combo4 : 142,162,210

[HitObjects]
144,189,16154,6,0,P|187:184|230:188,1,86.25,2|0,0:0|0:0,0:0:0:0:
272,200,16821,1,0,0:0:0:0:
316,128,17154,1,0,0:0:0:0:
363,200,17488,2,0,P|400:126|360:53,1,172.5,8|0,0:0|0:0,0:0:0:0:
276,48,18821,6,0,B|232:48|232:48|192:60|192:60|152:60,1,115,2|0,0:0|0:0,0:0:0:0:
76,60,19821,1,0,0:0:0:0:
76,148,20154,2,0,B|140:148|140:148|172:172|172:172|256:172,1,172.5,8|0,0:0|0:0,0:0:0:0:
328,176,21488,6,0,P|360:204|372:260,1,86.25,2|2,0:0|0:0,0:0:0:0:
368,288,22154,1,0,0:0:0:0:
300,340,22488,1,0,0:0:0:0:
216,324,22821,2,0,P|178:250|218:178,1,172.5,8|0,0:0|0:0,0:0:0:0:
296,140,24154,6,0,L|296:48,2,86.25,2|2|0,0:0|0:0|0:0,0:0:0:0:
218,179,25488,2,0,B|178:187|146:179|114:147|114:147|114:211,1,172.5,8|0,0:0|0:0,0:0:0:0:
132,288,26821,6,0,P|92:296|40:284,2,86.25,2|2|0,0:0|0:0|0:0,0:0:0:0:
220,288,28154,2,0,P|224:256|216:224,1,57.5,8|0,0:0|0:0,0:0:0:0:
184,152,28821,2,0,P|180:124|192:80,1,57.5
232,24,29488,6,0,P|260:56|272:108,2,86.25,2|2|0,0:0|0:0|0:0,0:0:0:0:
144,32,30821,2,0,P|140:72|124:96,1,57.5,8|0,0:0|0:0,0:0:0:0:
80,156,31488,2,0,P|104:184|124:196,1,57.5
204,216,32155,2,0,P|216:260|208:300,2,86.25,2|2|0,0:0|0:0|0:0,0:0:0:0:
132,168,33488,2,0,P|192:132|252:144,1,115,8|0,0:0|0:0,0:0:0:0:
300,192,34488,1,0,0:0:0:0:
384,168,34821,6,0,L|476:168,2,86.25,2|2|0,0:0|0:0|0:0,0:0:0:0:
404,252,36155,2,0,L|461:252,1,57.5,8|0,0:0|0:0,0:0:0:0:
464,340,36821,2,0,L|406:340,1,57.5,0|0,0:0|0:0,0:0:0:0:
328,304,37488,1,4,0:0:0:0:
216,148,42821,6,0,L|148:148,2,57.5,2|0|0,0:0|0:0|0:0,0:0:0:0:
296,184,43821,1,0,0:0:0:0:
368,140,44155,2,0,L|368:83,2,57.5,8|0|0,0:0|0:0|0:0,0:0:0:0:
368,228,45155,1,0,0:0:0:0:
304,284,45488,6,0,P|264:292|216:284,2,86.25,2|2|0,0:0|0:0|0:0,0:0:0:0:
368,228,46821,2,0,P|388:268|388:304,1,57.5
364,364,47488,2,0,L|292:368,1,57.5
228,328,48155,6,0,P|216:284|236:228,2,86.25,2|2|0,0:0|0:0|0:0,0:0:0:0:
304,284,49488,2,0,L|132:284,1,172.5,8|2,0:0|0:0,0:0:0:0:
108,200,50821,2,0,L|212:200,2,86.25,2|2|0,0:0|0:0|0:0,0:0:0:0:
84,116,52155,2,0,B|156:72|156:72|268:72,1,172.5,8|2,0:0|0:0,0:0:0:0:
328,96,53488,6,0,P|320:140|336:204,1,86.25,2|0,0:0|0:0,0:0:0:0:
344,220,54155,2,0,P|348:256|340:296,1,57.5,0|0,0:0|0:0,0:0:0:0:
264,252,54821,2,0,L|136:252,1,115,8|0,0:0|0:0,0:0:0:0:
80,196,55821,1,2,0:0:0:0:
40,120,56155,2,0,P|84:112|136:128,2,86.25,2|2|0,0:0|0:0|0:0,0:0:0:0:
80,196,57488,6,0,P|164:200|212:120,1,172.5,8|0,0:0|0:0,0:0:0:0:
296,132,58821,2,0,P|324:180|364:196,1,86.25,2|0,0:0|0:0,0:0:0:0:
392,196,59488,2,0,P|428:192|464:200,1,57.5
448,280,60155,2,0,B|400:300|340:288|340:288|276:288,1,172.5,8|2,0:0|0:0,0:0:0:0:
208,244,61488,2,0,L|208:136,2,86.25,2|2|0,0:0|0:0|0:0,0:0:0:0:
120,240,62821,2,0,B|120:124|120:124|144:64,1,172.5,8|2,0:0|0:0,0:0:0:0:
256,192,64155,12,2,66821,0:0:0:0:
351,132,68155,6,0,P|341:175|352:234,1,86.25,8|0,0:0|0:0,0:0:0:0:
367,253,68821,1,0,0:0:0:0:
420,320,69155,1,0,0:0:0:0:
336,332,69488,2,0,P|296:340|252:332,2,86.25,2|2|0,0:0|0:0|0:0,0:0:0:0:
296,256,70821,2,0,B|248:236|208:252|188:272|188:272|188:204,1,172.5,8|0,0:0|0:0,0:0:0:0:
104,200,72155,6,0,L|104:296,2,86.25,2|2|0,0:0|0:0|0:0,0:0:0:0:
156,132,73488,2,0,P|152:100|160:60,2,57.5,8|0|0,0:0|0:0|0:0,0:0:0:0:
236,104,74488,1,0,0:0:0:0:
276,180,74821,6,0,P|321:190|372:176,1,86.25,2|2,0:0|0:0,0:0:0:0:
400,164,75488,2,0,P|432:180|456:220,1,57.5
404,272,76155,1,8,0:0:0:0:
328,316,76488,2,0,L|328:376,2,57.5,0|0|0,0:0|0:0|0:0,0:0:0:0:
240,316,77488,6,0,B|196:332|164:316|164:316|144:324|144:324|104:308|68:320,1,172.5,2|0,0:0|0:0,0:0:0:0:
64,232,78821,2,0,L|64:116,1,115,8|0,0:0|0:0,0:0:0:0:
144,88,79821,1,0,0:0:0:0:
212,144,80155,6,0,P|256:152|298:145,2,86.25,2|2|0,0:0|0:0|0:0,0:0:0:0:
172,220,81488,2,0,P|200:232|240:236,1,57.5,8|0,0:0|0:0,0:0:0:0:
312,233,82155,2,0,P|340:221|367:219,1,57.5,0|0,0:0|0:0,0:0:0:0:
443,179,82821,2,0,B|459:223|442:263|442:263|443:311,2,115,2|0|8,0:0|0:0|0:0,0:0:0:0:
380,120,84488,2,0,L|308:120,2,57.5
352,200,85488,6,0,L|252:200,2,86.25,2|2|0,0:0|0:0|0:0,0:0:0:0:
320,280,86821,2,0,B|248:280,1,57.5,8|0,0:0|0:0,0:0:0:0:
180,248,87488,2,0,P|175:278|180:312,2,57.5,0|0|4,0:0|0:0|0:0,0:0:0:0:
388,192,93488,6,0,B|348:200|348:200|304:192,2,86.25,2|2|0,0:0|0:0|0:0,0:0:0:0:
376,108,94821,2,0,L|312:108,1,57.5,8|0,0:0|0:0,0:0:0:0:
233,136,95488,2,0,L|176:136,1,57.5,0|0,0:0|0:0,0:0:0:0:
108,84,96155,6,0,B|64:76|64:76|20:84,2,86.25,2|2|0,0:0|0:0|0:0,0:0:0:0:
176,136,97488,2,0,L|176:204,1,57.5,8|0,0:0|0:0,0:0:0:0:
96,224,98155,2,0,L|96:166,1,57.5,0|2,0:0|0:0,0:0:0:0:
12,184,98821,6,0,P|8:256|24:284,1,86.25,2|0,0:0|0:0,0:0:0:0:
36,304,99488,2,0,P|72:308|104:320,1,57.5
164,264,100155,2,0,P|224:256|292:268,1,115,8|0,0:0|0:0,0:0:0:0:
344,320,101155,1,2,0:0:0:0:
416,272,101488,6,0,B|424:228|424:228|412:172,2,86.25,2|2|0,0:0|0:0|0:0,0:0:0:0:
340,228,102821,2,0,B|325:156|325:156|348:120|376:100|416:100,1,172.5,8|0,0:0|0:0,0:0:0:0:
356,28,104155,6,0,P|328:40|288:68,1,57.5,2|0,0:0|0:0,0:0:0:0:
248,116,104821,2,0,P|220:140|180:156,1,57.5
160,76,105488,2,0,P|132:100|120:136,1,57.5,8|0,0:0|0:0,0:0:0:0:
120,204,106155,2,0,P|136:232|160:256,1,57.5
240,236,106821,2,0,B|268:240|268:240|300:232|300:232|348:240,2,86.25,2|2|0,0:0|0:0|0:0,0:0:0:0:
204,316,108155,2,0,B|265:324|265:324|300:316|300:316|336:332|388:312,1,172.5,8|2,0:0|0:0,0:0:0:0:
460,304,109488,6,0,P|468:260|460:212,1,86.25,2|0,0:0|0:0,0:0:0:0:
432,188,110155,2,0,P|416:156|412:128,1,57.5
464,64,110821,2,0,B|428:40|384:44|384:44|352:80|296:96,1,172.5,8|2,0:0|0:0,0:0:0:0:
244,148,112155,2,0,P|200:156|148:144,2,86.25,2|2|0,0:0|0:0|0:0,0:0:0:0:
284,224,113488,2,0,P|200:244|116:224,1,172.5,8|2,0:0|0:0,0:0:0:0:
44,180,114821,6,0,P|32:224|44:268,2,86.25,2|2|0,0:0|0:0|0:0,0:0:0:0:
120,224,116155,2,0,B|136:268|124:304|100:328|100:328|168:328,1,172.5,0|2,0:0|0:0,0:0:0:0:
216,264,117488,2,0,L|312:264,2,86.25,2|2|0,0:0|0:0|0:0,0:0:0:0:
248,184,118821,2,0,L|384:184,1,115,8|0,0:0|0:0,0:0:0:0:
432,132,119821,1,2,0:0:0:0:
432,44,120155,6,0,P|488:64|512:96,2,86.25,2|2|0,0:0|0:0|0:0,0:0:0:0:
360,92,121488,2,0,P|356:164|452:212,1,172.5,8|2,0:0|0:0,0:0:0:0:
392,292,122821,2,0,P|348:280|292:280,1,86.25,2|0,0:0|0:0,0:0:0:0:
264,284,123488,1,0,0:0:0:0:
200,340,123821,1,0,0:0:0:0:
140,280,124155,2,0,P|144:248|136:212,1,57.5,8|0,0:0|0:0,0:0:0:0:
60,192,124821,2,0,P|56:160|64:120,1,57.5,0|2,0:0|0:0,0:0:0:0:
84,52,125488,6,0,P|128:84|144:124,2,86.25,2|2|0,0:0|0:0|0:0,0:0:0:0:
60,136,126821,2,0,P|112:192|216:156,1,172.5,8|2,0:0|0:0,0:0:0:0:
260,116,128155,6,0,P|281:78|317:56,2,86.25,2|2|0,0:0|0:0|0:0,0:0:0:0:
344,132,129488,2,0,L|464:132,1,115,8|0,0:0|0:0,0:0:0:0:
464,220,130488,1,2,0:0:0:0:
376,220,130821,2,0,P|388:268|416:296,2,86.25,2|2|0,0:0|0:0|0:0,0:0:0:0:
292,196,132155,6,0,L|168:196,1,115,8|0,0:0|0:0,0:0:0:0:
104,152,133155,1,2,0:0:0:0:
104,240,133488,2,0,L|104:340,2,86.25,2|2|0,0:0|0:0|0:0,0:0:0:0:
104,152,134821,6,0,B|124:124|156:112|156:112|184:132|224:140|276:128,1,172.5,0|0,0:0|0:0,0:0:0:0:
336,96,136155,2,0,P|343:133|336:164,1,57.5,2|0,0:0|0:0,0:0:0:0:
408,204,136821,2,0,P|384:224|352:236,1,57.5
280,260,137488,6,0,P|300:292|328:312,1,57.5,8|0,0:0|0:0,0:0:0:0:
396,332,138155,2,0,P|428:328|456:308,1,57.5,0|2,0:0|0:0,0:0:0:0:
488,240,138821,2,0,P|494:208|488:168,1,57.5,2|0,0:0|0:0,0:0:0:0:
420,136,139488,2,0,P|416:100|420:64,1,57.5
352,20,140155,6,0,B|324:80|336:132|336:132|308:108|280:100,1,172.5,8|2,0:0|0:0,0:0:0:0:
224,164,141488,2,0,P|264:184|312:224,2,86.25,2|2|0,0:0|0:0|0:0,0:0:0:0:
168,228,142821,2,0,P|216:272|268:292,1,115,8|0,0:0|0:0,0:0:0:0:
348,296,143821,1,2,0:0:0:0:
396,224,144155,2,0,P|404:184|380:128,2,86.25,2|2|0,0:0|0:0|0:0,0:0:0:0:
320,188,145488,6,0,P|240:168|156:192,1,172.5,8|2,0:0|0:0,0:0:0:0:
80,236,146821,2,0,L|80:304,1,57.5,2|0,0:0|0:0,0:0:0:0:
164,284,147488,2,0,L|164:352,1,57.5
248,328,148155,2,0,B|248:260|248:260|232:216|232:216|232:148,1,172.5,8|2,0:0|0:0,0:0:0:0:
320,160,149488,6,0,P|348:156|384:160,1,57.5,2|0,0:0|0:0,0:0:0:0:
380,244,150155,2,0,P|351:246|316:244,1,57.5
268,312,150821,2,0,P|352:332|440:312,1,172.5,8|2,0:0|0:0,0:0:0:0:
468,236,152155,6,0,L|468:140,2,86.25,2|2|0,0:0|0:0|0:0,0:0:0:0:
384,212,153488,2,0,L|384:72,1,115,8|0,0:0|0:0,0:0:0:0:
328,28,154488,1,2,0:0:0:0:
276,96,154821,2,0,P|232:104|184:92,2,86.25,2|2|0,0:0|0:0|0:0,0:0:0:0:
236,20,156155,6,0,L|236:212,1,172.5,8|2,0:0|0:0,0:0:0:0:
195,268,157488,2,0,P|238:279|280:267,2,86.25,2|2|0,0:0|0:0|0:0,0:0:0:0:
236,192,158821,2,0,P|309:189|364:279,1,172.5,8|2,0:0|0:0,0:0:0:0:
435,214,160155,2,0,P|439:166|471:130,2,86.25,2|2|0,0:0|0:0|0:0,0:0:0:0:
444,299,161488,6,0,P|400:347|296:331,1,172.5,8|2,0:0|0:0,0:0:0:0:
232,284,162821,2,0,P|188:276|132:288,2,86.25,2|2|0,0:0|0:0|0:0,0:0:0:0:
301,336,164155,2,0,P|321:276|256:199,1,172.5,8|2,0:0|0:0,0:0:0:0:
232,116,165488,2,0,L|148:80,2,86.25,2|2|0,0:0|0:0|0:0,0:0:0:0:
316,124,166821,6,0,L|381:78,1,57.5,8|0,0:0|0:0,0:0:0:0:
432,144,167488,2,0,L|384:176,1,57.5,0|2,0:0|0:0,0:0:0:0:
308,216,168155,2,0,P|300:264|320:324,2,86.25,2|2|0,0:0|0:0|0:0,0:0:0:0:
384,260,169488,6,0,P|392:296|356:372,1,115,8|0,0:0|0:0,0:0:0:0:
276,368,170488,1,2,0:0:0:0:
216,304,170821,2,0,P|172:296|120:312,2,86.25,2|2|0,0:0|0:0|0:0,0:0:0:0:
236,220,172155,6,0,P|251:177|328:136,1,115,8|0,0:0|0:0,0:0:0:0:
324,224,173155,1,2,0:0:0:0:
348,308,173488,2,0,P|396:316|436:308,2,86.25,2|2|0,0:0|0:0|0:0,0:0:0:0:
260,304,174821,6,0,P|232:300|192:308,1,57.5,8|0,0:0|0:0,0:0:0:0:
116,304,175488,2,0,P|88:308|48:300,1,57.5,0|2,0:0|0:0,0:0:0:0:
88,224,176155,2,0,L|88:132,2,86.25,2|2|0,0:0|0:0|0:0,0:0:0:0:
176,228,177488,2,0,L|176:136,2,86.25,8|0|0,0:0|0:0|0:0,0:0:0:0:
256,192,178821,12,0,182821,0:0:0:0:
256,192,184155,12,4,188155,0:0:0:0:
