osu file format v13

[General]
AudioFilename: Hurts - Illuminated.mp3
AudioLeadIn: 0
PreviewTime: 42488
Countdown: 0
SampleSet: Soft
StackLeniency: 0.7
Mode: 0
LetterboxInBreaks: 1
WidescreenStoryboard: 0

[Editor]
Bookmarks: 37488,42821,64155,66821,88155,93488,114821,125488,134821,136155,157488,168155,178821
DistanceSpacing: 0.5
BeatDivisor: 4
GridSize: 4
TimelineZoom: 3.3

[Metadata]
Title:Illuminated
TitleUnicode:Illuminated
Artist:Hurts
ArtistUnicode:Hurts
Creator:Autumn
Version:Insane
Source:
Tags:AMV Ao no Exorcist 青の祓魔師 Big Contest 2012 Ds-studio Sellenite Umika
BeatmapID:386244
BeatmapSetID:157801

[Difficulty]
HPDrainRate:6
CircleSize:4
OverallDifficulty:7
ApproachRate:8.6
SliderMultiplier:2.4
SliderTickRate:1

[Events]
//Background and Video events
0,0,"BG.jpg",0,0
Video,-1348,"Umika-Metamorphose.avi"
//Break Periods
2,40355,42162
2,91021,92829
//Storyboard Layer 0 (Background)
//Storyboard Layer 1 (Fail)
//Storyboard Layer 2 (Pass)
//Storyboard Layer 3 (Foreground)
//Storyboard Sound Samples
//Background Colour Transformations
3,100,163,162,255

[TimingPoints]
16155,666.666666666667,4,2,1,30,1,0
35488,-200,4,2,1,20,0,0
36155,-200,4,2,1,20,0,0
37488,-200,4,2,1,10,0,0
42821,-100,4,2,1,40,0,1
42988,-100,4,2,1,40,0,0
64155,-100,4,2,1,30,0,0
64821,-100,4,2,1,20,0,0
65488,-100,4,2,1,10,0,0
66155,-100,4,2,1,5,0,0
66821,-100,4,2,1,30,0,0
88155,-200,4,2,1,10,0,0
93488,-100,4,2,1,40,0,1
93655,-100,4,2,1,40,0,0
134821,-133.333333333333,4,2,1,40,0,0
136155,-100,4,2,1,40,0,1
136321,-100,4,2,1,40,0,0
178821,-100,4,2,1,5,0,0

[Colours]
Combo1 : 145,196,192
Combo2 : 235,179,203
Combo3 : 252,251,246
Combo4 : 142,162,210

[HitObjects]
105,183,16154,6,0,B|167:171|167:171|183:197|220:207,1,120,2|0,0:0|0:0,0:0:0:0:
240,132,16654,2,0,P|216:187|212:246,1,120,2|0,0:0|0:0,0:0:0:0:
292,312,17154,2,0,P|296:280|292:248,1,60
240,132,17488,2,0,B|272:148|288:176|288:176|408:188,1,180,8|0,0:0|0:0,0:0:0:0:
484,148,18154,2,0,P|436:164|364:144,1,120
428,80,18654,1,0,0:0:0:0:
484,148,18821,6,0,L|448:280,1,120,2|0,0:0|0:0,0:0:0:0:
400,188,19321,2,0,L|368:303,1,120,2|0,0:0|0:0,0:0:0:0:
283,332,19821,2,0,P|253:335|224:331,1,60
151,292,20154,2,0,P|197:254|256:256,2,120,8|0|0,0:0|0:0|0:0,0:0:0:0:
288,80,21154,2,0,P|288:116|300:156,1,60
368,184,21488,6,0,P|352:252|248:248,1,180,2|2,0:0|0:0,0:0:0:0:
84,207,22154,2,0,P|137:182|196:192,1,120
92,296,22654,1,0,0:0:0:0:
92,296,22821,2,0,P|160:304|228:248,2,120,8|0|0,0:0|0:0|0:0,0:0:0:0:
240,104,23821,1,0,0:0:0:0:
460,160,24154,6,0,B|428:212|428:212|372:244,1,120,2|0,0:0|0:0,0:0:0:0:
380,368,24654,2,0,B|408:316|408:316|468:284,1,120,2|0,0:0|0:0,0:0:0:0:
252,228,25154,1,0,0:0:0:0:
252,228,25488,2,0,L|120:228,2,120,8|0|0,0:0|0:0|0:0,0:0:0:0:
92,316,26488,1,0,0:0:0:0:
148,92,26821,6,0,P|192:128|260:140,1,120,2|0,0:0|0:0,0:0:0:0:
344,112,27321,1,2,0:0:0:0:
412,172,27488,2,0,P|424:232|400:312,2,120,0|0|8,0:0|0:0|0:0,0:0:0:0:
268,284,28488,2,0,P|351:229|263:182,1,240
192,236,29321,1,0,0:0:0:0:
192,236,29488,6,0,P|132:248|60:216,1,120,2|0,0:0|0:0,0:0:0:0:
264,184,29988,2,0,P|320:165|378:177,1,120,2|0,0:0|0:0,0:0:0:0:
412,260,30488,1,0,0:0:0:0:
264,184,30821,2,0,P|296:128|368:100,2,120,8|0|0,0:0|0:0|0:0,0:0:0:0:
92,128,31821,2,0,P|120:148|144:157,1,60
80,220,32155,6,0,P|112:176|180:148,1,120,2|0,0:0|0:0,0:0:0:0:
228,216,32654,1,2,0:0:0:0:
280,296,32821,2,0,B|316:284|340:268|360:220|360:220|360:256|372:288,1,180
460,300,33488,2,0,P|436:240|440:172,2,120,8|0|0,0:0|0:0|0:0,0:0:0:0:
296,84,34488,1,0,0:0:0:0:
132,156,34821,6,0,B|76:183|76:183|64:226|76:248,1,120,2|0,0:0|0:0,0:0:0:0:
156,276,35321,1,2,0:0:0:0:
132,156,35488,6,0,L|152:80,2,60,0|0|8,0:0|0:0|0:0,0:0:0:0:
395,269,36488,2,0,L|380:328,2,60
256,192,37488,5,4,0:0:0:0:
256,192,37655,12,0,40155,0:0:0:0:
330,152,42821,6,0,L|410:184,2,60,2|0|0,0:0|0:0|0:0,0:0:0:0:
439,220,43321,1,2,0:0:0:0:
439,220,43488,2,0,L|320:236,1,120
188,196,43988,1,0,0:0:0:0:
188,196,44155,2,0,L|247:187,1,60,8|0,0:0|0:0,0:0:0:0:
201,299,44488,2,0,L|146:322,1,60
212,116,44821,2,0,L|268:93,1,60
280,332,45154,2,0,L|234:370,1,60,0|0,0:0|0:0,0:0:0:0:
144,147,45488,6,0,P|184:196|236:224,1,120,2|0,0:0|0:0,0:0:0:0:
34,188,45988,2,0,P|93:178|144:147,1,120,2|0,0:0|0:0,0:0:0:0:
296,232,46488,2,0,L|232:224,1,60
144,147,46821,2,0,L|182:101,1,60,8|0,0:0|0:0,0:0:0:0:
320,177,47155,2,0,L|296:232,1,60
183,100,47488,2,0,L|179:36,1,60
296,232,47821,2,0,L|299:291,1,60,0|0,0:0|0:0,0:0:0:0:
380,336,48155,6,0,P|448:340|500:312,1,120,2|0,0:0|0:0,0:0:0:0:
300,292,48655,2,0,P|232:280|176:292,1,120,2|0,0:0|0:0,0:0:0:0:
64,366,49155,2,0,P|96:354|116:338,1,60
183,290,49488,2,0,P|73:209|116:338,1,360,8|0,0:0|0:0,0:0:0:0:
183,290,50655,1,0,0:0:0:0:
295,179,50821,6,0,P|351:200|392:244,1,120,2|0,0:0|0:0,0:0:0:0:
300,296,51321,2,0,P|286:238|296:180,1,120,2|0,0:0|0:0,0:0:0:0:
392,244,51821,2,0,L|429:290,1,60,0|0,0:0|0:0,0:0:0:0:
232,326,52155,2,0,L|183:290,1,60,8|0,0:0|0:0,0:0:0:0:
296,180,52488,2,0,L|288:120,1,60
392,244,52821,2,0,L|400:312,1,60
456,152,53155,2,0,L|465:92,1,60,0|0,0:0|0:0,0:0:0:0:
392,244,53488,6,0,P|333:252|277:232,1,120,2|0,0:0|0:0,0:0:0:0:
100,212,53988,2,0,P|152:183|211:184,1,120,2|0,0:0|0:0,0:0:0:0:
72,195,54488,2,0,L|80:136,1,60
45,64,54821,2,0,L|123:225,1,180,8|0,0:0|0:0,0:0:0:0:
68,300,55488,2,0,L|-4:312,1,60
168,136,55821,2,0,L|227:126,1,60
322,277,56155,6,0,L|440:300,1,120,2|0,0:0|0:0,0:0:0:0:
492,240,56655,2,0,L|364:296,1,120,2|0,0:0|0:0,0:0:0:0:
417,355,57155,2,0,L|440:300,1,60
400,104,57488,2,0,L|392:163,1,60,8|0,0:0|0:0,0:0:0:0:
288,328,57821,2,0,L|279:268,1,60
228,102,58155,2,0,P|235:131|252:157,1,60
338,277,58488,2,0,P|310:269|278:270,1,60
184,252,58821,6,0,P|228:212|253:154,1,120,2|0,0:0|0:0,0:0:0:0:
153,219,59321,2,0,P|165:299|193:331,1,120,2|0,0:0|0:0,0:0:0:0:
80,236,59821,2,0,P|111:217|136:180,1,60
48,84,60155,2,0,B|40:156|120:216|207:213|207:213|80:236,1,360,8|0,0:0|0:0,0:0:0:0:
40,316,61321,1,0,0:0:0:0:
40,316,61488,6,0,L|172:332,1,120,2|0,0:0|0:0,0:0:0:0:
352,264,61988,2,0,L|204:292,1,120,2|0,0:0|0:0,0:0:0:0:
368,176,62488,2,0,L|444:184,1,60
236,288,62821,2,0,L|179:266,1,60,8|0,0:0|0:0,0:0:0:0:
400,152,63155,2,0,L|448:187,1,60
232,256,63488,2,0,L|194:209,1,60
432,136,63821,2,0,L|457:191,1,60
256,192,64155,12,0,66488,0:0:0:0:
392,176,66821,6,0,P|368:236|304:280,1,120,2|0,0:0|0:0,0:0:0:0:
240,252,67321,1,2,0:0:0:0:
240,252,67488,2,0,P|176:236|104:248,2,120,0|0|8,0:0|0:0|0:0,0:0:0:0:
88,152,68488,2,0,P|72:184|48:208,1,60
64,56,68821,2,0,P|124:80|188:68,1,120
420,152,69488,6,0,P|416:208|380:264,1,120,2|0,0:0|0:0,0:0:0:0:
348,120,69988,2,0,P|372:180|440:216,1,120,2|0,0:0|0:0,0:0:0:0:
296,212,70488,2,0,L|220:220,1,60
156,176,70821,2,0,P|169:118|216:83,1,120,8|0,0:0|0:0,0:0:0:0:
296,212,71321,1,0,0:0:0:0:
196,300,71488,2,0,P|260:304|316:328,1,120
155,175,72155,6,0,P|96:172|40:193,1,120,2|0,0:0|0:0,0:0:0:0:
196,300,72655,1,2,0:0:0:0:
312,268,72821,2,0,L|440:248,1,120
352,72,73488,2,0,P|368:136|332:212,1,120,8|0,0:0|0:0,0:0:0:0:
232,168,73988,2,0,P|252:146|280:134,1,60
40,228,74488,1,0,0:0:0:0:
232,168,74821,6,0,P|276:200|344:208,1,120,2|0,0:0|0:0,0:0:0:0:
250,281,75321,2,0,P|255:222|232:168,1,120,2|0,0:0|0:0,0:0:0:0:
152,212,75821,2,0,P|152:248|164:280,1,60
250,281,76155,2,0,P|314:277|375:306,1,120,8|0,0:0|0:0,0:0:0:0:
432,240,76655,2,0,P|408:224|384:184,1,60
472,40,77155,1,0,0:0:0:0:
292,180,77488,6,0,B|248:192|216:176|216:176|192:184|192:184|152:168|112:184,1,180,2|2,0:0|0:0,0:0:0:0:
152,264,78155,1,0,0:0:0:0:
264,100,78488,2,0,P|300:96|336:104,1,60
212,164,78821,2,0,P|228:232|272:260,1,120,8|0,0:0|0:0,0:0:0:0:
352,224,79321,1,0,0:0:0:0:
440,240,79488,2,0,P|472:296|468:352,2,120,0|0|2,0:0|0:0|0:0,0:0:0:0:
132,320,80488,6,0,L|64:296,1,60,0|2,0:0|0:0,0:0:0:0:
87,213,80821,2,0,P|96:272|132:320,1,120
8,160,81488,2,0,P|60:128|128:128,1,120,8|0,0:0|0:0,0:0:0:0:
192,176,81988,1,0,0:0:0:0:
244,248,82155,2,0,B|288:248|288:248|320:216|312:176,1,120
152,320,82821,6,0,L|292:340,1,120,2|0,0:0|0:0,0:0:0:0:
244,248,83321,1,2,0:0:0:0:
236,160,83488,2,0,P|260:100|320:60,1,120
423,235,84155,2,0,P|371:206|312:200,1,120,8|0,0:0|0:0,0:0:0:0:
111,230,84655,2,0,P|140:223|168:212,1,60
36,336,85155,1,0,0:0:0:0:
44,80,85488,6,0,P|108:84|168:128,1,120,2|0,0:0|0:0,0:0:0:0:
200,188,85988,1,2,0:0:0:0:
112,196,86155,1,0,0:0:0:0:
268,284,86488,1,0,0:0:0:0:
232,88,86821,1,8,0:0:0:0:
72,304,87155,1,0,0:0:0:0:
328,212,87488,1,0,0:0:0:0:
120,104,87821,1,0,0:0:0:0:
256,192,88155,5,4,0:0:0:0:
256,192,88321,12,0,90821,0:0:0:0:
379,137,93488,6,0,L|320:140,2,60,2|0|0,0:0|0:0|0:0,0:0:0:0:
244,192,93988,1,2,0:0:0:0:
244,192,94155,2,0,L|172:176,1,60
280,292,94488,2,0,L|333:319,1,60
257,133,94821,6,0,L|244:192,1,60,8|0,0:0|0:0,0:0:0:0:
92,289,95154,2,0,L|120:236,1,60
88,52,95488,2,0,P|99:81|115:105,1,60
147,288,95821,2,0,P|137:260|120:236,1,60
195,151,96155,6,0,P|254:163|314:157,1,120,2|0,0:0|0:0,0:0:0:0:
118,236,96655,2,0,P|167:203|195:151,1,120,2|0,0:0|0:0,0:0:0:0:
156,20,97155,2,0,P|160:64|190:115,1,60
268,240,97488,1,0,0:0:0:0:
256,212,97655,1,0,0:0:0:0:
300,80,97821,1,0,0:0:0:0:
305,111,97988,1,0,0:0:0:0:
392,188,98155,1,0,0:0:0:0:
396,157,98322,1,0,0:0:0:0:
372,28,98488,2,0,P|380:60|392:84,1,60
443,317,98821,6,0,P|468:263|468:203,1,120,2|0,0:0|0:0,0:0:0:0:
204,176,99321,2,0,P|240:224|292:257,1,120,2|0,0:0|0:0,0:0:0:0:
344,132,99821,2,0,L|286:149,1,60,0|0,0:0|0:0,0:0:0:0:
233,274,100155,2,0,L|290:256,1,60,8|0,0:0|0:0,0:0:0:0:
343,132,100488,2,0,P|333:159|330:189,1,60
225,333,100821,2,0,P|234:304|234:275,1,60
148,156,101155,2,0,L|212:180,1,60
96,308,101488,6,0,L|39:286,2,60,2|0|0,0:0|0:0|0:0,0:0:0:0:
240,228,101988,1,2,0:0:0:0:
240,228,102155,2,0,L|183:206,1,60,0|0,0:0|0:0,0:0:0:0:
390,139,102488,2,0,L|333:117,1,60,0|0,0:0|0:0,0:0:0:0:
412,28,102821,2,0,L|376:216,1,180,8|0,0:0|0:0,0:0:0:0:
312,144,103488,2,0,P|292:120|280:76,1,60
510,150,103821,2,0,P|488:170|461:183,1,60
236,227,104155,6,0,P|190:182|179:116,1,120,2|0,0:0|0:0,0:0:0:0:
312,144,104655,2,0,P|287:197|236:227,1,120,2|0,0:0|0:0,0:0:0:0:
266,71,105155,2,0,L|336:56,1,60
192,128,105488,2,0,L|133:140,1,60,8|0,0:0|0:0,0:0:0:0:
48,244,105821,2,0,L|106:231,1,60
72,84,106155,2,0,P|57:112|53:140,1,60
168,280,106488,2,0,P|182:255|186:223,1,60
92,320,106821,6,0,P|144:360|228:336,1,120,2|0,0:0|0:0,0:0:0:0:
420,320,107321,2,0,P|368:360|284:336,1,120,2|0,0:0|0:0,0:0:0:0:
256,292,107821,2,0,L|256:232,1,60
348,208,108155,2,0,L|332:265,1,60,8|0,0:0|0:0,0:0:0:0:
179,266,108488,2,0,L|164:208,1,60
331,150,108821,2,0,L|347:209,1,60
164,208,109154,2,0,L|179:150,1,60
308,72,109488,6,0,P|256:88|192:68,1,120,2|0,0:0|0:0,0:0:0:0:
65,149,109988,2,0,P|121:132|178:151,1,120,2|0,0:0|0:0,0:0:0:0:
112,56,110488,2,0,P|76:52|44:32,1,60
128,216,110821,2,0,P|164:220|196:240,1,60,8|0,0:0|0:0,0:0:0:0:
260,324,111155,2,0,P|230:321|203:309,1,60
272,188,111488,2,0,P|268:224|248:256,1,60
112,356,111822,2,0,P|114:326|126:299,1,60
75,241,112155,6,0,L|112:356,1,120,2|0,0:0|0:0,0:0:0:0:
96,168,112655,2,0,L|59:282,1,120,2|0,0:0|0:0,0:0:0:0:
32,112,113155,2,0,P|60:92|92:80,1,60
204,72,113488,2,0,P|180:88|154:118,1,60,8|0,0:0|0:0,0:0:0:0:
232,188,113821,2,0,P|248:168|264:138,1,60
364,204,114155,2,0,P|352:232|344:269,1,60
484,296,114488,2,0,P|488:268|487:237,1,60
336,88,114821,6,0,L|364:204,1,120,2|0,0:0|0:0,0:0:0:0:
436,68,115321,2,0,P|384:104|349:150,1,120,2|0,0:0|0:0,0:0:0:0:
494,81,115821,2,0,L|436:68,1,60
280,64,116155,5,0,0:0:0:0:
252,52,116321,1,0,0:0:0:0:
132,52,116488,1,0,0:0:0:0:
104,60,116655,1,0,0:0:0:0:
80,160,116821,1,0,0:0:0:0:
56,176,116987,1,0,0:0:0:0:
140,256,117155,1,0,0:0:0:0:
128,284,117321,1,0,0:0:0:0:
259,264,117488,6,0,P|308:231|368:224,1,120,2|0,0:0|0:0,0:0:0:0:
232,144,117988,2,0,P|260:192|312:231,1,120,2|0,0:0|0:0,0:0:0:0:
247,85,118488,2,0,L|232:143,1,60
236,306,118822,2,0,P|246:277|250:247,1,60,8|0,0:0|0:0,0:0:0:0:
172,192,119155,2,0,P|169:223|173:251,1,60,0|0,0:0|0:0,0:0:0:0:
308,328,119488,2,0,P|301:300|285:272,1,60,0|0,0:0|0:0,0:0:0:0:
96,196,119821,2,0,P|108:222|131:247,1,60,0|0,0:0|0:0,0:0:0:0:
416,277,120155,6,0,L|308:328,1,120,2|0,0:0|0:0,0:0:0:0:
448,200,120655,2,0,P|492:248|492:316,1,120,2|0,0:0|0:0,0:0:0:0:
368,204,121155,2,0,P|372:172|388:144,1,60
272,184,121488,5,8,0:0:0:0:
244,196,121655,1,0,0:0:0:0:
66,201,121821,1,0,0:0:0:0:
96,196,121988,1,0,0:0:0:0:
208,280,122155,1,0,0:0:0:0:
179,291,122322,1,0,0:0:0:0:
244,196,122488,2,0,P|240:161|228:124,1,60
125,85,122821,6,0,P|95:136|96:196,1,120,2|0,0:0|0:0,0:0:0:0:
262,296,123321,2,0,P|319:280|359:236,1,120,2|0,0:0|0:0,0:0:0:0:
396,120,123821,2,0,L|431:168,1,60
382,292,124155,2,0,L|360:236,1,60,8|0,0:0|0:0,0:0:0:0:
416,60,124488,2,0,L|438:116,1,60
447,339,124821,2,0,L|472:284,1,60
324,184,125155,2,0,L|315:243,1,60
145,329,125488,6,0,P|204:336|260:316,1,120,2|0,0:0|0:0,0:0:0:0:
278,197,125988,2,0,L|260:316,1,120,2|0,0:0|0:0,0:0:0:0:
191,219,126488,2,0,L|201:160,1,60
72,128,126821,2,0,L|118:166,2,60,8|0|0,0:0|0:0|0:0,0:0:0:0:
216,72,127321,1,0,0:0:0:0:
216,72,127488,2,0,L|159:93,1,60
191,220,127821,2,0,P|223:232|243:248,1,60
136,324,128155,6,0,P|77:317|36:276,1,120,2|0,0:0|0:0,0:0:0:0:
160,142,128655,2,0,P|116:181|112:240,1,120,2|0,0:0|0:0,0:0:0:0:
252,252,129155,2,0,P|288:244|328:248,1,60
462,340,129488,2,0,P|433:338|404:328,1,60,8|0,0:0|0:0,0:0:0:0:
240,220,129821,2,0,P|272:204|312:196,1,60
464,179,130155,2,0,P|446:205|424:224,1,60
370,357,130488,2,0,P|366:328|352:300,1,60
232,192,130821,6,0,L|272:320,1,120,2|0,0:0|0:0,0:0:0:0:
248,120,131321,2,0,P|232:192|196:240,1,120,2|0,0:0|0:0,0:0:0:0:
96,304,131821,2,0,P|124:295|154:294,1,60
237,337,132155,2,0,B|184:334|136:306|111:246|88:178|88:178|99:246|96:304,1,360,8|0,0:0|0:0,0:0:0:0:
16,348,133321,1,0,0:0:0:0:
96,304,133488,6,0,P|160:308|216:280,1,120,2|0,0:0|0:0,0:0:0:0:
396,328,133988,2,0,P|332:324|276:352,1,120,2|0,0:0|0:0,0:0:0:0:
276,256,134488,2,0,P|276:216|288:184,1,60
347,112,134821,6,0,B|323:149|321:206|361:284|361:284|309:257|276:256,1,270.000010299683,0|0,0:0|0:0,0:0:0:0:
432,120,136155,6,0,P|412:196|444:248,1,120,2|0,0:0|0:0,0:0:0:0:
228,152,136655,1,2,0:0:0:0:
228,152,136821,2,0,L|285:135,1,60
112,252,137155,2,0,L|171:251,1,60
16,176,137488,2,0,B|36:220|36:220|24:248|32:288|48:300,1,120,8|0,0:0|0:0,0:0:0:0:
92,96,137988,1,0,0:0:0:0:
92,96,138155,2,0,L|66:41,1,60
204,72,138488,2,0,L|194:13,1,60
364,160,138821,6,0,P|304:176|244:156,1,120,2|0,0:0|0:0,0:0:0:0:
232,264,139321,2,0,P|273:194|311:175,1,120,2|0,0:0|0:0,0:0:0:0:
164,232,139821,2,0,P|185:261|194:304,1,60
109,299,140155,2,0,L|132:120,1,180,8|0,0:0|0:0,0:0:0:0:
80,212,140821,2,0,L|23:230,1,60
132,120,141155,2,0,L|189:102,1,60
412,288,141488,6,0,L|272:264,1,120,2|0,0:0|0:0,0:0:0:0:
464,236,141988,2,0,L|330:285,1,120,2|0,0:0|0:0,0:0:0:0:
400,168,142488,2,0,P|372:152|354:131,1,60,0|0,0:0|0:0,0:0:0:0:
442,14,142821,2,0,B|446:65|414:117|350:143|278:149|278:149|400:168,1,360,8|0,0:0|0:0,0:0:0:0:
496,240,143988,1,0,0:0:0:0:
496,240,144155,6,0,P|437:239|377:255,1,120,2|0,0:0|0:0,0:0:0:0:
252,332,144655,2,0,P|316:356|420:356,1,120,2|0,0:0|0:0,0:0:0:0:
216,256,145155,2,0,P|184:252|124:264,1,60
56,336,145488,2,0,P|84:344|115:346,1,60,8|0,0:0|0:0,0:0:0:0:
216,256,145821,2,0,P|206:232|184:204,1,60,0|0,0:0|0:0,0:0:0:0:
48,128,146155,2,0,P|60:160|100:203,1,60
216,256,146488,2,0,P|224:224|255:172,1,60
323,211,146821,6,0,P|265:222|216:256,1,120,2|0,0:0|0:0,0:0:0:0:
340,248,147321,2,0,P|359:191|355:132,1,120,2|0,0:0|0:0,0:0:0:0:
413,271,147821,2,0,P|383:276|356:288,1,60
495,347,148155,2,0,P|442:322|413:271,1,120,8|0,0:0|0:0,0:0:0:0:
408,120,148655,1,0,0:0:0:0:
408,120,148821,2,0,P|444:112|472:112,2,60
184,196,149321,1,0,0:0:0:0:
184,196,149488,6,0,P|240:216|299:207,1,120,2|0,0:0|0:0,0:0:0:0:
91,191,149988,2,0,P|143:162|202:163,1,120,2|0,0:0|0:0,0:0:0:0:
52,224,150488,2,0,L|32:160,1,60
91,110,150821,2,0,L|52:224,1,120,8|0,0:0|0:0,0:0:0:0:
132,324,151321,1,0,0:0:0:0:
132,324,151488,2,0,L|192:344,1,60
308,328,151821,2,0,L|364:346,1,60
252,220,152155,6,0,P|232:280|244:360,1,120,2|0,0:0|0:0,0:0:0:0:
328,192,152655,2,0,P|268:216|188:208,1,120,2|0,0:0|0:0,0:0:0:0:
344,248,153155,2,0,P|352:220|384:196,1,60
456,199,153488,2,0,P|451:343|344:248,1,360,8|0,0:0|0:0,0:0:0:0:
420,268,154655,1,0,0:0:0:0:
420,268,154821,6,0,P|368:320|316:320,1,120,2|0,0:0|0:0,0:0:0:0:
240,236,155321,2,0,L|252:364,1,120,2|0,0:0|0:0,0:0:0:0:
149,203,155821,2,0,L|144:144,1,60
88,272,156155,2,0,P|64:292|36:304,2,60,8|0|0,0:0|0:0|0:0,0:0:0:0:
240,236,156655,1,0,0:0:0:0:
240,236,156821,2,0,P|264:260|280:288,1,60
150,349,157155,2,0,P|167:324|176:296,1,60
220,136,157488,6,0,L|372:128,1,120,2|0,0:0|0:0,0:0:0:0:
120,120,157988,2,0,L|264:72,1,120,2|0,0:0|0:0,0:0:0:0:
75,80,158488,2,0,P|101:96|120:120,1,60
143,255,158821,2,0,P|158:229|164:200,2,60,8|0|0,0:0|0:0|0:0,0:0:0:0:
284,320,159321,1,0,0:0:0:0:
284,320,159488,2,0,P|254:317|224:321,1,60
348,200,159821,2,0,P|353:229|368:255,1,60
349,90,160155,6,0,P|407:81|454:45,1,120,2|0,0:0|0:0,0:0:0:0:
349,90,160655,2,0,P|327:144|347:199,1,120,2|0,0:0|0:0,0:0:0:0:
248,136,161155,2,0,P|220:144|192:160,2,60,0|0|8,0:0|0:0|0:0,0:0:0:0:
108,168,161655,1,0,0:0:0:0:
108,168,161821,2,0,P|79:159|53:143,1,60
64,252,162155,2,0,P|70:281|70:311,1,60
156,252,162488,2,0,P|178:231|204:217,1,60
396,336,162821,6,0,P|336:342|280:323,1,120,2|0,0:0|0:0,0:0:0:0:
448,280,163321,2,0,P|416:344|360:376,1,120,2|0,0:0|0:0,0:0:0:0:
444,196,163821,2,0,P|473:199|500:212,1,60
278,244,164155,2,0,B|354:258|399:209|414:149|394:87|394:87|408:151|444:196,1,360,8|0,0:0|0:0,0:0:0:0:
508,260,165321,1,0,0:0:0:0:
444,196,165488,6,0,P|448:124|480:60,1,120,2|0,0:0|0:0,0:0:0:0:
329,128,165988,2,0,P|387:142|446:136,1,120,2|0,0:0|0:0,0:0:0:0:
296,48,166488,2,0,P|264:72|248:100,1,60
208,264,166821,2,0,P|232:232|240:201,2,60,8|0|0,0:0|0:0|0:0,0:0:0:0:
120,104,167321,1,0,0:0:0:0:
120,104,167488,2,0,P|152:116|176:136,1,60
339,131,167821,2,0,P|363:113|392:103,1,60
292,196,168155,6,0,P|288:256|312:316,1,120,2|0,0:0|0:0,0:0:0:0:
339,132,168655,2,0,P|323:216|287:256,1,120,2|0,0:0|0:0,0:0:0:0:
156,296,169155,2,0,P|188:308|216:328,1,60
52,172,169488,2,0,P|78:150|109:136,1,60,8|0,0:0|0:0,0:0:0:0:
179,216,169821,2,0,P|152:220|120:220,2,60
332,261,170321,1,0,0:0:0:0:
332,260,170488,2,0,P|323:288|308:314,1,60
238,85,170821,6,0,P|240:145|264:200,1,120,2|0,0:0|0:0,0:0:0:0:
443,295,171321,2,0,P|391:266|332:260,1,120,2|0,0:0|0:0,0:0:0:0:
196,320,171821,2,0,P|222:305|242:283,1,60
57,322,172155,2,0,P|86:331|116:332,2,60,8|0|0,0:0|0:0|0:0,0:0:0:0:
244,180,172655,1,0,0:0:0:0:
244,180,172821,2,0,P|280:188|312:204,1,60
112,245,173155,2,0,P|140:234|164:216,1,60
328,52,173488,6,0,P|345:108|385:153,1,120,2|0,0:0|0:0,0:0:0:0:
232,280,173988,2,0,P|272:236|291:180,1,120,2|0,0:0|0:0,0:0:0:0:
421,231,174488,2,0,P|451:232|480:240,1,60
472,116,174821,2,0,B|432:172|420:230|420:230|424:160|400:96|348:60|296:52,1,360,8|0,0:0|0:0,0:0:0:0:
212,72,175988,1,0,0:0:0:0:
152,136,176155,6,0,P|144:200|172:260,1,120,2|0,0:0|0:0,0:0:0:0:
212,72,176655,2,0,P|232:140|216:192,1,120,2|0,0:0|0:0,0:0:0:0:
72,232,177155,1,0,0:0:0:0:
164,252,177321,1,0,0:0:0:0:
72,232,177488,6,0,P|40:248|8:276,1,60,8|0,0:0|0:0,0:0:0:0:
164,252,177821,2,0,P|199:244|237:226,1,60
340,144,178155,2,0,P|304:141|262:150,1,60
368,288,178488,2,0,P|401:299|444:302,1,60
256,192,178821,12,0,183488,0:0:0:0:
256,192,184155,12,4,188155,0:0:0:0:
