osu file format v9

[General]
AudioFilename: Hello 2.mp3
AudioLeadIn: 0
PreviewTime: 65700
Countdown: 0
SampleSet: Soft
StackLeniency: 0.7
Mode: 0
LetterboxInBreaks: 0

[Editor]
Bookmarks: 78692
DistanceSpacing: 1.2
BeatDivisor: 4
GridSize: 4

[Metadata]
Title:Hello Mr. my yesterday
Artist:Hundred Percent Free
Creator:Nivalis
Version:Hard
Source:Detective Conan
Tags:Ain053 Aoitenshi

[Difficulty]
HPDrainRate:6
CircleSize:4
OverallDifficulty:7
ApproachRate:7
SliderMultiplier:1.7
SliderTickRate:0.5

[Events]
//Background and Video events
0,0,"bg.jpg"
Video,0,"VidHr.flv"
//Break Periods
2,22762,29843
2,88216,95298
//Storyboard Layer 0 (Background)
//Storyboard Layer 1 (Fail)
//Storyboard Layer 2 (Pass)
//Storyboard Layer 3 (Foreground)
//Storyboard Sound Samples
//Background Colour Transformations
3,100,163,162,255

[TimingPoints]
744,681.818181818182,4,2,1,51,1,0
8925,-100,4,2,1,51,0,1
9096,-100,4,2,1,51,0,0
22221,-100,4,2,1,30,0,0
22306,-100,4,2,1,50,0,0
22476,-100,4,2,1,23,0,0
30062,-100,4,2,1,51,0,0
63300,-100,4,2,1,11,0,0
63641,-100,4,2,1,21,0,0
63982,-100,4,2,1,30,0,0
64323,-100,4,2,1,41,0,0
64664,-100,4,2,1,51,0,0
66205,-100,4,2,1,51,0,1
88016,-100,4,2,1,51,0,0
122619,-50,4,2,1,51,0,0
123641,-100,4,2,1,51,0,0
125346,-50,4,2,1,51,0,0
126369,-100,4,2,1,51,0,0
128755,-100,4,2,1,10,0,0
129096,-100,4,2,1,20,0,0
129437,-100,4,2,1,31,0,0
129778,-100,4,2,1,39,0,0
130119,-100,4,2,1,50,0,0
131653,-100,4,2,1,50,0,1
153130,-100,4,2,1,50,0,0
172391,-100,4,2,1,31,0,0
173073,-100,4,2,1,37,0,0
173755,-100,4,2,1,44,0,0
174437,-100,4,2,1,51,0,0

[Colours]
Combo1 : 198,198,255
Combo2 : 0,255,255
SliderBorder : 94,93,251

[HitObjects]
256,192,8925,1,4
256,192,9011,12,8,10971
120,88,11312,6,0,B|168:144,1,42.5
176,160,11653,2,0,B|144:216|192:264,2,85,4|0|8
256,96,12675,1,2
288,136,12846,2,0,B|328:184,1,42.5
368,168,13187,2,8,B|403:211,1,42.5,8|0
456,112,13698,1,8
376,56,14039,6,0,B|416:0,2,42.5,0|2|0
456,112,14721,2,0,B|488:160|488:208,2,85,0|8|0
376,56,15744,1,0
376,56,15914,2,0,B|320:56,1,42.5,8|0
256,120,16425,1,8
176,56,16766,5,0
176,56,16937,2,0,B|124:56,1,42.5,2|4
76,152,17448,2,0,B|36:200|92:248,1,85,0|8
73,229,18130,2,0,B|11:218|-2:290,2,85,0|0|2
116,256,18982,1,2
168,252,19153,1,8
184,352,19494,5,2
256,280,19834,1,0
328,352,20175,1,2
256,280,20516,2,0,B|224:224|296:216|244:136,1,127.5,8|0
320,248,21368,6,0,B|392:248,1,42.5,8|0
192,192,21880,2,0,B|120:192,3,42.5,2|0|0|8
96,192,22562,1,8
256,192,30743,12,8,32789
256,136,33130,6,0,B|208:72,1,56.6666666666667
312,192,33471,2,0,B|376:152,1,56.6666666666667,4|0
256,248,33812,2,0,B|304:312,1,56.6666666666667
200,192,34153,2,0,B|144:240,1,56.6666666666667,2|0
128,248,34493,5,0
168,304,34721,1,8
168,304,34834,2,0,B|176:348|220:368,1,85,0|296
280,288,35516,1,2
380,268,35857,6,0,B|372:224|328:204,1,85,0|296
392,288,36539,2,0,B|445:292|480:247,2,85,0|2|0
360,328,37391,2,0,B|320:320,1,42.5,8|0
288,360,37732,2,0,B|255:299,1,42.5,8|0
312,232,38243,1,2
216,200,38584,5,0
120,240,38925,2,0,B|80:304|-24:280|-16:192,1,170,4|8
152,104,40289,2,0,B|104:104|56:80,2,85,0|0|8
256,88,41312,5,0
194,276,41653,1,2
354,159,41993,1,0
157,159,42334,1,8
317,276,42675,1,0
320,328,42846,2,0,B|259:354,1,42.5,8|0
191,330,43187,2,0,B|232:344,1,42.5,8|0
256,248,43698,1,2
208,160,44039,6,0,B|160:112,2,42.5,0|0|4
256,136,44550,2,0,B|256:80,2,42.5,0|2|0
304,160,45062,2,0,B|344:120,2,42.5,2|0|0
312,208,45573,6,0,B|360:256,1,42.5,8|0
200,208,45914,2,0,B|152:256,1,42.5,8|0
256,296,46425,1,2
344,344,46766,6,0,B|344:296|392:248,1,85
328,360,47448,2,0,B|280:360|232:312,2,85,0|2|0
424,336,48471,1,0
464,304,48641,2,0,B|432:240,1,42.5,8|0
496,176,49153,1,8
464,80,49493,5,0
376,32,49834,2,0,B|296:80|296:-16|208:32,1,170,2|8
120,208,51198,2,0,B|200:160|200:256|288:208,1,170,0|8
240,120,52221,1,2
240,120,52391,1,0
256,192,52562,12,8,54607
200,248,54948,6,0,B|168:280,2,42.5,0|0|4
312,136,55630,2,0,B|344:104,2,42.5,0|0|2
312,248,56312,2,0,B|344:280,2,42.5,0|0|2
200,136,56993,2,0,B|152:128|120:64,1,85,0|2
120,40,57505,1,0
72,24,57675,1,0
24,48,57846,1,0
8,96,58016,6,0,B|-56:184|8:264,1,170,4|2
88,304,59039,1,0
88,304,59209,2,0,B|96:256|180:253|182:313,1,127.5,0|0
281,312,60062,1,2
384,324,60403,1,0
472,268,60743,5,4
500,168,61084,1,0
472,68,61425,1,2
380,20,61766,1,0
384,120,62107,2,0,B|408:164|384:208,1,85,4|0
348,296,62789,1,2
256,336,63130,1,0
140,124,63471,5,4
380,120,63812,1,4
140,260,64153,1,4
256,48,64493,1,4
372,260,64834,1,4
256,192,65516,5,8
256,192,66198,5,4
328,264,66539,2,0,B|312:208|384:184,1,85,0|2
184,120,67221,2,0,B|200:176|128:200,1,85,0|0
104,184,67732,2,0,B|56:240,1,42.5,8|0
8,288,68243,1,8
78,214,68584,6,0,B|80:272|168:280,2,85,0|2|0
16,136,69607,1,8
104,80,69948,1,0
152,80,70118,2,0,B|184:120,1,42.5,8|0
232,112,70459,2,0,B|264:152,1,42.5,8|0
258,145,70971,1,8
352,176,71312,5,0
336,224,71482,2,0,B|316:244|312:280,1,42.5,8|4
353,176,71993,2,0,B|329:124|360:74,2,85,0|8|0
384,272,73016,2,0,B|408:324|377:374,1,85,0|2
386,354,73528,1,2
234,354,74039,6,0,B|326:354,1,85,2|0
216,354,74721,2,0,B|224:304|200:256,1,85,0|8
192,168,75403,1,0
184,120,75573,2,0,B|224:104,1,42.5,8|0
176,80,75914,2,0,B|200:24,1,42.5,8|0
192,40,76425,1,8
296,40,76766,5,0
360,64,76994,2,0,B|368:104,1,28.3333333333333,0|4
448,168,77448,1,0
384,248,77789,1,8
304,184,78130,1,0
253,190,78300,2,0,B|205:196,1,42.5,8|0
160,202,78641,2,0,B|112:208,1,42.5,8|0
117,207,79153,1,8
136,104,79493,6,0,B|120:48|96:24,2,85,0|2|0
48,160,80516,2,0,B|24:200|31:241|63:270,1,85,8|0
77,279,81028,2,0,B|93:289|121:304|158:286|176:269,1,85,2|0
196,248,81539,2,0,B|215:190|182:138,1,85,0|8
256,80,82221,5,0
336,24,82562,2,0,B|392:48|416:104,1,85,4|0
504,104,83243,2,0,B|455:140|394:133,1,85,8|0
352,208,83925,2,0,B|344:147|381:98,2,85,0|2|8
256,236,84948,6,0,B|256:292,2,42.5,0|2|0
164,192,85630,1,0
256,152,85971,1,8
348,192,86312,5,0
388,160,86482,1,8
428,192,86653,1,0
412,240,86823,1,8
360,240,86993,1,0
308,328,87334,1,8
308,328,87505,1,8
308,328,87675,1,0
204,328,88016,1,4
256,192,96198,12,2,98243
96,320,98584,5,0
72,272,98755,1,0
104,232,98925,2,0,B|144:256|216:224,1,85,4|0
224,272,99437,1,0
272,256,99607,2,0,B|248:216|256:168,1,85,2|0
248,120,100118,2,0,B|248:96|216:72,2,42.5,8|0|8
296,144,100630,2,0,B|336:160|394:139,1,85,0|8
440,232,101312,6,0,B|432:256|416:272,1,42.5
424,216,101653,2,0,B|412:168|361:128,1,85,2|0
380,144,102334,2,0,B|421:95|416:32,2,85,8|0|0
352,184,103187,1,8
312,216,103357,1,0
312,216,103698,1,8
256,304,104039,5,0
200,216,104380,2,0,B|200:144|96:136|96:224,1,170,2|8
280,120,105743,2,0,B|256:88|216:64,2,85,0|0|8
284,224,106766,6,0,B|280:248|288:272|320:288|341:271,1,85,0|2
416,220,107448,1,0
408,168,107618,2,0,B|368:120,1,42.5,0|8
312,64,108130,2,0,B|360:120,1,42.5
296,120,108471,2,0,B|304:168,1,42.5,2|8
252,160,108812,1,0
252,160,108982,2,0,B|240:232,1,42.5,0|8
180,124,109493,6,0,B|124:140,2,42.5,0|0|4
216,88,110005,1,0
264,104,110175,1,2
304,72,110346,1,0
352,80,110516,2,0,B|392:112|456:88,1,85,8|0
480,112,111028,2,0,B|472:160,1,42.5,8|0
432,176,111368,2,0,B|443:221,1,42.5,8|0
442,217,111880,1,8
408,312,112221,5,0
360,336,112391,2,0,B|320:368|256:352,1,85
232,344,112903,2,0,B|176:320|128:352,1,85,2|2
104,360,113414,1,0
56,352,113584,2,0,B|24:304|72:240,1,85,0|0
80,224,114096,1,8
104,176,114266,2,0,B|128:136|112:72,1,85,0|8
192,32,114948,5,0
296,40,115289,2,0,B|368:80|256:160|368:80|384:176,1,170,2|8
256,328,116653,1,2
184,256,116993,1,0
256,64,117675,1,2
328,136,118016,1,0
256,192,118187,12,8,120062
256,120,120743,5,4
184,192,121425,1,0
256,264,122107,1,0
328,192,122789,2,0,B|343:177|343:177|352:208|352:208|368:177|368:177|376:208|376:208|393:177|393:177|400:208|400:208|416:177|416:177|424:208|424:208|440:178|440:178|448:208|448:208|465:187,1,340,2|4
256,0,124153,5,0
64,192,124834,1,0
256,384,125516,2,0,B|271:369|271:369|240:360|240:360|271:344|271:344|240:336|240:336|271:319|271:319|240:312|240:312|271:296|271:296|240:288|240:288|270:272|270:272|240:264|240:264|261:247,1,340,2|4
180,60,126880,5,8
255,251,127562,1,0
332,60,128243,1,8
424,240,128925,5,4
312,312,129266,1,4
256,192,129607,1,4
200,312,129948,1,4
88,240,130289,1,4
88,240,130971,5,8
256,128,131653,6,0,B|232:88|272:88|255:32,2,85,4|2|8
328,200,132675,1,0
352,240,132846,2,0,B|296:280,1,42.5,8|0
328,312,133187,2,0,B|288:336,1,42.5,8|0
291,333,133698,1,8
192,352,134039,1,0
88,336,134380,6,0,B|56:288|104:240,1,85,2|0
192,256,135062,2,0,B|224:208|176:160,1,85,8|0
160,136,135573,1,8
144,88,135743,1,0
168,40,135914,1,8
216,16,136084,1,0
216,16,136425,1,8
318,16,136766,5,2
320,16,136994,2,0,B|364:24,1,28.3333333333333,0|4
336,120,137448,2,0,B|336:168|360:208,1,85,0|8
376,304,138130,2,0,B|336:336|272:336,2,85,0|0|2
424,280,138982,1,2
488,136,139493,6,0,B|432:112|376:112,1,85,2|0
304,112,140175,2,0,B|264:136|208:136,1,85,0|8
120,135,140857,1,0
72,136,141028,2,0,B|48:176,1,42.5,8|0
56,224,141368,2,0,B|32:264,1,42.5,8|0
34,260,141880,1,8
96,336,142221,5,0
96,336,142391,2,0,B|120:352|152:364,1,42.5,0|4
216,296,142903,2,0,B|240:248|240:184,2,85,0|8|0
264,320,143755,2,0,B|312:360,1,42.5,8|0
348,340,144096,2,0,B|388:380,1,42.5,8|0
380,372,144607,1,8
448,296,144948,6,0,B|472:240|432:192,1,85,2|0
424,112,145630,2,0,B|432:56|480:40,2,85,0|8|0
336,160,146653,2,8,B|296:184|240:176,1,85,2|0
152,160,147334,1,8
64,208,147675,5,0
64,208,147903,2,0,B|76:216|80:236,1,28.3333333333333,0|4
152,160,148357,2,0,B|112:128|104:80,2,85,0|8|0
252,188,149380,2,0,B|292:220|300:268,1,85,0|2
344,276,149891,1,2
392,260,150062,1,8
408,360,150403,6,0,B|448:384|512:352,2,85,2|0|0
360,336,151255,1,0
320,312,151425,2,0,B|272:288|208:328,1,85,8|0
192,336,151937,1,0
144,360,152107,2,8,B|104:384|40:352,3,85,8|8|8|8
144,296,153471,6,0,B|120:248|160:192,1,85,4|0
48,208,154153,2,0,B|64:160|112:128,1,85,8|0
144,128,154664,2,0,B|192:128|240:152,1,85,2|0
272,168,155175,2,0,B|320:184|392:160,1,85,0|8
448,120,155857,2,0,B|424:64|432:16,2,85,0|2|0
456,224,156880,2,0,B|440:280|408:320,1,85,8|0
408,248,157391,2,0,B|376:288|304:280,1,85,8|0
352,232,157903,2,0,B|288:224|256:168,1,85,8|8
256,96,158584,5,0
173,144,158925,1,4
173,240,159266,1,0
256,288,159607,1,2
339,240,159948,1,0
339,144,160289,2,2,B|388:127|425:81,2,85,2|0|2
256,192,161312,1,0
256,192,161653,1,2
256,192,161823,12,2,163698
256,112,164039,6,0,B|320:79|341:37,2,85,0|4|0
152,128,165062,1,8
96,208,165403,1,0
96,208,165573,2,0,B|64:248|72:320,1,85,8|0
96,336,166084,2,0,B|144:368|200:344,1,85,8|8
256,288,166766,1,2
336,352,167107,2,0,B|373:361|417:336,2,85,0|0|8
256,288,168130,1,0
256,288,168300,2,8,B|136:160|376:160|236:-1,1,297.5,8|0
184,96,169834,6,0,B|88:96,1,85,4|0
328,288,170516,2,0,B|424:288,1,85,4|0
184,96,171198,2,0,B|88:96,1,85,4|0
328,288,171880,2,0,B|424:288,1,85,4|0
184,96,172562,5,4
328,288,172903,1,8
145,144,173244,1,8
366,239,173584,1,0
136,206,173925,1,4
375,177,174266,1,8
160,264,174607,1,8
352,120,174948,1,4
256,192,175289,12,4,177334
