osu file format v9

[General]
AudioFilename: Hello 2.mp3
AudioLeadIn: 0
PreviewTime: 65700
Countdown: 0
SampleSet: Soft
StackLeniency: 0.7
Mode: 0
LetterboxInBreaks: 0

[Editor]
Bookmarks: 78692
DistanceSpacing: 1
BeatDivisor: 4
GridSize: 8

[Metadata]
Title:Hello Mr. my yesterday
Artist:Hundred Percent Free
Creator:Nivalis
Version:Ain's Insane
Source:Detective Conan
Tags:Ain053 Aoitenshi

[Difficulty]
HPDrainRate:7
CircleSize:4
OverallDifficulty:7
ApproachRate:8
SliderMultiplier:3.4
SliderTickRate:0.5

[Events]
//Background and Video events
0,0,"bg.jpg"
Video,0,"VidHr.flv"
//Break Periods
2,22762,29993
2,88216,95448
//Storyboard Layer 0 (Background)
//Storyboard Layer 1 (Fail)
//Storyboard Layer 2 (Pass)
//Storyboard Layer 3 (Foreground)
//Storyboard Sound Samples
//Background Colour Transformations
3,100,163,162,255

[TimingPoints]
744,681.818181818182,4,2,1,51,1,0
8925,-100,4,2,1,51,0,1
9096,-100,4,2,1,51,0,0
54181,-100,4,2,1,21,0,0
54522,-100,4,2,1,31,0,0
54863,-100,4,2,1,41,0,0
55204,-100,4,2,1,50,0,0
63300,-100,4,2,1,10,0,0
63641,-100,4,2,1,21,0,0
63982,-100,4,2,1,31,0,0
64323,-100,4,2,1,41,0,0
64664,-100,4,2,1,50,0,0
66198,-100,4,2,1,51,0,1
88016,-100,4,2,1,51,0,0
119550,-100,4,2,1,20,0,0
119976,-100,4,2,1,31,0,0
120317,-100,4,2,1,41,0,0
120658,-100,4,2,1,51,0,0
128755,-100,4,2,1,11,0,0
129096,-100,4,2,1,21,0,0
129437,-100,4,2,1,31,0,0
129778,-100,4,2,1,42,0,0
130119,-100,4,2,1,51,0,0
131653,-100,4,2,1,51,0,1
153130,-100,4,2,1,51,0,0

[Colours]
Combo1 : 198,198,255
Combo2 : 0,255,255
SliderBorder : 94,93,251

[HitObjects]
256,192,8925,1,4
256,192,9011,12,8,10971
256,192,11653,6,0,B|264:104|168:40,1,170,4|0
112,208,12334,2,8,B|48:304|152:376|152:376,1,170,8|0
296,312,13016,2,0,B|400:288|384:176,1,170,0|2
472,184,13528,2,0,B|488:88|384:56,1,170,2|0
320,104,14039,6,0,B|248:176|248:16|160:104,2,170,0|2|0
416,248,15062,1,8
288,360,15403,1,0
224,304,15573,2,0,B|160:216|248:136,1,170,0|2
296,208,16084,2,0,B|216:264|120:208,1,170,0|8
112,296,16596,2,0,B|32:256|48:128,1,170,2|2
128,120,17107,6,0,B|126:18|239:131|239:37,2,170,4|0|8
296,152,18130,2,0,B|296:244|183:131|184:233,1,170,0|2
184,64,18812,2,0,B|120:56|168:144|48:120,2,85,2|2|10
56,176,19493,6,0,B|128:240|104:336,1,170,2|0
256,248,20175,1,0
416,200,20516,1,8
304,72,20857,1,0
240,128,21028,2,0,B|144:144|96:32,1,170,2|0
184,32,21539,2,0,B|192:128|72:160,1,170,0|6
120,232,22050,2,0,B|216:240|240:336,1,170,0|2
320,360,22562,1,4
256,192,30743,12,8,32789
48,64,33130,5,2
128,96,33300,1,0
104,176,33471,2,0,B|160:248,1,85,6|0
232,200,33812,2,0,B|312:224,1,85
384,176,34153,2,0,B|472:176,2,85,8|0|0
360,104,34664,2,0,B|256:120|208:24,1,170,2|0
176,112,35175,2,0,B|128:16|16:64,1,170,0|8
88,128,35687,2,0,B|144:232|240:176,1,170,2|2
296,136,36198,6,0,B|368:64|456:120,2,170,6|0|10
264,216,37050,1,0
192,264,37221,1,0
112,240,37391,1,2
128,72,37732,2,0,B|48:32,2,85,2|0|0
208,40,38243,2,0,B|288:0,2,85,10|2|0
272,96,38755,1,0
208,152,38925,6,0,B|296:208|360:120,1,170,4|0
208,40,39607,2,0,B|120:-16|56:72,1,170,8|0
144,216,40289,2,0,B|88:312|192:360,2,170,2|0|8
312,264,41312,6,0,B|400:192|312:112,3,170,0|2|0|8
152,80,42675,1,0
88,136,42846,1,2
192,272,43187,2,0,B|136:288|152:344,2,85,2|0|0
248,208,43698,2,0,B|424:208,1,170,10|2
448,128,44209,1,0
408,56,44380,6,0,B|312:56,1,85,4|0
256,112,44721,2,0,B|160:112,1,85,0|0
104,168,45062,2,0,B|8:168,2,85,8|0|0
136,248,45573,2,0,B|224:304|304:208,1,170,2|0
336,296,46084,2,0,B|416:232|368:136,1,170,0|8
456,144,46596,2,0,B|432:48|320:64,1,170,2|2
240,72,47107,6,0,B|144:104|88:16,2,170,6|0|8
320,48,47959,1,0
400,64,48130,1,0
456,128,48300,1,2
448,296,48641,2,0,B|280:296,1,170,2|0
328,224,49153,2,0,B|160:224,1,170,8|0
80,72,49834,6,0,B|112:184|224:128,1,170,4|0
376,112,50516,2,0,B|352:8|232:40,1,170,10|0
304,200,51198,2,0,B|296:304|176:304,2,170,2|0|10
256,40,52221,1,0
256,40,52391,1,2
256,192,52562,12,2,53925
112,64,54266,6,0,B|112:152,1,85
184,200,54607,2,0,B|184:112,1,85,8|0
256,168,54948,2,0,B|256:272,1,85
256,336,55289,5,4
352,192,55630,1,0
352,192,55800,1,0
352,192,55971,1,10
256,48,56312,1,0
256,48,56482,1,0
256,48,56653,1,10
160,192,56993,1,0
160,192,57164,1,0
160,192,57334,1,10
256,336,57675,1,0
256,336,57846,1,0
256,336,58016,6,0,B|160:192,1,170,4|0
160,192,58528,1,0
160,192,58698,2,0,B|264:32,1,170,10|0
252,49,59209,1,0
256,48,59380,2,0,B|352:192,1,170,10|0
352,192,59891,1,0
352,192,60062,2,0,B|256:336,1,170,10|0
184,184,60743,6,0,B|72:152|40:280,2,170,4|0|8
256,32,61766,1,2
328,184,62107,2,0,B|440:152|472:280,2,170,12|0|8
256,32,63130,1,2
256,352,63471,5,12
120,120,63812,1,12
392,264,64153,1,12
120,264,64493,1,12
392,120,64834,1,12
40,184,65857,6,0,B|8:296|128:336,1,170,0|4
232,216,66539,2,0,B|344:208|368:304,1,170,2|8
424,136,67221,2,0,B|312:152|288:56,1,170
168,184,67903,2,0,B|120:224|208:256|160:288,2,85,2|2|10
240,336,68584,6,0,B|336:320|344:208,2,170,0|2|0
168,184,69607,1,8
304,80,69948,1,0
320,160,70119,2,0,B|224:160|192:64,1,170,2|0
112,48,70630,2,0,B|112:136|16:184,2,170,2|8|2
192,64,71482,1,2
192,64,71653,6,0,B|304:35|376:147,1,170,4|0
464,232,72334,2,0,B|400:304|296:232,1,170,8|0
192,144,73016,2,0,B|128:56|32:104,1,170,0|2
104,168,73528,2,0,B|40:248|120:328,1,170,2|0
192,280,74039,6,0,B|264:224|352:288,2,170,0|2|0
24,256,75062,1,8
88,96,75403,1,0
160,48,75573,2,0,B|264:40|296:136,1,170,2|0
216,168,76084,2,0,B|256:280|360:240,1,170,0|10
400,88,76766,1,0
288,64,76994,1,2
288,64,77107,6,0,B|176:112|126:-9,2,170,4|0|8
152,168,78130,1,2
216,224,78300,1,0
304,224,78471,2,0,B|400:224|452:292,2,170,2|2|8
216,80,79493,2,0,B|112:32|48:120,1,170,0|2
136,256,80175,6,0,B|232:232|296:320,1,170,0|8
424,208,80857,1,0
424,208,81028,2,0,B|320:176|336:72,1,170,2|0
416,88,81539,2,0,B|424:0|320:-40|264:24|264:24,1,170,0|10
224,40,82050,2,0,B|152:120|64:64,1,170
112,0,82562,6,0,B|184:72|144:168,2,170,4|0|8
40,152,83584,1,0
168,264,83925,1,0
328,200,84266,2,0,B|376:168|400:232|448:200,2,85,0|0|8
256,40,84948,1,0
256,40,85118,1,0
256,40,85289,2,0,B|160:40|120:128,2,170,0|0|8
304,208,86312,1,0
208,208,86482,1,2
256,192,86653,12,4,88016
256,192,96198,12,6,98243
296,224,98584,5,0
336,144,98755,1,2
248,144,98925,2,0,B|152:144,1,85,4|0
128,224,99266,2,0,B|216:224,1,85,2|0
176,304,99607,2,0,B|88:304,2,85,8|0|0
264,304,100118,2,0,B|360:304|416:224,1,170
496,248,100630,2,0,B|504:136|392:136,1,170,0|8
336,192,101141,2,0,B|280:88|400:48,1,170,2|2
408,136,101653,6,0,B|408:224,1,85,6|0
448,296,101993,2,0,B|376:376|304:296,1,170,0|8
248,232,102505,2,0,B|184:296,2,85,0|0|0
168,80,103187,2,0,B|200:-24|320:24,1,170,2|2
344,88,103698,2,0,B|312:192|192:144,1,170,8|0
48,208,104380,6,0,B|240:208,1,170,4|0
336,328,105062,2,0,B|168:328,1,170,8|0
294,208,105743,2,0,B|464:208,2,170,0|0|8
256,48,106766,1,0
96,112,107107,5,2
256,176,107448,1,0
416,112,107789,1,8
256,48,108130,1,0
256,48,108300,1,2
144,176,108641,2,0,B|80:248,2,85,2|0|0
216,128,109153,2,0,B|312:104|360:192,1,170,10|0
368,272,109664,1,2
312,336,109834,6,0,B|208:336,1,85,4|0
160,280,110175,2,0,B|72:280,1,85
16,224,110516,2,0,B|16:136,1,85,8|0
16,56,110857,1,0
88,104,111028,2,0,B|176:176|256:80,1,170,0|0
280,24,111539,2,0,B|372:87|296:192|240:176,1,170,0|10
208,200,112050,2,0,B|240:280|336:272|360:224,1,170,2|2
416,184,112562,6,0,B|416:88,1,85,6|0
488,144,112903,2,0,B|488:240,1,85
488,312,113243,2,0,B|400:312,1,85,8|0
328,264,113584,1,0
272,328,113755,2,0,B|176:336|136:240,1,170,0|0
56,248,114266,2,0,B|64:136|192:136,1,170,0|8
248,136,114778,2,0,B|352:136|360:24,1,170,2|2
440,48,115289,6,0,B|440:240,1,170,4|0
312,336,115971,2,0,B|312:144,1,170,8|0
184,48,116653,2,0,B|184:240,2,170,0|0|8
88,192,117675,1,2
88,192,118016,1,4
256,192,118187,12,2,119380
256,192,119721,6,0,B|160:192,1,85
256,192,120062,2,0,B|352:192,1,85
256,192,120403,2,0,B|256:104,1,85
256,32,120743,5,4
256,32,120914,2,0,B|72:128,1,170,2|2
104,112,121425,1,8
104,112,121596,2,0,B|254:190,1,170,2|2
256,192,122107,1,2
256,192,122278,2,0,B|406:270,1,170,2|2
408,272,122789,1,10
408,272,122959,2,0,B|224:368,1,170,0|2
256,352,123471,5,4
256,352,123641,1,2
104,272,123982,1,2
104,272,124153,1,8
104,272,124323,1,2
256,192,124664,1,2
256,192,124834,1,2
256,192,125005,1,2
408,112,125346,1,2
408,112,125516,1,8
408,112,125687,1,2
256,32,126028,1,2
256,32,126198,5,4
104,112,126539,2,0,B|104:304,2,170,0|8|0
256,32,127562,1,0
408,112,127903,2,0,B|408:304,2,170,0|8|0
256,32,128925,5,12
352,312,129266,1,12
103,144,129607,1,12
408,144,129948,1,12
163,312,130289,1,12
472,200,130800,6,2,B|472:248,2,42.5,2|2|10
472,200,131312,6,0,B|504:88|384:48,1,170,0|4
280,168,131993,2,0,B|168:176|144:80,1,170,2|8
88,248,132675,2,0,B|200:232|224:328,1,170
344,208,133357,2,0,B|392:168|304:136|352:104,2,85,2|2|10
272,40,134039,6,0,B|176:56|168:168,2,170,0|2|0
344,200,135062,1,8
208,304,135403,1,0
192,224,135573,2,0,B|288:224|320:320,1,170,2|0
400,336,136084,2,0,B|400:248|496:200,2,170,0|8|0
288,352,136994,1,2
288,352,137107,6,0,B|192:344|136:232,1,170,4|0
48,120,137789,2,0,B|112:48|216:120,1,170,8|0
320,240,138471,2,0,B|384:328|480:280,1,170,0|2
408,216,138983,2,0,B|472:136|392:56,1,170,2|0
320,104,139494,6,0,B|248:160|160:96,2,170,0|2|0
488,128,140517,1,8
424,288,140858,1,0
352,336,141028,2,0,B|248:344|216:248,1,170,2|0
296,216,141539,2,0,B|256:104|152:144,1,170,0|2
112,296,142221,1,0
184,336,142391,1,2
184,336,142562,6,0,B|296:288|346:409,2,170,4|0|8
328,248,143585,1,0
288,176,143755,1,0
208,160,143926,2,0,B|112:160|60:92,2,170,0|0|8
296,304,144948,2,0,B|400:352|464:264,1,170,0|2
376,128,145630,6,0,B|280:152|216:64,1,170,0|8
88,176,146312,1,0
88,176,146483,2,0,B|192:208|176:312,1,170,2|0
96,296,146994,2,0,B|88:384|192:424|248:360|248:360,1,170,0|10
288,344,147505,2,0,B|360:264|448:320,1,170
400,384,148017,6,0,B|328:312|368:216,2,170,4|0|8
472,232,149039,1,0
344,120,149380,1,0
192,184,149721,2,0,B|144:216|120:152|72:184,2,85,2|2|10
256,344,150403,1,0
256,344,150744,2,0,B|352:344|392:256,2,170,0|0|8
208,176,151767,1,0
304,176,151937,1,2
256,192,152107,12,2,153130
160,48,153471,6,0,B|72:80|72:184,2,170,4|0|8
256,192,154494,1,2
304,120,154664,1,2
352,48,154834,2,0,B|440:80|440:184,2,170,0|0|8
256,192,155857,1,2
208,264,156028,1,2
160,336,156198,6,0,B|56:336|24:248,2,170,0|0|8
256,192,157221,1,2
304,264,157391,1,2
352,336,157562,2,0,B|456:336|488:248,2,170,0|0|8
256,192,158584,1,2
120,96,158925,6,0,B|168:0|264:16,1,170,4|0
392,96,159607,2,0,B|344:0|248:16,1,170,8|0
256,184,160289,2,0,B|256:352,2,170,2|0|8
256,184,161312,1,2
256,184,161482,1,2
256,192,161653,12,0,163698
352,336,164039,5,0
352,336,164380,6,0,B|440:304|440:200,2,170,4|0|8
256,192,165403,1,2
208,264,165573,1,2
160,336,165743,2,0,B|72:304|72:200,2,170,0|0|8
256,192,166766,1,2
304,120,166937,1,2
352,48,167107,6,0,B|456:48|488:136,2,170,0|0|8
256,192,168130,1,2
208,120,168300,1,2
160,48,168471,2,0,B|56:48|24:136,2,170,0|0|8
256,192,169493,1,2
392,288,169834,6,0,B|344:384|248:368,1,170,4|0
120,288,170516,2,0,B|168:384|264:368,1,170,4|0
392,288,171198,2,0,B|344:192|248:208,1,170,4|0
120,288,171880,2,0,B|168:192|264:208,1,170,4|0
256,192,172562,12,4,176653
256,24,177334,6,2,B|256:368,1,340,4|2
