osu file format v9

[General]
AudioFilename: 05 MENDES.mp3
AudioLeadIn: 1993
PreviewTime: 11751
Countdown: 1
SampleSet: Normal
StackLeniency: 0.7
Mode: 0
LetterboxInBreaks: 0

[Editor]
Bookmarks: -32,8180,108900
DistanceSpacing: 1.2
BeatDivisor: 4
GridSize: 8

[Metadata]
Title:MENDES
Artist:Humanoid
Creator:yeahyeahyeahhh
Version:Hyper
Source:beatmania IIDX
Tags:Alace Alazy Rokodo Roko-Don DeathStreams Yoshitaka IIDX15 DJTROOPERS Military Splash Extra Stage

[Difficulty]
HPDrainRate:5
CircleSize:4
OverallDifficulty:6
ApproachRate:7
SliderMultiplier:1.6
SliderTickRate:0.5

[Events]
//Background and Video events
0,0,"Hyper.jpg"
//Break Periods
2,46595,49780
//Storyboard Layer 0 (Background)
//Storyboard Layer 1 (Fail)
//Storyboard Layer 2 (Pass)
//Storyboard Layer 3 (Foreground)
//Storyboard Sound Samples
//Background Colour Transformations
3,100,0,0,0

[TimingPoints]
325,357.142857142857,4,1,1,39,1,0
503,-100,4,2,1,39,0,0
5950,-100,4,1,1,39,0,0
6128,-100,4,2,1,39,0,0
8450,-100,4,1,1,39,0,0
8628,-100,4,2,1,39,0,0
8807,-100,4,1,1,39,0,0
9075,-100,4,2,1,39,0,0
9432,-100,4,1,1,39,0,0
9789,-100,4,2,1,39,0,0
10146,-100,4,1,1,39,0,0
10414,-100,4,2,1,39,0,0
10592,-100,4,1,1,39,0,0
10771,-100,4,2,1,39,0,0
10950,-100,4,2,1,61,0,0
11664,-100,4,2,1,51,0,0
12110,-100,4,2,1,40,0,0
12289,-100,4,2,1,30,0,0
12467,357.142857142857,4,2,1,71,1,0
22377,-100,4,1,1,50,0,0
23806,-100,4,2,1,71,0,0
33806,-100,4,1,1,50,0,0
35234,-100,4,1,1,60,0,0
38449,-100,4,2,1,61,0,0
38717,-100,4,2,1,54,0,0
38895,-100,4,2,1,46,0,0
39074,-100,4,2,1,40,0,0
39252,-100,4,1,1,60,0,0
42377,-100,4,1,1,40,0,0
43181,-100,4,1,1,50,0,0
43806,-100,4,1,1,61,0,0
44520,-100,4,1,1,70,0,0
45234,-100,4,1,1,74,0,0
45681,-100,4,1,1,80,0,0
46038,-100,4,1,1,84,0,0
46395,357.142857142857,4,2,1,49,1,0
61752,-100,4,2,1,65,0,0
66305,-100,4,1,1,51,0,0
66744,-100,4,2,1,65,0,0
67734,-100,4,1,1,60,0,0
86396,357.142857142857,3,2,1,45,1,0
86840,-100,3,1,1,45,0,0
88447,-100,3,2,1,45,0,0
88983,-100,3,1,1,45,0,0
90590,-100,3,2,1,45,0,0
91126,-100,3,1,1,45,0,0
92733,-100,3,2,1,45,0,0
93269,-100,3,1,1,45,0,0
94876,-100,3,2,1,45,0,0
95411,-100,3,1,1,45,0,0
95947,-100,3,2,1,45,0,0
96483,-100,3,1,1,45,0,0
97019,-100,3,2,1,45,0,0
97554,-100,3,1,1,45,0,0
98090,-100,3,2,1,45,0,0
98626,-100,3,1,1,45,0,0
99161,-100,3,2,1,45,0,0
99697,-100,3,1,1,45,0,0
100233,-100,3,2,1,45,0,0
100769,-100,3,1,1,45,0,0
101304,-100,3,2,1,55,0,0
103538,357.142857142857,4,2,1,55,1,0
106751,-100,4,2,1,31,0,0
107108,-100,4,2,1,55,0,0

[Colours]
Combo1 : 192,129,147
Combo2 : 147,176,142
Combo3 : 128,128,192

[HitObjects]
160,24,325,1,0
32,48,682,1,0
152,104,1039,1,0
24,128,1396,1,0
136,184,1753,1,0
8,208,2110,1,0
120,264,2467,1,0
176,288,2646,1,0
232,312,2824,1,0
288,336,3003,1,0
344,360,3182,5,0
472,336,3539,1,0
352,280,3896,1,0
480,256,4253,1,0
368,200,4610,1,0
496,176,4967,1,0
384,120,5325,1,0
328,96,5503,1,0
272,72,5682,1,0
216,48,5860,1,0
160,24,6039,6,0,B|136:64,2,40,0|0|0
104,120,6396,2,0,B|80:160,2,40
128,232,6753,2,0,B|152:192,2,40
184,136,7110,2,0,B|208:96,2,40
304,88,7467,2,0,B|280:128,2,40
248,184,7825,2,0,B|224:224,2,40
264,296,8182,1,0
344,216,8360,1,0
424,136,8539,1,0
496,48,8717,1,0
384,32,8896,5,0
80,32,9253,1,0
328,104,9610,1,0
24,104,9967,1,0
272,176,10325,1,0
256,200,10414,1,0
240,224,10503,1,0
192,296,10682,1,0
208,320,10771,1,0
224,344,10860,1,0
336,344,11039,1,2
440,296,11217,1,2
352,224,11396,1,2
456,176,11574,1,2
368,112,11753,5,2
345,102,11842,1,2
321,97,11932,1,2
297,98,12021,1,2
274,105,12110,1,2
252,114,12199,1,2
228,120,12289,1,2
205,120,12378,1,2
181,117,12467,6,0,B|111:123|32:62,1,160,4|2
34,63,13002,1,0
40,160,13181,2,0,B|40:248,1,80
112,304,13538,2,0,B|112:216,1,80,2|0
208,168,13895,6,0,B|264:240|352:216,1,160,0|2
349,216,14431,1,0
280,120,14609,1,2
280,120,14699,1,2
280,120,14788,2,0,B|216:72,2,80,0|2|0
344,48,15324,6,0,B|416:112|496:72,1,160,0|2
491,74,15859,1,0
464,192,16038,2,0,B|384:160,1,80
272,200,16395,2,0,B|352:232,1,80,2|0
208,264,16752,6,0,B|208:352,2,80,0|2|2
152,200,17288,1,0
96,136,17466,1,2
96,136,17556,1,2
96,136,17645,2,0,B|96:40,2,80,0|2|0
184,96,18181,6,0,B|272:64|336:136,1,160,4|2
330,129,18716,1,0
400,176,18895,1,0
408,192,18984,1,0
416,208,19074,1,0
376,280,19252,1,2
368,264,19341,1,0
360,248,19431,1,0
328,344,19609,6,0,B|240:376|176:304,1,160,0|2
181,310,20145,1,0
112,264,20324,1,2
104,248,20413,1,2
96,232,20502,1,0
136,160,20681,1,2
144,176,20770,1,0
152,192,20859,1,0
200,88,21038,5,2
216,120,21127,1,0
232,152,21216,1,0
312,152,21395,1,2
296,184,21484,1,0
280,216,21574,1,0
200,232,21752,1,2
216,264,21841,1,0
232,296,21931,1,0
312,296,22109,1,2
296,328,22199,1,0
280,360,22288,1,2
120,352,22466,5,4
32,312,22645,1,0
112,256,22824,1,0
400,128,23181,1,0
400,128,23270,1,0
400,128,23359,1,0
480,72,23538,1,0
392,32,23716,1,0
320,128,23895,6,0,B|304:168,2,40,4|0|0
240,256,24252,2,0,B|256:216,2,40,2|0|0
200,168,24609,1,0
136,136,24788,1,0
72,168,24966,1,2
8,136,25145,1,0
64,256,25324,6,0,B|88:288,2,40
176,352,25681,2,0,B|152:320,2,40,2|0|0
208,272,26038,1,2
208,272,26127,1,2
208,272,26216,2,0,B|296:272,2,80,0|2|0
176,192,26752,6,0,B|192:152,2,40
256,64,27109,2,0,B|240:104,2,40,2|0|0
296,152,27466,1,0
360,184,27645,1,0
424,152,27824,1,2
488,184,28002,1,0
392,272,28181,6,0,B|480:272,2,80,0|2|2
312,312,28716,1,0
232,352,28895,1,2
232,352,28984,1,2
232,352,29074,2,0,B|144:352,2,80,0|2|0
208,256,29609,5,4
136,200,29788,1,0
208,144,29966,1,2
280,200,30145,1,0
352,248,30324,2,0,B|400:280,2,40
352,152,30681,2,0,B|400:120,2,40,2|0|0
208,144,31038,5,4
280,88,31216,1,0
208,32,31395,1,2
136,88,31574,1,0
64,40,31752,2,0,B|16:8,2,40,2|2|0
64,136,32109,2,0,B|16:168,2,40,2|0|0
104,200,32466,5,6
144,216,32556,1,0
184,232,32645,1,0
168,320,32824,1,2
208,304,32913,1,0
248,288,33002,1,0
272,200,33181,1,6
312,216,33270,1,0
352,232,33359,1,0
336,320,33538,1,2
376,304,33627,1,0
416,288,33716,1,2
472,192,33895,5,4
416,128,34074,1,0
360,64,34252,1,0
40,192,34609,1,0
40,192,34699,1,0
40,192,34788,1,0
96,128,34966,1,0
152,64,35145,1,0
256,32,35324,5,0
256,104,35502,1,0
256,176,35681,1,0
296,360,36038,1,0
336,40,36395,1,0
336,104,36574,1,0
376,336,36931,1,0
416,56,37288,1,0
416,112,37467,1,0
416,168,37645,1,0
456,312,38002,1,0
376,336,38181,1,0
296,360,38359,1,0
200,336,38538,5,2
184,312,38627,1,2
168,288,38717,1,2
152,264,38806,1,2
136,240,38895,1,2
120,216,38984,1,2
104,192,39074,1,2
88,168,39163,1,2
72,144,39252,5,0
136,104,39431,1,0
200,64,39609,1,0
456,312,39967,1,0
192,160,40324,1,0
248,128,40502,1,0
376,336,40859,1,0
248,216,41217,1,0
296,192,41395,1,0
344,168,41574,1,0
296,360,41931,1,0
376,336,42109,1,0
456,312,42288,1,0
376,264,42467,5,0
384,248,42556,1,0
392,232,42645,1,0
400,216,42734,1,0
408,200,42824,1,0
416,184,42913,1,0
424,168,43002,1,0
432,152,43092,1,0
440,136,43181,5,0
387,51,43359,1,0
299,4,43538,1,0
199,7,43717,1,0
114,60,43895,1,0
67,148,44074,1,0
70,249,44252,1,0
124,333,44431,1,0
212,380,44609,1,0
313,377,44788,1,0
397,323,44967,1,0
444,235,45145,1,0
440,135,45324,5,0
424,136,45413,1,0
408,136,45502,1,0
392,136,45592,1,0
376,136,45681,1,0
360,136,45770,1,0
344,136,45859,1,0
328,136,45949,1,0
312,136,46038,1,0
296,136,46127,1,0
280,136,46217,1,0
264,136,46306,1,0
248,136,46395,1,0
384,72,50680,5,0
384,72,50859,1,0
320,72,51216,1,0
256,72,51573,1,0
192,72,51930,1,0
192,72,52109,1,0
448,72,52823,1,0
80,192,53537,5,0
80,192,53716,1,0
144,192,54073,1,0
208,192,54430,1,0
272,192,54787,1,0
272,192,54966,1,0
16,192,55680,1,0
384,312,56395,5,0
384,312,56573,1,0
320,312,56930,1,0
256,312,57287,1,0
192,312,57645,1,0
192,312,57823,1,0
448,312,58537,1,0
80,192,59252,5,0
80,192,59430,1,0
144,192,59787,1,0
208,192,60145,1,0
272,192,60502,1,0
272,192,60680,1,0
16,192,61395,1,0
328,320,62109,5,0
392,280,62287,2,0,B|480:248|488:160,2,160,2|2|2
328,240,63180,1,0
264,280,63359,1,2
152,224,63537,5,0
208,176,63716,2,0,B|288:128|368:176,1,160,2|2
432,192,64252,1,0
456,120,64430,2,0,B|296:64,1,160,2|2
184,64,64966,5,0
144,128,65145,2,0,B|120:200|32:256,1,160,2|2
64,320,65680,1,0
136,304,65859,1,2
136,304,65948,1,0
136,304,66037,1,0
208,288,66216,1,2
328,352,66395,5,0
280,272,66573,1,0
64,56,66930,1,2
160,72,67109,1,0
248,120,67287,1,2
320,184,67466,1,0
376,264,67645,1,2
480,224,67823,6,0,B|416:160|440:72,1,160,0|0
438,77,68359,1,0
438,77,68537,2,0,B|279:39,1,160
192,24,69073,1,0
120,232,69430,2,0,B|32:232,2,80
184,280,69966,1,0
232,344,70145,1,0
312,320,70323,1,0
392,344,70502,1,0
392,248,70680,6,0,B|336:176|248:232,1,160
176,200,71216,1,0
240,152,71395,2,0,B|320:128|360:40,1,160
424,88,71930,1,0
488,192,72109,5,0
256,344,72466,1,0
24,192,72823,1,0
256,40,73180,1,0
88,344,73537,6,0,B|168:296|168:200,1,160
216,152,74073,1,0
248,224,74252,2,0,B|272:304|376:312,1,160
448,328,74787,1,0
448,56,75145,1,0
424,136,75323,1,0
376,72,75502,1,0
352,152,75680,1,0
304,88,75859,1,0
280,176,76037,1,0
232,104,76216,1,0
120,176,76395,6,0,B|208:208|224:296,1,160
256,360,76930,1,0
304,296,77109,2,0,B|392:280|448:200,1,160
496,160,77645,1,0
424,72,77823,5,0
336,96,78002,1,0
272,152,78180,1,0
248,192,78270,1,0
192,256,78448,1,0
152,240,78537,1,0
120,208,78627,1,0
96,168,78716,2,0,B|88:120|24:128,2,80
144,80,79252,6,0,B|224:80|296:24,1,160
368,48,79787,1,0
312,104,79966,2,0,B|368:128|376:200,1,120
408,224,80323,2,0,B|488:248,1,80
432,312,80680,6,0,B|352:280|288:360,1,160
216,328,81216,1,0
144,296,81394,1,0
144,296,81484,1,0
144,296,81573,2,0,B|56:296,2,80
232,224,82109,6,0,B|168:160|80:184,1,160
16,144,82644,1,0
88,104,82823,2,0,B|152:104|200:40,1,120
232,64,83180,2,0,B|304:104,1,80
448,160,83537,5,0
424,248,83716,1,0
400,336,83894,1,0
64,224,84252,1,0
64,224,84341,1,0
64,224,84430,1,0
88,136,84609,1,0
112,48,84787,1,0
256,192,84966,8,0,86037
472,344,86396,21,4
472,296,86574,1,4
472,248,86753,1,4
424,96,86931,5,0
424,144,87110,1,0
424,192,87288,1,0
376,344,87467,21,0
376,296,87645,1,0
376,248,87824,1,0
328,96,88003,5,0
328,144,88181,1,0
328,192,88360,1,0
184,360,88538,21,4
224,312,88717,1,4
264,264,88895,1,4
152,96,89074,5,0
192,144,89253,1,0
232,192,89431,1,0
104,320,89610,21,0
128,264,89788,1,0
152,208,89967,1,0
32,80,90145,5,0
56,136,90324,1,0
80,192,90503,1,0
208,32,90681,21,4
160,64,90860,1,4
112,96,91038,1,4
304,32,91217,5,0
352,64,91395,1,0
400,96,91574,1,0
208,120,91753,21,0
200,176,91931,1,0
192,232,92110,1,0
304,120,92288,5,0
312,176,92467,1,0
320,232,92645,1,0
304,352,92824,21,4
352,320,93003,1,4
400,288,93181,1,4
208,352,93360,5,0
160,320,93538,1,0
112,288,93717,1,0
304,264,93895,21,0
312,208,94074,1,0
320,152,94253,1,0
208,264,94431,5,0
200,208,94610,1,0
192,152,94788,1,0
88,48,94967,21,4
168,24,95145,1,4
248,40,95324,1,4
328,32,95503,1,0
368,48,95592,1,0
408,64,95681,1,0
448,80,95770,1,0
488,96,95860,1,0
408,144,96038,5,4
328,120,96217,1,4
248,136,96395,1,4
168,128,96574,1,0
128,144,96663,1,0
88,160,96753,1,0
48,176,96842,1,0
8,192,96931,1,0
88,240,97110,21,4
168,216,97288,1,4
248,232,97467,1,4
328,224,97645,1,0
368,240,97735,1,0
408,256,97824,1,0
448,272,97913,1,0
488,288,98003,1,0
408,336,98181,5,4
328,312,98360,1,4
248,328,98538,1,4
168,320,98717,1,0
128,336,98806,1,0
88,352,98895,1,0
48,368,98985,1,0
8,384,99074,1,0
24,272,99253,21,4
80,200,99431,1,4
136,128,99610,1,4
160,216,99788,1,0
200,200,99878,1,0
232,232,99967,1,0
272,216,100056,1,0
304,248,100145,1,0
416,176,100324,5,4
360,104,100503,1,4
304,32,100681,1,4
280,120,100860,1,0
240,104,100949,1,0
208,136,101038,1,0
168,120,101128,1,0
136,152,101217,1,0
24,232,101395,21,4
120,256,101574,1,4
216,280,101753,1,4
312,304,101931,1,4
408,328,102110,1,4
504,352,102288,1,4
480,256,102467,5,4
384,232,102645,1,4
288,208,102824,1,4
192,184,103003,1,4
96,160,103181,1,4
0,136,103360,1,4
256,192,103538,8,0,106753
256,192,108895,5,4
