osu file format v12

[General]
AudioFilename: sigh too young.mp3
AudioLeadIn: 0
PreviewTime: 47551
Countdown: 1
SampleSet: Normal
StackLeniency: 0.7
Mode: 0
LetterboxInBreaks: 1
WidescreenStoryboard: 0

[Editor]
Bookmarks: 21951,34751,47551,68351,81151,93951,114751,133951,146751,159551,178751,204351,218751
DistanceSpacing: 1.1
BeatDivisor: 4
GridSize: 4
TimelineZoom: 1.3

[Metadata]
Title:Too young to beer.
TitleUnicode:Too young to beer.
Artist:HujuniseikouyuuP
ArtistUnicode:HujuniseikouyuuP
Creator:Broccoly
Version:833Rcc01y
Source:Nico Nico Douga
Tags:vocaloid hatsune miku fujiniseikouyuuP Nanahoshi Orchestra Nanahoshikangengakudan
BeatmapID:341005
BeatmapSetID:136241

[Difficulty]
HPDrainRate:5
CircleSize:4
OverallDifficulty:8
ApproachRate:9
SliderMultiplier:1.72
SliderTickRate:1

[Events]
//Background and Video events
0,0,"beer.jpg",0,0
//Break Periods
2,114951,120551
//Storyboard Layer 0 (Background)
//Storyboard Layer 1 (Fail)
//Storyboard Layer 2 (Pass)
//Storyboard Layer 3 (Foreground)
//Storyboard Sound Samples
//Background Colour Transformations
3,100,163,162,255

[TimingPoints]
1151,200,4,1,0,60,1,0
21151,-100,4,2,0,35,0,0
21951,-153.846153846154,4,1,0,55,0,0
46751,-153.846153846154,4,1,0,18,0,0
47551,-100,4,1,0,60,0,1
60351,-100,4,1,0,60,0,0
63551,-100,4,1,0,60,0,1
68351,-153.846153846154,4,1,0,60,0,0
93151,-153.846153846154,4,1,0,18,0,0
93951,-100,4,1,0,60,0,1
106751,-100,4,1,0,60,0,0
109951,-100,4,1,0,60,0,1
114751,-100,4,1,0,60,0,0
133351,-153.846153846154,4,1,0,60,0,0
133951,-100,4,1,0,60,0,0
145951,-76.9230769230769,4,1,0,60,0,1
146451,-100,4,1,0,60,0,0
153151,-100,4,1,0,60,0,1
159551,-100,4,1,0,35,0,0
160351,-100,4,1,0,55,0,0
161151,-100,4,1,0,40,0,0
161551,-100,4,1,0,53,0,0
163351,-100,4,1,0,42,0,0
164351,-100,4,1,0,50,0,0
165551,-100,4,1,0,45,0,0
165951,-100,4,1,0,60,0,0
177951,-100,4,1,0,40,0,0
178751,-100,4,1,0,60,0,1
191451,-100,4,1,0,60,0,0
191551,-100,4,1,0,60,0,1
204351,-100,4,1,0,60,0,0
207551,-100,4,1,0,60,0,1
210751,-100,4,1,0,60,0,0
212351,-100,4,1,0,60,0,1
213951,-100,4,1,0,60,0,0
218151,-83.3333333333333,4,1,0,60,0,0
218751,-100,4,1,0,60,0,0

[Colours]
Combo1 : 125,166,215
Combo2 : 55,242,69
Combo3 : 255,250,51
Combo4 : 255,96,72

[HitObjects]
388,140,1151,5,0,0:0:0:0:
388,140,1351,2,0,L|320:120,2,57.3333333333333
440,132,1551,2,0,L|491:83,2,57.3333333333333
420,180,1751,2,0,L|436:248,2,57.3333333333333
364,276,1951,2,0,L|350:220,2,57.3333333333333
272,228,2151,2,0,L|258:172,2,57.3333333333333
194,190,2351,6,0,L|272:228,1,86
304,348,2551,2,0,L|226:310,1,86
144,124,2751,6,0,P|112:172|116:212,1,86
194,191,2951,1,0,0:0:0:0:
194,190,3051,2,0,L|302:170,2,86
190,287,3351,2,0,L|105:302,2,86
288,308,3651,2,0,P|312:260|372:232,1,86
408,172,3851,5,0,0:0:0:0:
408,172,3951,2,0,P|456:164|364:104,1,258
375,77,4351,6,0,L|290:78,1,86
180,152,4551,1,0,0:0:0:0:
180,152,4651,2,0,L|280:152,1,86
388,260,4851,2,0,L|284:260,1,86
236,316,5051,6,0,P|216:264|232:216,1,86
290,78,5251,2,0,P|310:130|294:178,1,86
220,236,5451,1,0,0:0:0:0:
220,236,5551,2,0,L|124:248,1,86
8,260,5751,1,0,0:0:0:0:
178,70,5951,6,0,P|190:106|178:156,1,86
136,248,6151,1,0,0:0:0:0:
136,248,6251,2,0,P|164:300|216:320,2,86
100,124,6551,2,0,L|192:152,1,86
220,236,6751,1,0,0:0:0:0:
220,236,6851,1,0,0:0:0:0:
220,236,6951,2,0,L|312:264,1,86
294,348,7151,2,0,P|336:339|372:316,1,86
456,320,7351,2,0,P|476:264|476:204,1,86
324,92,7551,6,0,P|304:148|304:208,1,86
401,134,7751,1,0,0:0:0:0:
400,134,7851,2,0,P|416:82|324:4,1,172
342,3,8151,2,0,L|456:20,1,86
324,92,8351,6,0,B|279:80|240:96|240:96|216:64|216:64|168:80|168:80|148:56|64:68,1,258
90,65,8751,6,0,L|100:176,1,86
104,236,8951,1,0,0:0:0:0:
104,236,9051,1,0,0:0:0:0:
36,288,9151,2,0,P|80:320|184:224,1,172
264,276,9451,1,0,0:0:0:0:
264,276,9551,2,0,L|224:372,2,86
178,277,9851,2,0,P|216:204|336:236,1,172
348,272,10151,2,0,B|372:232|372:232|380:164,1,86
452,232,10351,2,0,L|461:146,1,86
308,112,10551,2,0,L|298:197,1,86
384,328,10751,5,0,0:0:0:0:
384,328,10851,1,0,0:0:0:0:
384,328,10951,2,0,B|338:331|338:331|268:312,1,86
216,336,11151,2,0,P|216:272|104:264,1,172
96,320,11451,1,0,0:0:0:0:
125,245,11551,2,0,L|160:148,1,86
216,112,11751,2,0,B|152:164|152:164|56:152,1,172
336,196,12151,1,0,0:0:0:0:
64,152,12351,5,0,0:0:0:0:
64,152,12451,1,0,0:0:0:0:
64,152,12551,2,0,L|98:54,1,86
172,48,12751,1,0,0:0:0:0:
172,48,12851,2,0,P|116:72|48:44,1,86
160,176,13051,2,0,P|200:152|140:44,1,172
160,176,13351,2,0,L|248:176,1,86
384,96,13551,2,0,L|298:96,1,86
220,264,13751,2,0,L|308:264,1,86
384,96,13951,5,0,0:0:0:0:
400,128,14051,1,0,0:0:0:0:
416,160,14151,2,0,L|396:256,1,86
288,348,14351,2,0,L|305:263,1,86
317,183,14551,1,0,0:0:0:0:
220,264,14651,2,0,P|160:260|132:152,1,172
152,72,14951,1,0,0:0:0:0:
28,316,15151,6,0,B|48:276|28:244|28:244|44:220|44:220|20:164|48:160|48:160|52:112|16:116|16:116|56:76|55:40|4:4,1,344
304,48,15751,6,0,L|360:38,2,57.3333333333333
208,80,15951,2,0,L|151:70,2,57.3333333333333
232,168,16151,2,0,L|146:156,1,86
188,268,16351,1,0,0:0:0:0:
228,268,16451,1,0,0:0:0:0:
268,256,16551,2,0,P|312:220|324:176,1,86
396,276,16751,1,0,3:0:0:0:
418,240,16851,1,0,3:0:0:0:
426,199,16951,2,0,P|416:142|384:110,1,86,0|0,0:0|0:0,3:0:0:0:
292,64,17151,5,0,0:0:0:0:
292,64,17251,2,0,L|392:52,1,86
269,190,17451,2,0,L|369:178,2,86
324,284,17751,2,0,L|238:294,1,86
188,356,17951,2,0,P|160:296|172:248,1,86
68,272,18151,2,0,L|96:156,1,86
32,72,18351,2,0,L|4:188,1,86
88,188,18551,2,0,B|192:204|192:204|208:194|208:194|268:204,1,172
404,148,18851,5,0,0:0:0:0:
404,148,18951,2,0,L|200:112,1,172
88,188,19251,2,0,P|144:112|208:140,1,172
204,288,19551,2,0,L|236:104,1,172
118,19,19851,2,0,L|86:203,1,172
89,189,20151,2,0,L|189:173,1,86
404,148,20351,5,0,0:0:0:0:
204,288,20551,1,0,0:0:0:0:
256,40,20751,1,0,0:0:0:0:
356,288,20951,1,0,0:0:0:0:
164,180,21151,2,0,L|98:180,6,43
256,40,21551,1,4,0:0:0:0:
256,40,21951,6,0,L|380:52,1,111.799994882202
460,140,22351,2,0,L|336:128,1,111.799994882202
348,128,22651,1,0,0:0:0:0:
348,128,22751,2,0,P|329:175|348:232,1,111.799994882202
256,40,23151,1,0,0:0:0:0:
348,232,23351,2,0,P|276:224|248:144,1,111.799994882202
460,140,23751,2,0,L|432:256,1,111.799994882202
252,196,24151,1,0,0:0:0:0:
368,340,24351,2,0,L|348:228,1,111.799994882202
328,88,24751,1,0,0:0:0:0:
252,196,24951,6,0,P|188:196|156:156,1,111.799994882202
252,196,25351,1,0,0:0:0:0:
252,196,25551,2,0,L|271:306,1,111.799994882202
180,272,25851,1,0,0:0:0:0:
180,272,25951,2,0,L|160:160,1,111.799994882202
328,88,26351,1,0,0:0:0:0:
72,120,26551,2,0,P|65:174|90:223,1,111.799994882202
348,192,26952,2,0,P|354:137|329:88,1,111.799994882202
180,272,27351,1,0,0:0:0:0:
408,304,27551,6,0,L|414:248,1,55.8999974411012
348,192,27751,2,0,L|341:247,1,55.8999974411012
401,359,27951,2,0,L|415:247,1,111.799994882202
472,80,28351,6,0,P|460:144|396:172,1,111.799994882202
348,192,28651,1,0,0:0:0:0:
348,192,28751,2,0,L|236:156,1,111.799994882202
120,184,29051,1,0,0:0:0:0:
120,184,29151,2,0,L|178:202,1,55.8999974411012,0|0,0:0|0:0,0:0:0:0:
242,158,29351,2,0,P|252:211|226:260,1,111.799994882202
24,272,29751,2,0,P|13:218|39:169,1,111.799994882202
227,260,30151,1,0,0:0:0:0:
24,272,30351,1,0,0:0:0:0:
112,88,30551,1,0,0:0:0:0:
128,296,30751,1,0,0:0:0:0:
112,88,30951,2,0,L|121:215,1,111.799994882202
324,328,31351,6,0,L|316:216,1,111.799994882202
308,104,31751,1,0,0:0:0:0:
491,122,31951,2,0,P|470:72|420:52,1,111.799994882202
296,184,32351,2,0,P|236:152|228:92,1,111.799994882202
224,113,32651,1,0,0:0:0:0:
224,113,32751,1,0,0:0:0:0:
118,244,32951,6,0,P|210:228|214:100,1,223.599989764405
153,162,33551,2,0,L|132:132,2,37.2666649607341
118,244,33751,2,0,L|114:308,2,37.2666649607341
40,228,33951,2,0,L|48:136,2,74.5333299214683
71,347,34351,2,0,P|97:359|125:359,1,55.8999974411012
188,312,34551,2,0,P|215:312|241:323,1,55.8999974411012
304,368,34751,6,0,P|356:372|404:300,1,111.799994882202
380,208,35151,1,0,0:0:0:0:
380,208,35351,2,0,L|448:208,1,55.8999974411012
332,300,35551,2,0,P|304:260|304:184,1,111.799994882202
336,64,35951,1,0,0:0:0:0:
296,184,36151,2,0,B|272:144|272:144|236:160|236:160|232:144|232:144|204:152|204:156|170:147|116:104,1,223.599989764405
336,64,36751,1,0,0:0:0:0:
60,168,36951,1,0,0:0:0:0:
88,276,37151,2,0,L|60:164,1,111.799994882202
296,184,37551,1,0,0:0:0:0:
180,332,37751,1,0,0:0:0:0:
180,332,37851,1,0,0:0:0:0:
180,332,37951,6,0,L|300:312,1,111.799994882202
407,166,38351,2,0,L|296:184,1,111.799994882202
296,184,38651,1,0,0:0:0:0:
296,184,38751,2,0,P|292:132|344:80,1,111.799994882202
292,312,39151,1,0,0:0:0:0:
419,376,39351,6,0,B|412:348|412:348|424:304|424:304|408:292|408:292|424:252|408:232|408:232|416:208|416:208|408:168,1,223.599989764405
480,12,39951,2,0,B|488:47|488:47|478:78|478:78|489:124,1,111.799994882202
449,145,40251,1,0,0:0:0:0:
408,168,40351,2,0,L|421:239,2,55.8999974411012
480,12,40751,1,0,0:0:0:0:
212,164,40951,2,0,L|284:188,1,55.8999974411012
408,168,41151,6,0,B|346:198|346:198|324:176|324:176|288:184|288:184|280:168|280:168|226:174|206:170|196:144,1,223.599989764405
436,248,41751,1,0,0:0:0:0:
213,165,41951,1,0,0:0:0:0:
408,168,42151,1,0,0:0:0:0:
184,240,42351,1,0,0:0:0:0:
312,32,42551,1,0,0:0:0:0:
304,264,42751,2,0,P|312:204|308:144,1,111.799994882202
312,32,43151,1,0,0:0:0:0:
212,164,43351,2,0,P|112:171|112:71,1,223.599989764405
24,168,43951,1,0,0:0:0:0:
312,32,44151,1,0,0:0:0:0:
216,276,44351,6,0,L|212:156,1,111.799994882202
416,232,44751,2,0,L|420:112,1,111.799994882202
180,192,45151,2,0,L|176:72,1,111.799994882202
304,236,45551,1,0,0:0:0:0:
80,164,45751,1,0,0:0:0:0:
256,192,45801,12,0,46751,0:0:0:0:
64,324,47551,6,0,L|136:252,1,86
192,196,47751,1,0,0:0:0:0:
192,196,47851,2,0,L|92:168,1,86
20,148,48051,1,0,0:0:0:0:
20,148,48151,2,0,L|44:252,1,86
108,172,48351,1,0,0:0:0:0:
108,172,48451,2,0,L|88:88,2,86
192,196,48751,2,0,P|232:164|284:168,1,86
412,244,48951,2,0,P|372:276|320:272,1,86
257,246,49151,6,0,L|264:332,1,86
344,120,49351,1,0,0:0:0:0:
344,120,49451,2,0,L|350:205,1,86
264,332,49651,1,0,0:0:0:0:
264,332,49751,2,0,P|332:356|456:320,2,172
344,120,50351,1,0,0:0:0:0:
192,368,50551,2,0,P|184:324|200:280,1,86
116,116,50751,5,0,0:0:0:0:
116,116,50851,1,0,0:0:0:0:
116,116,50951,2,0,L|140:232,1,86
80,328,51151,2,0,L|62:243,1,86
32,92,51351,2,0,P|52:52|104:28,1,86
256,64,51551,2,0,P|236:104|184:128,1,86
132,200,51751,2,0,L|217:201,1,86
296,256,51951,2,0,L|297:170,1,86
217,282,52151,2,0,P|241:318|369:298,1,172
256,64,52551,5,0,0:0:0:0:
256,64,52651,1,0,0:0:0:0:
256,64,52751,2,0,L|360:88,1,86
396,152,52951,2,0,P|396:88|488:84,1,172
116,152,53351,2,0,P|116:88|24:84,1,172
256,64,53751,1,0,0:0:0:0:
256,344,53951,6,0,L|256:240,1,86
256,176,54151,1,0,0:0:0:0:
176,304,54251,2,0,L|176:218,1,86
336,232,54451,1,0,0:0:0:0:
336,232,54551,2,0,L|336:140,2,86
152,200,54851,2,0,L|152:114,2,86
256,264,55151,2,0,L|256:172,1,86
100,268,55351,2,0,L|100:360,1,86
100,352,55551,6,0,P|128:380|248:356,1,172
384,340,55851,1,0,0:0:0:0:
384,340,55951,2,0,L|400:240,1,86
312,204,56151,2,0,L|328:104,2,86
56,104,56551,1,0,0:0:0:0:
312,204,56751,1,0,0:0:0:0:
56,104,56951,1,0,0:0:0:0:
96,280,57151,6,0,L|72:176,1,86
56,104,57351,1,0,0:0:0:0:
164,220,57451,2,0,L|140:116,1,86
212,76,57651,1,0,0:0:0:0:
212,76,57751,2,0,L|232:160,1,86
56,104,57951,1,0,0:0:0:0:
56,104,58051,2,0,L|36:20,2,86
96,280,58351,2,0,P|120:228|116:176,1,86
56,104,58551,2,0,L|148:87,1,86
317,145,58751,6,0,L|232:160,1,86
121,202,58951,2,0,P|201:196|228:272,1,172
228,271,59251,1,0,0:0:0:0:
228,272,59351,2,0,L|312:256,1,86
312,256,59551,2,0,L|480:300,1,172
199,127,59951,2,0,L|32:84,1,172
256,344,60351,5,0,0:0:0:0:
256,40,60551,1,0,0:0:0:0:
480,300,60751,1,0,0:0:0:0:
32,84,60951,1,0,0:0:0:0:
32,300,61151,1,0,0:0:0:0:
480,84,61351,1,0,0:0:0:0:
216,272,61551,2,0,B|203:255|203:255|175:251|151:219,1,86
296,112,61751,2,0,B|308:128|308:128|336:132|360:164,1,86
132,248,61951,6,0,P|112:184|192:100,1,172
380,136,62251,1,0,0:0:0:0:
380,136,62351,2,0,P|400:200|320:284,1,172
276,76,62751,1,0,0:0:0:0:
236,308,62951,1,0,0:0:0:0:
256,40,63151,1,0,0:0:0:0:
256,344,63351,5,0,0:0:0:0:
256,344,63451,1,0,0:0:0:0:
256,344,63551,2,0,L|360:324,1,86
380,136,63751,2,0,L|344:248,1,86
256,344,63951,2,0,L|152:324,1,86
132,136,64151,2,0,L|168:248,1,86
88,360,64351,2,0,L|104:272,1,86
256,80,64551,2,0,L|256:168,1,86
424,360,64751,2,0,L|408:272,1,86
256,80,64951,1,0,0:0:0:0:
256,80,65051,1,0,0:0:0:0:
256,80,65151,6,0,L|352:80,1,86
464,160,65351,2,0,L|348:160,1,86
300,204,65551,1,0,0:0:0:0:
300,204,65651,1,0,0:0:0:0:
300,204,65751,2,0,L|192:204,1,86
136,260,65951,2,0,P|116:212|128:156,1,86
168,24,66151,2,0,L|168:116,1,86
216,292,66351,2,0,L|216:206,1,86
256,36,66551,1,0,0:0:0:0:
256,84,66651,1,0,0:0:0:0:
256,132,66751,5,0,0:0:0:0:
256,192,66801,12,0,67651,0:0:0:0:
268,312,67751,6,0,B|246:284|248:252|248:252|276:268|276:268|264:224|264:224|280:216|284:188|260:184|260:184|276:160|272:100|272:100|256:92|256:92|250:66|272:16,1,344
408,284,68351,5,0,0:0:0:0:
196,136,68551,1,0,0:0:0:0:
180,316,68751,2,0,P|152:264|164:208,1,111.799994882202
96,156,69051,1,0,0:0:0:0:
95,157,69151,2,0,P|141:128|196:136,1,111.799994882202
79,337,69551,2,0,P|133:344|180:316,1,111.799994882202
344,160,69951,1,0,0:0:0:0:
256,344,70151,1,0,0:0:0:0:
344,160,70351,1,0,0:0:0:0:
256,344,70551,1,0,0:0:0:0:
256,344,70651,1,0,0:0:0:0:
256,344,70751,2,0,L|368:320,1,111.799994882202
448,172,71151,6,0,L|464:228,1,55.8999974411012
448,172,71351,2,0,P|380:180|324:136,1,111.799994882202
168,248,71751,2,0,P|236:256|292:212,1,111.799994882202
404,92,72151,1,0,0:0:0:0:
272,236,72351,2,0,L|256:120,1,111.799994882202
248,40,72751,1,0,0:0:0:0:
192,200,72951,2,0,B|184:164|184:164|156:172|156:172|140:136|96:124|56:132|24:168|32:192,1,223.599989764405
248,40,73551,1,0,0:0:0:0:
96,208,73751,5,0,0:0:0:0:
96,208,73851,1,0,0:0:0:0:
96,208,73951,2,0,L|140:288,1,55.8999974411012
232,272,74151,2,0,L|205:223,1,55.8999974411012
56,288,74351,2,0,P|84:320|184:300,1,111.799994882202
232,272,74651,1,0,0:0:0:0:
272,340,74751,6,0,L|296:216,1,111.799994882202
416,44,75151,2,0,L|392:168,1,111.799994882202
360,344,75551,2,0,P|436:316|384:224,1,167.699992323304
425,242,75951,1,0,0:0:0:0:
88,244,76151,1,0,0:0:0:0:
256,368,76351,2,0,L|228:256,1,111.799994882202
60,136,76751,2,0,L|87:244,1,111.799994882202
116,268,77051,1,0,0:0:0:0:
144,292,77151,2,0,L|136:352,2,55.8999974411012
180,48,77551,1,0,0:0:0:0:
232,260,77751,5,0,0:0:0:0:
232,260,77851,1,0,0:0:0:0:
232,260,77951,1,0,0:0:0:0:
256,72,78151,1,0,0:0:0:0:
136,284,78351,1,0,0:0:0:0:
308,56,78551,1,0,0:0:0:0:
376,284,78751,1,0,0:0:0:0:
204,88,78951,2,0,L|216:156,1,55.8999974411012
232,261,79151,1,0,0:0:0:0:
222,372,79351,2,0,L|234:248,1,111.799994882202
308,56,79751,1,0,0:0:0:0:
368,144,79951,6,0,L|392:92,2,37.2666649607341
268,184,80151,2,0,L|244:132,2,37.2666649607341
408,232,80351,2,0,L|440:156,2,74.5333299214683
380,308,80751,1,0,0:0:0:0:
308,300,80851,1,0,0:0:0:0:
240,280,80951,1,0,0:0:0:0:
180,240,81051,1,0,0:0:0:0:
128,188,81151,6,0,B|116:136|116:136|120:112|160:80,1,111.799994882202
384,188,81551,2,0,B|396:136|396:136|392:112|352:80,1,111.799994882202
256,112,81851,1,0,0:0:0:0:
256,112,81951,2,0,L|256:36,2,55.8999974411012
256,352,82351,1,0,0:0:0:0:
256,352,82551,6,0,B|272:312|272:312|248:312|248:312|260:288|260:288|248:276|276:248|248:244|248:244|272:196|248:152,1,223.599989764405
184,280,83151,2,0,B|136:288|136:288|76:244,1,111.799994882202
108,212,83451,1,0,0:0:0:0:
132,176,83551,2,0,L|108:56,1,111.799994882202
105,361,83951,2,0,L|84:252,1,111.799994882202
360,280,84351,1,0,0:0:0:0:
84,252,84551,1,0,0:0:0:0:
317,383,84751,2,0,L|361:275,1,111.799994882202
424,344,85151,1,0,0:0:0:0:
304,132,85351,1,0,0:0:0:0:
424,344,85551,1,0,0:0:0:0:
360,280,85751,6,0,B|380:236|376:208|376:208|408:208|408:208|408:168|404:148|404:148|428:128|432:84,1,223.599989764405
296,224,86351,1,0,0:0:0:0:
296,224,86451,1,0,0:0:0:0:
296,224,86551,2,0,P|244:204|208:132,1,111.799994882202
480,244,86951,1,0,0:0:0:0:
308,336,87151,2,0,L|296:216,1,111.799994882202
129,104,87551,2,0,B|139:127|126:169|126:169|145:159|145:159|137:212|137:212|145:211|145:211|140:256|155:303,1,223.599989764405
256,80,88151,1,0,0:0:0:0:
152,284,88351,1,0,0:0:0:0:
296,224,88551,1,0,0:0:0:0:
64,228,88751,2,0,L|78:338,1,111.799994882202
392,360,89151,6,0,B|383:337|383:337|391:317|391:317|377:296|377:288|377:288|381:271|376:249,1,111.799994882202
368,132,89551,1,0,0:0:0:0:
304,304,89751,1,0,0:0:0:0:
304,304,89851,1,0,0:0:0:0:
304,304,89951,1,0,0:0:0:0:
448,120,90151,1,0,0:0:0:0:
488,280,90351,2,0,L|368:256,1,111.799994882202
192,280,90751,6,0,L|301:301,1,111.799994882202
264,80,91151,2,0,L|154:101,1,111.799994882202
104,300,91551,2,0,L|213:321,1,111.799994882202
48,192,91951,1,0,0:0:0:0:
256,192,92151,1,0,0:0:0:0:
256,192,92201,12,0,93151,0:0:0:0:
88,344,93951,6,0,L|108:248,1,86
116,100,94151,1,0,0:0:0:0:
184,260,94251,2,0,L|204:164,1,86
212,88,94451,1,0,0:0:0:0:
100,184,94551,2,0,L|116:92,1,86
212,88,94751,1,0,0:0:0:0:
212,88,94851,2,0,L|312:88,2,86
276,168,95151,2,0,B|326:168|326:168|372:204,1,86
408,324,95351,2,0,B|357:324|357:324|312:288,1,86
406,136,95551,6,0,P|428:193|403:247,1,86
260,329,95751,1,0,0:0:0:0:
260,328,95851,2,0,P|257:285|277:248,1,86
276,168,96051,1,0,0:0:0:0:
188,252,96151,2,0,P|132:244|136:128,1,172
324,252,96551,2,0,P|380:244|376:128,1,172
256,332,96951,1,0,0:0:0:0:
256,332,97051,1,0,0:0:0:0:
256,332,97151,6,0,P|192:344|156:312,1,86
166,172,97351,2,0,P|166:215|188:252,1,86
96,364,97551,2,0,L|116:260,1,86
260,111,97751,2,0,L|244:196,1,86
82,184,97951,2,0,L|190:168,1,86
329,183,98151,2,0,L|244:196,1,86
146,84,98351,2,0,L|232:72,1,86
308,56,98551,1,0,0:0:0:0:
378,86,98651,1,0,0:0:0:0:
444,124,98751,6,0,L|420:304,1,172
124,256,99151,2,0,L|148:76,1,172
148,84,99451,1,0,0:0:0:0:
60,132,99551,2,0,L|16:144,2,43
60,132,99751,2,0,L|37:302,1,172
108,372,100051,2,0,L|192:355,1,86
200,264,100251,5,0,0:0:0:0:
200,264,100351,2,0,L|284:281,1,86,0|0,0:0|0:0,0:0:0:0:
412,296,100551,1,0,0:0:0:0:
412,296,100651,2,0,L|404:204,1,86
484,140,100851,1,0,0:0:0:0:
484,140,100951,2,0,L|491:225,2,86
326,201,101251,2,0,L|320:115,2,86
336,308,101551,1,0,0:0:0:0:
315,15,101751,1,0,0:0:0:0:
336,308,101951,6,0,P|268:316|236:300,1,86
184,352,102151,2,0,P|137:334|100:292,1,86
0,248,102351,2,0,P|56:244|100:216,1,86
112,140,102551,2,0,L|112:324,1,172
400,312,102951,2,0,L|400:128,1,172
256,352,103351,1,0,0:0:0:0:
256,352,103551,6,0,P|288:304|284:264,1,86
178,218,103751,1,0,0:0:0:0:
178,218,103851,2,0,L|260:192,1,86
288,278,104051,2,0,L|369:251,1,86
336,120,104251,2,0,L|254:146,1,86
108,116,104451,1,0,0:0:0:0:
108,116,104551,2,0,L|189:89,1,86
344,44,104751,1,0,0:0:0:0:
72,288,104951,1,0,0:0:0:0:
72,288,105151,6,0,L|84:196,1,86
188,88,105351,2,0,L|176:173,1,86,0|0,0:0|0:0,0:0:0:0:
148,292,105551,2,0,L|240:292,1,86
416,256,105751,2,0,P|368:280|280:200,1,172
281,217,106151,5,0,0:0:0:0:
216,256,106251,1,0,0:0:0:0:
148,292,106351,2,0,L|60:292,1,86
0,248,106551,2,0,L|86:248,1,86
256,272,106751,5,0,0:0:0:0:
256,272,106851,2,0,L|256:358,2,86
256,76,107151,1,0,0:0:0:0:
432,328,107351,1,0,0:0:0:0:
80,328,107551,1,0,0:0:0:0:
432,64,107751,1,0,0:0:0:0:
80,64,107951,2,0,L|108:160,1,86
216,276,108151,2,0,L|191:193,1,86
80,64,108351,6,0,P|24:124|64:220,1,172
432,320,108751,2,0,P|488:260|448:164,1,172
112,148,109151,1,0,0:0:0:0:
400,236,109351,2,0,L|292:224,1,86
112,236,109551,1,0,0:0:0:0:
112,236,109651,1,0,0:0:0:0:
112,236,109751,2,0,L|220:248,1,86
300,328,109951,6,0,L|300:240,1,86
192,152,110151,2,0,L|192:238,1,86
340,288,110351,6,0,L|340:200,1,86
156,228,110551,2,0,L|156:314,1,86
288,236,110751,5,0,0:0:0:0:
288,192,110851,1,0,0:0:0:0:
288,148,110951,2,0,L|288:56,1,86
400,168,111151,2,0,L|400:254,1,86
168,280,111351,2,0,L|168:194,1,86
208,104,111551,6,0,P|160:96|112:116,1,86
60,176,111751,1,0,0:0:0:0:
60,176,111851,1,0,0:0:0:0:
60,176,111951,2,0,L|76:268,1,86
152,236,112151,2,0,P|188:264|248:260,1,86
304,104,112351,6,0,P|352:96|400:116,1,86
452,176,112551,1,0,0:0:0:0:
452,176,112651,1,0,0:0:0:0:
452,176,112751,2,0,L|436:268,1,86
360,236,112951,2,0,P|324:264|264:260,1,86
256,60,113151,5,0,0:0:0:0:
256,192,113201,12,0,114051,0:0:0:0:
260,64,114151,6,0,B|234:100|232:128|232:128|264:120|264:120|256:160|256:160|268:168|272:196|248:200|248:200|260:224|260:268|260:268|244:292|244:292|238:318|268:348,1,344
258,336,114751,1,0,0:0:0:0:
320,328,121151,5,0,0:0:0:0:
96,352,121351,2,0,L|112:256,1,86
84,196,121551,1,0,0:0:0:0:
116,124,121651,1,0,0:0:0:0:
48,88,121751,2,0,L|64:-8,1,86
229,60,121951,2,0,L|281:60,2,43
229,60,122151,2,0,L|243:144,1,86
306,244,122351,2,0,L|320:328,1,86
192,296,122551,2,0,L|177:211,1,86
320,120,122751,6,0,P|364:112|416:216,1,172
306,245,123051,1,0,0:0:0:0:
306,245,123151,2,0,L|216:224,1,86
228,60,123351,2,0,L|244:160,1,86
264,336,123551,2,0,B|244:312|244:312|196:324|196:324|178:304|178:304|137:305|137:305|100:292,1,172
46,337,123851,2,0,B|32:296|36:260|81:225|81:225|108:224|108:224|128:208|128:208,1,172
65,69,124151,2,0,L|88:177,1,86
116,296,124351,5,0,0:0:0:0:
151,223,124451,1,0,0:0:0:0:
156,144,124551,2,0,L|260:152,1,86
320,120,124751,2,0,B|340:100|340:100|344:68|324:32,1,86
380,104,124951,2,0,P|441:76|483:93,1,86
500,232,125151,1,0,0:0:0:0:
440,188,125251,1,0,0:0:0:0:
367,182,125351,2,0,B|333:212|280:189|280:189|257:219|236:204|236:204|198:231,1,172
44,292,125651,1,0,0:0:0:0:
44,292,125751,2,0,B|84:304|116:296|116:296|136:319|136:319|176:308|232:332,1,172,0|0,0:0|0:0,3:0:0:0:
164,60,126151,6,0,L|156:156,1,86
68,216,126351,2,0,B|64:172|64:172|84:124,1,86
232,108,126551,2,0,L|224:204,1,86
212,316,126751,1,0,0:0:0:0:
204,308,126851,1,0,0:0:0:0:
196,300,126951,1,0,0:0:0:0:
272,268,127051,2,0,B|304:255|304:255|302:226|328:204,1,86
420,199,127251,2,0,B|392:204|392:204|382:227|382:227|358:229|358:229|216:293,1,172
272,268,127551,6,0,L|284:156,1,86
180,248,127751,1,0,0:0:0:0:
156,256,127851,1,0,0:0:0:0:
132,264,127951,2,0,L|100:168,1,86
184,164,128151,2,0,L|152:68,1,86
40,40,128351,1,0,0:0:0:0:
116,60,128451,1,0,0:0:0:0:
192,56,128551,2,0,P|252:48|312:64,1,86
348,104,128751,2,0,B|372:72|372:72|396:64|396:64|420:28,1,86
504,24,128951,2,0,L|452:124,1,86
456,228,129151,6,0,P|416:196|412:160,1,86
348,104,129351,2,0,L|328:224,1,86
388,328,129551,1,0,0:0:0:0:
376,296,129651,1,0,0:0:0:0:
364,264,129751,2,0,L|300:324,1,86
184,320,129951,2,0,L|246:261,1,86
172,212,130151,1,0,0:0:0:0:
172,212,130251,2,0,P|196:172|188:124,1,86
144,44,130451,2,0,L|176:228,1,172
40,364,130851,5,0,0:0:0:0:
40,364,130951,2,0,L|52:244,1,86
4,184,131151,2,0,B|40:188|64:172|64:172|104:192,1,86
172,212,131351,2,0,B|208:212|208:212|280:144,1,86
320,160,131551,1,0,0:0:0:0:
396,140,131651,2,0,P|396:192|388:232,1,86
312,308,131851,6,0,B|300:276|300:276|321:265|321:265|304:240|304:240|321:217|320:144,1,172
476,120,132151,2,0,L|468:240,1,86
416,332,132351,1,0,0:0:0:0:
416,332,132451,1,0,0:0:0:0:
416,332,132551,1,0,0:0:0:0:
312,308,132651,2,0,B|272:316|260:292|260:292|228:312|228:312|208:296|144:300,1,172
3,340,132951,2,0,B|43:336|70:342|70:342|135:308,1,86
86,333,133151,1,0,0:0:0:0:
156,300,133351,6,0,B|141:206|141:206|121:186|121:186|109:86,1,223.599989764405
104,56,133851,1,0,0:0:0:0:
104,56,133951,6,0,L|200:64,1,86
200,144,134151,2,0,L|296:152,1,86
380,176,134351,2,0,L|384:80,1,86
289,238,134551,2,0,L|285:142,1,86
476,120,134751,1,0,0:0:0:0:
476,164,134851,1,0,0:0:0:0:
476,208,134951,2,0,L|472:293,1,86
360,280,135151,2,0,P|324:312|256:312,1,86
120,352,135351,1,0,0:0:0:0:
120,352,135451,1,0,0:0:0:0:
120,352,135551,6,0,L|196:312,1,86
289,239,135751,2,0,L|213:279,1,86
36,308,135951,2,0,L|112:268,1,86
168,188,136151,2,0,L|244:148,1,86
352,88,136351,1,0,0:0:0:0:
352,88,136451,2,0,P|368:140|352:200,1,86
268,256,136651,1,0,0:0:0:0:
268,256,136751,2,0,B|300:280|300:280|384:288,1,86
428,372,136951,2,0,L|314:359,1,86
248,340,137151,6,0,L|162:330,1,86
46,266,137351,1,0,0:0:0:0:
114,286,137451,1,0,0:0:0:0:
184,278,137551,2,0,L|276:254,1,86
364,288,137751,2,0,L|456:264,1,86
156,252,137951,6,0,L|248:228,1,86
332,258,138151,2,0,L|424:234,1,86
128,228,138351,6,0,L|220:204,1,86
308,238,138551,2,0,L|400:214,1,86
476,96,138751,1,0,0:0:0:0:
476,96,138851,1,0,0:0:0:0:
476,96,138951,2,0,P|464:152|484:196,1,86
372,120,139151,2,0,L|384:16,2,86
360,204,139451,1,0,0:0:0:0:
288,88,139551,2,0,L|300:-16,2,86
276,172,139851,1,0,0:0:0:0:
275,172,139951,6,0,P|228:152|204:104,1,86
124,129,140151,2,0,L|209:123,1,86
96,211,140351,2,0,L|132:107,1,86
68,34,140551,2,0,L|40:116,1,86
36,284,140751,1,0,0:0:0:0:
80,320,140851,1,0,0:0:0:0:
136,328,140951,2,0,P|182:315|220:280,1,86
276,172,141151,2,0,B|264:208|264:208|276:224|276:224|288:280,1,86
360,344,141351,2,0,B|348:308|348:308|360:292|360:292|372:236,1,86
368,88,141551,6,0,L|398:200,1,86
428,314,141751,1,0,0:0:0:0:
428,314,141851,1,0,0:0:0:0:
428,314,141951,2,0,L|448:210,1,86
259,256,142151,2,0,L|276:172,1,86
368,88,142351,1,0,0:0:0:0:
368,88,142451,2,0,B|344:104|344:104|296:40,1,86
240,80,142651,2,0,P|200:52|128:136,1,172
124,123,142951,2,0,B|104:68|104:68|108:16,1,86
44,180,143151,2,0,B|52:156|52:156|28:136|28:136|40:108|40:108|28:72|28:72|36:16,1,172
34,25,143451,1,0,0:0:0:0:
124,124,143551,6,0,L|184:156,2,43
124,124,143751,2,0,L|140:220,1,86
152,312,143951,2,0,L|132:368,2,43
152,312,144151,2,0,L|252:320,1,86
304,216,144351,2,0,L|324:160,2,43
304,216,144551,2,0,L|204:224,1,86
320,348,144751,2,0,L|356:384,2,43
320,348,144951,2,0,L|376:276,1,86
460,256,145151,5,0,0:0:0:0:
460,256,145201,1,0,0:0:0:0:
460,256,145251,2,0,L|444:160,2,86
387,365,145551,2,0,L|371:269,1,86
304,216,145751,2,0,L|288:120,1,86
140,104,145951,6,0,B|111:151|115:188|115:188|141:194|141:194|138:240|138:240|150:248|150:248|162:294,1,223.599989764405
372,280,146251,2,0,B|401:233|397:196|397:196|371:190|371:190|374:144|374:144|361:135|361:135|350:90,1,223.599989764405
176,16,146551,5,0,0:0:0:0:
176,16,146651,1,0,0:0:0:0:
176,16,146751,2,0,P|220:52|228:103,1,86
216,204,146951,1,0,0:0:0:0:
216,204,147051,2,0,L|288:128,2,86
139,105,147351,2,0,L|80:168,1,86
24,248,147551,1,0,0:0:0:0:
23,248,147651,2,0,P|67:256|123:228,1,86
216,204,147851,1,0,0:0:0:0:
216,204,147951,2,0,P|264:252|136:296,1,258
216,204,148351,6,0,L|340:192,1,86
436,264,148551,1,0,0:0:0:0:
436,264,148651,2,0,L|350:272,2,86
504,312,148951,2,0,P|516:280|496:208,1,86
380,188,149151,1,0,0:0:0:0:
380,188,149251,2,0,P|368:156|388:84,1,86
416,32,149451,1,0,0:0:0:0:
416,32,149551,2,0,L|308:16,1,86
188,0,149751,1,0,0:0:0:0:
188,0,149951,6,0,L|199:85,1,86
104,60,150151,1,0,0:0:0:0:
104,60,150251,2,0,L|120:176,1,86
124,236,150451,1,0,0:0:0:0:
192,192,150551,2,0,L|288:196,1,86
124,236,150751,2,0,L|38:232,1,86
68,336,150951,2,0,L|153:339,1,86
228,312,151151,2,0,P|272:320|328:300,1,86
388,348,151351,2,0,P|436:320|448:248,1,86
264,155,151551,6,0,L|268:241,1,86
376,272,151751,1,0,0:0:0:0:
376,272,151851,2,0,P|371:196|464:204,1,172
448,102,152151,2,0,L|452:188,1,86
372,103,152351,2,0,B|354:85|347:70|347:70|324:73|298:88|298:88|281:53|281:53|244:67|244:67|224:40|224:40|197:39|158:57,1,258
116,156,152751,2,0,B|152:151|152:151|200:116,1,86
96,52,152951,2,0,B|59:56|59:56|12:92,1,86
12,272,153151,6,0,L|152:256,1,86
208,256,153351,1,0,0:0:0:0:
128,344,153451,2,0,L|268:328,1,86
288,272,153651,1,0,0:0:0:0:
288,272,153751,2,0,L|304:168,1,86
312,72,153951,1,0,0:0:0:0:
392,132,154051,2,0,L|378:216,1,86
216,132,154251,1,0,0:0:0:0:
192,216,154351,2,0,L|88:168,1,86
64,68,154551,2,0,L|142:104,1,86
164,292,154751,6,0,P|187:264|180:188,1,86
216,132,154951,1,0,0:0:0:0:
216,132,155051,2,0,L|294:168,1,86
244,308,155251,1,0,0:0:0:0:
244,308,155351,2,0,P|184:304|140:268,1,86
92,232,155551,1,0,0:0:0:0:
20,292,155651,2,0,P|0:240|12:188,1,86
64,68,155851,1,0,0:0:0:0:
64,68,155951,2,0,L|80:168,1,86
152,208,156151,2,0,L|168:308,1,86
96,340,156351,6,0,P|124:368|184:372,1,86
323,277,156551,1,0,0:0:0:0:
324,276,156651,2,0,L|244:309,2,86
268,208,156951,2,0,L|347:174,1,86
480,256,157151,2,0,P|492:216|468:156,1,86
348,92,157351,2,0,P|336:132|360:192,1,86
488,96,157551,2,0,B|444:72|444:72|416:28,1,86
348,92,157751,2,0,L|268:48,1,86
272,50,157951,6,0,L|184:68,1,86
76,128,158151,1,0,0:0:0:0:
76,128,158251,2,0,L|56:28,2,86
32,204,158551,2,0,P|64:172|144:260,1,172
224,196,158851,2,0,P|244:216|328:220,1,86
364,312,159051,2,0,B|364:280|364:280|380:288|380:288|372:248|372:248|388:232|388:232|376:208|372:164|372:164|396:156|396:156|368:96|368:48|372:24,1,344
372,24,159551,6,0,L|330:14,3,43
288,36,159751,2,0,L|246:45,3,43
200,64,159951,2,0,L|156:56,3,43
112,40,160151,2,0,L|70:49,3,43
48,92,160351,2,0,L|36:188,1,86
68,220,160551,2,0,L|80:316,1,86
64,356,160751,2,0,L|24:376,3,43
116,340,160951,2,0,P|156:344|224:328,1,86
164,252,161151,6,0,L|205:242,3,43
252,256,161351,2,0,L|301:262,3,43
320,300,161551,2,0,L|408:292,1,86
380,212,161751,2,0,L|465:204,1,86
496,128,161951,2,0,P|488:80|444:40,1,86
380,96,162151,2,0,L|294:103,1,86
208,68,162351,2,0,L|122:75,1,86
60,192,162551,2,0,L|145:184,1,86
64,280,162751,6,0,B|100:284|108:272|108:272|128:304|128:304|156:288|156:288|184:300|184:300|216:280|252:280|316:288,1,258
344,356,163151,2,0,P|374:323|368:240,1,114.666666666667
260,192,163351,2,0,L|200:196,2,57.3333333333333
304,164,163551,2,0,L|337:213,2,57.3333333333333
256,140,163751,2,0,L|282:86,2,57.3333333333333
180,120,163951,2,0,L|120:124,2,57.3333333333333
120,48,164151,2,0,L|60:52,2,57.3333333333333
40,80,164351,6,0,L|48:156,1,57.3333333333333
68,184,164484,1,0,0:0:0:0:
68,184,164551,2,0,L|60:260,1,57.3333333333333
36,284,164684,1,0,0:0:0:0:
36,284,164751,2,0,L|44:360,1,57.3333333333333
88,364,164884,1,0,0:0:0:0:
88,364,164951,2,0,L|164:356,1,57.3333333333333
192,336,165084,1,0,0:0:0:0:
192,336,165151,2,0,L|272:344,1,57.3333333333333
296,360,165284,1,0,0:0:0:0:
296,360,165351,2,0,L|352:352,1,57.3333333333333
404,364,165484,5,0,0:0:0:0:
404,364,165551,2,0,B|394:290|394:290|413:212|413:212|405:167|405:167|419:144|419:144|415:99,1,258
359,68,165951,2,0,P|387:178|488:128,1,258
487,129,166351,2,0,L|500:232,1,86
476,288,166551,2,0,L|486:373,1,86
296,360,166751,1,0,0:0:0:0:
296,360,166851,2,0,L|352:288,1,86
332,152,167051,2,0,L|279:219,1,86
240,300,167251,1,0,0:0:0:0:
240,300,167301,1,0,0:0:0:0:
240,300,167351,2,0,P|200:272|192:212,1,86
56,220,167551,6,0,P|112:256|128:112,1,258
161,125,167951,2,0,L|248:116,1,86
344,108,168151,1,0,0:0:0:0:
416,212,168251,2,0,B|407:195|408:164|408:164|416:176|416:176|416:152|416:152|424:160|424:160|424:140|424:140|428:148|428:128|428:128|432:136|432:116|432:116|440:128|440:128|436:104|436:104|444:112|444:112|444:88|456:104|456:104|448:64,1,258
451,77,168651,1,0,0:0:0:0:
450,77,168751,2,0,L|480:168,1,86
443,294,168951,2,0,L|413:203,1,86
344,108,169151,6,0,B|336:140|336:140|328:136|328:136|328:164|328:164|320:160|320:160|324:184|324:184|316:184|316:184|312:216|312:216|304:212|304:212|303:235|303:235|296:232|296:232|294:264|294:264|285:259|285:259|284:280|284:280|272:292,1,258
362,294,169551,2,0,L|276:287,1,86
88,316,169751,2,0,L|173:323,1,86
288,184,169951,2,0,L|202:176,1,86
16,228,170151,2,0,L|101:235,1,86
101,235,170351,1,0,0:0:0:0:
96,56,170551,6,0,B|80:76|80:76|96:72|96:72|84:88|100:84|100:84|84:96|84:96|104:96|104:96|84:112|84:112|104:108|104:108|88:128|88:128|104:128|104:128|92:136|92:136|104:136|104:136|92:152|92:152|104:152|104:152|92:164|104:168|104:168|100:192|100:192|112:212|112:212|100:240|100:240,1,344
101,235,171051,2,0,L|84:336,1,86
164,368,171251,1,0,0:0:0:0:
164,368,171351,2,0,L|178:283,1,86
236,200,171551,2,0,L|224:256,2,57.3333333333333
212,160,171751,2,0,L|169:121,2,57.3333333333333
260,156,171951,2,0,B|314:149|314:149|341:162|341:162|448:148,1,172
512,140,172251,1,0,0:0:0:0:
468,224,172351,6,0,L|382:235,1,86
344,304,172551,2,0,L|258:315,1,86
124,336,172751,1,0,0:0:0:0:
124,336,172851,2,0,L|108:288,4,43
136,328,173151,2,0,L|140:216,1,86
48,136,173351,2,0,L|44:221,1,86
184,264,173551,2,0,L|188:152,1,86
132,68,173751,2,0,B|148:80|148:80|156:68|156:68|164:84|164:84|172:72|172:72|180:88|180:88|192:76|192:76|200:92|200:92|212:80|212:80|220:96|220:96|232:84|232:84|240:100|240:100|252:88|252:88|260:104|260:104|276:100|276:100|320:84,1,258
292,94,174151,2,0,L|340:184,1,86
420,180,174351,2,0,P|436:244|436:288,1,86
480,336,174551,2,0,P|444:371|388:384,1,86
320,376,174751,6,0,B|316:352|295:339|295:339|276:352|246:357|246:357|229:322|229:322|184:332|184:332|172:309|172:309|145:308|106:326,1,258
52,352,175151,2,0,L|40:244,1,86
116,264,175351,2,0,L|104:156,1,86
56,52,175551,1,0,0:0:0:0:
196,184,175751,2,0,P|249:173|289:141,1,86
456,52,175951,1,0,0:0:0:0:
456,332,176151,1,0,0:0:0:0:
256,80,176351,1,0,0:0:0:0:
56,332,176551,1,0,0:0:0:0:
456,332,176751,1,0,0:0:0:0:
256,196,176951,5,0,0:0:0:0:
256,192,177001,12,0,177951,0:0:0:0:
96,316,178751,6,0,P|111:262|156:236,1,86
72,80,178951,1,0,0:0:0:0:
72,80,179051,2,0,L|104:176,1,86
170,308,179251,1,0,0:0:0:0:
170,308,179351,2,0,L|258:284,1,86
176,132,179551,1,0,0:0:0:0:
176,132,179651,2,0,L|208:228,1,86
312,144,179851,1,0,0:0:0:0:
311,143,179951,2,0,L|284:62,1,86
412,240,180151,2,0,L|429:155,1,86
508,36,180351,6,0,P|478:67|436:80,1,86
344,192,180551,1,0,0:0:0:0:
344,192,180651,2,0,P|296:204|228:184,1,86
140,36,180851,1,0,0:0:0:0:
140,36,180951,2,0,L|336:20,2,172
64,176,181451,1,0,0:0:0:0:
64,176,181551,2,0,P|64:132|52:92,1,86
220,136,181751,2,0,L|324:128,1,86
512,204,181951,6,0,L|408:212,1,86
259,318,182151,2,0,P|211:294|197:241,1,86
74,261,182351,2,0,L|88:176,1,86
236,52,182550,2,0,L|218:145,1,86
144,348,182751,1,0,0:0:0:0:
144,348,182851,1,0,0:0:0:0:
144,348,182951,2,0,P|194:358|240:348,1,86
384,300,183151,2,0,P|425:278|466:283,1,86
389,147,183351,6,0,P|353:226|388:305,1,172
68,264,183751,2,0,P|104:185|69:106,1,172
120,32,184051,1,0,0:0:0:0:
204,56,184151,2,0,P|244:32|320:44,1,86
404,0,184351,2,0,L|416:112,1,86
276,136,184551,2,0,L|284:224,1,86,0|0,0:0|0:0,0:0:0:0:
263,363,184751,1,0,0:0:0:0:
312,336,184851,1,0,0:0:0:0:
362,311,184951,2,0,L|462:327,1,86,0|0,0:0|0:0,0:0:0:0:
263,363,185151,6,0,L|178:349,1,86
8,360,185351,1,0,0:0:0:0:
8,360,185451,2,0,P|56:332|76:296,1,86
184,176,185651,1,0,0:0:0:0:
184,176,185751,2,0,L|192:284,1,86
36,212,185951,1,0,0:0:0:0:
36,212,186051,2,0,L|29:126,1,86
52,40,186251,1,0,0:0:0:0:
112,104,186351,2,0,P|156:84|220:100,1,86
296,60,186551,2,0,P|336:72|378:64,1,86
512,180,186751,6,0,L|408:164,1,86
184,176,186951,2,0,L|268:189,1,86
460,300,187151,2,0,L|356:284,1,86
176,312,187351,1,0,0:0:0:0:
176,312,187451,1,0,0:0:0:0:
176,312,187551,2,0,P|88:284|104:204,1,172
84,56,187851,1,0,0:0:0:0:
84,56,187951,2,0,P|172:84|156:164,1,172
12,184,188251,1,0,0:0:0:0:
12,184,188351,6,0,L|124:232,1,86
248,168,188551,1,0,0:0:0:0:
248,168,188651,2,0,P|296:168|352:116,1,86
512,232,188851,1,0,0:0:0:0:
512,232,188951,2,0,P|452:224|412:200,1,86
344,32,189151,2,0,P|384:44|416:84,1,86
324,236,189351,2,0,P|334:194|328:152,1,86
176,232,189551,2,0,P|152:256|88:268,1,86
12,96,189751,2,0,P|36:72|100:60,1,86
284,16,189951,6,0,P|264:84|312:168,1,172
228,368,190251,2,0,P|248:300|200:216,1,172
324,263,190551,2,0,P|394:217|476:236,1,172
187,120,190852,2,0,P|117:166|36:148,1,172
256,40,191151,1,0,0:0:0:0:
36,148,191351,5,0,0:0:0:0:
36,148,191451,1,0,0:0:0:0:
36,148,191551,2,0,L|44:256,1,86
48,316,191751,1,0,0:0:0:0:
120,172,191851,2,0,L|128:280,1,86
210,281,192051,1,0,0:0:0:0:
210,281,192151,2,0,L|204:196,1,86
198,103,192351,1,0,0:0:0:0:
284,136,192451,2,0,L|292:244,1,86
296,312,192651,1,0,0:0:0:0:
372,196,192751,2,0,L|380:304,2,86
364,100,193051,1,0,0:0:0:0:
456,164,193151,2,0,L|449:78,1,86
504,232,193351,1,0,0:0:0:0:
504,232,193451,2,0,L|510:317,1,86
416,288,193651,1,0,0:0:0:0:
356,352,193751,6,0,P|264:324|164:356,1,172
152,36,194151,2,0,P|244:64|344:32,1,172
400,92,194451,1,0,0:0:0:0:
496,92,194551,2,0,L|488:192,1,86
512,328,194751,5,0,0:0:0:0:
512,328,194851,1,0,0:0:0:0:
512,328,194951,2,0,L|426:321,1,86
232,272,195151,2,0,L|317:278,1,86
490,177,195351,2,0,L|404:170,1,86
256,184,195551,2,0,L|170:177,1,86
76,248,195751,2,0,P|80:192|64:156,1,86
249,101,195951,2,0,P|245:157|261:193,1,86
288,352,196151,2,0,P|352:320|336:196,1,172
48,344,196551,5,0,0:0:0:0:
48,344,196651,1,0,0:0:0:0:
48,344,196751,2,0,L|144:340,1,86
216,384,196951,2,0,P|188:352|208:224,1,172
296,0,197351,2,0,P|324:32|304:160,1,172
464,40,197751,5,0,0:0:0:0:
464,40,197851,1,0,0:0:0:0:
464,40,197951,2,0,L|368:44,1,86
200,156,198151,1,0,0:0:0:0:
200,156,198251,2,0,L|285:152,1,86
472,208,198451,1,0,0:0:0:0:
472,208,198551,2,0,B|488:168|488:168|488:88,2,86
364,228,198851,1,0,0:0:0:0:
312,316,198951,2,0,L|226:319,1,86
80,288,199151,2,0,P|87:334|116:384,1,86
248,236,199351,2,0,P|240:189|212:140,1,86
116,52,199551,6,0,L|212:40,1,86
324,112,199751,2,0,L|420:100,1,86
224,156,199951,2,0,L|128:168,1,86
56,128,200151,2,0,B|60:168|56:208|20:236|20:236|12:272|44:308,1,172
300,352,200551,2,0,B|296:312|300:272|336:244|336:244|344:208|312:172,1,172
108,344,200951,1,0,0:0:0:0:
380,316,201151,6,0,L|472:328,2,86
244,184,201451,2,0,L|336:196,1,86
432,208,201651,1,0,0:0:0:0:
272,272,201751,2,0,L|186:260,1,86
136,96,201951,1,0,0:0:0:0:
136,96,202051,2,0,L|228:108,1,86
344,88,202251,1,0,0:0:0:0:
432,132,202351,2,0,P|464:100|472:40,1,86
264,37,202551,2,0,P|232:69|224:129,1,86
308,284,202751,6,0,L|320:192,1,86,0|0,0:0|0:0,0:0:0:0:
264,36,202951,2,0,P|184:28|140:128,1,172
136,96,203251,1,0,0:0:0:0:
136,96,203351,2,0,L|50:84,1,86
52,84,203551,2,0,L|88:280,1,172
460,300,203951,2,0,L|424:104,1,172
84,252,204351,5,0,0:0:0:0:
428,132,204551,1,0,0:0:0:0:
160,332,204751,1,0,0:0:0:0:
352,52,204951,1,0,0:0:0:0:
256,368,205151,1,0,0:0:0:0:
256,16,205351,1,0,0:0:0:0:
356,272,205551,2,0,B|336:248|336:248|328:196|300:176,1,86
156,112,205751,2,0,B|176:136|176:136|184:188|212:208,1,86
220,324,205951,6,0,P|276:340|358:256,1,172
292,60,206251,1,0,0:0:0:0:
292,60,206351,2,0,P|236:44|154:128,1,172
428,176,206751,1,0,0:0:0:0:
84,208,206951,1,0,0:0:0:0:
292,60,207151,1,0,0:0:0:0:
220,324,207351,1,0,0:0:0:0:
220,324,207451,1,0,0:0:0:0:
220,324,207551,6,0,L|272:248,1,86
292,60,207751,2,0,L|240:136,1,86
80,244,207951,2,0,P|124:244|172:276,1,86
328,324,208151,2,0,P|364:332|416:320,1,86
472,108,208351,1,0,0:0:0:0:
404,164,208451,1,0,0:0:0:0:
316,172,208551,2,0,P|276:160|232:104,1,86
160,40,208751,2,0,P|104:36|44:68,1,86
80,244,208951,2,0,P|136:248|196:216,1,86
316,172,209151,5,0,0:0:0:0:
400,152,209251,1,0,0:0:0:0:
472,108,209351,2,0,P|484:152|472:240,1,86
392,332,209551,2,0,P|380:288|392:200,1,86
336,88,209751,1,0,0:0:0:0:
268,40,209851,1,0,0:0:0:0:
188,20,209951,2,0,P|144:32|64:28,1,86
0,132,210151,2,0,P|44:148|124:140,1,86
268,40,210351,2,0,L|324:40,3,43
268,40,210551,2,0,L|256:144,1,86
244,344,210751,5,0,0:0:0:0:
268,40,210951,1,0,0:0:0:0:
348,328,211151,1,0,0:0:0:0:
164,56,211351,1,0,0:0:0:0:
424,252,211551,1,0,0:0:0:0:
88,132,211751,1,0,0:0:0:0:
456,156,211951,1,0,0:0:0:0:
56,228,212151,1,0,0:0:0:0:
340,76,212351,6,0,L|56:140,1,258
172,308,212751,2,0,L|456:244,1,258
232,196,213151,1,0,0:0:0:0:
456,156,213351,1,0,0:0:0:0:
456,156,213451,1,0,0:0:0:0:
456,156,213551,1,0,0:0:0:0:
456,156,213651,1,0,0:0:0:0:
456,156,213751,1,0,0:0:0:0:
456,156,213851,1,0,0:0:0:0:
456,156,213951,5,0,0:0:0:0:
96,16,214751,1,0,0:0:0:0:
156,372,215551,1,0,0:0:0:0:
36,200,215751,6,0,L|56:96,1,86
180,64,215951,2,0,L|160:168,1,86
144,244,216151,2,0,P|176:260|256:244,1,86
364,340,216351,1,0,0:0:0:0:
364,340,216451,1,0,0:0:0:0:
364,340,216551,2,0,P|397:328|443:260,1,86
324,128,216751,2,0,P|290:139|244:207,1,86
148,340,216951,2,0,P|114:328|68:260,1,86
256,192,217151,12,0,218051,0:0:0:0:
256,332,218151,6,0,B|204:292|256:284|256:284|236:236|236:236|272:252|272:252|260:212|260:212|276:192|276:140|248:156|248:156|272:92|252:24,1,412.799987402344
256,332,218751,5,0,0:0:0:0:
