osu file format v13

[General]
AudioFilename: GUMIIMAGINARY LIKE THE JUSTICE.mp3
AudioLeadIn: 0
PreviewTime: 78085
Countdown: 1
SampleSet: Normal
StackLeniency: 0.7
Mode: 0
LetterboxInBreaks: 1
WidescreenStoryboard: 1

[Editor]
DistanceSpacing: 0.9
BeatDivisor: 4
GridSize: 8
TimelineZoom: 1.1

[Metadata]
Title:IMAGINARY LIKE THE JUSTICE (Short Ver.)
TitleUnicode:IMAGINARY LIKE THE JUSTICE (Short Ver.)
Artist:HujuniseikouyuuP
ArtistUnicode:不純異性交遊P
Creator:filsdelama
Version:Normal
Source:Megpoid GUMI
Tags:fujuniseikouyuuP ナナホシ管弦楽団 nanahoshi kangengaku-dan orchestra gumi Number5 -Famous-
BeatmapID:492804
BeatmapSetID:209365

[Difficulty]
HPDrainRate:4
CircleSize:3
OverallDifficulty:4
ApproachRate:5
SliderMultiplier:0.999999999999999
SliderTickRate:1

[Events]
//Background and Video events
0,0,"bg.jpg",0,0
//Break Periods
2,2338,10569
//Storyboard Layer 0 (Background)
//Storyboard Layer 1 (Fail)
//Storyboard Layer 2 (Pass)
//Storyboard Layer 3 (Foreground)
//Storyboard Sound Samples
//Background Colour Transformations
3,100,163,162,255

[TimingPoints]
1033,315.789473684211,4,1,0,100,1,0
1980,-100,4,1,0,50,0,0
11769,-100,4,3,0,40,0,0
12243,-100,4,2,0,60,0,0
76980,-200,4,2,0,40,0,0
77769,-200,4,1,0,50,0,0
78085,-80,4,1,0,65,0,1
98217,-100,4,2,0,30,0,0

[HitObjects]
256,192,1980,5,0,0:0:0:0:
256,192,2138,1,4,0:0:0:0:
328,128,11769,5,0,0:0:0:0:
328,128,12243,2,0,P|296:96|192:96,1,150,0|8,0:0|0:0,0:0:0:0:
120,144,13033,1,0,0:0:0:0:
152,224,13348,2,0,L|152:336,1,99.9999999999999,8|0,0:0|0:0,0:0:0:0:
240,352,13980,2,0,B|272:320|272:272|272:272|272:248,1,99.9999999999999,8|0,0:0|0:0,0:0:0:0:
272,168,14611,1,8,0:0:0:0:
232,88,14927,6,0,B|200:64|200:64|136:64,1,99.9999999999999,0|8,0:0|0:0,0:0:0:0:
80,128,15559,1,0,0:0:0:0:
120,208,15875,1,8,0:0:0:0:
136,248,16033,2,0,P|168:280|232:288,1,99.9999999999999,4|0,0:0|0:0,0:0:0:0:
312,240,16664,2,0,P|280:208|216:200,1,99.9999999999999,4|0,0:0|0:0,0:0:0:0:
184,176,17138,1,0,0:0:0:0:
144,152,17296,6,0,B|184:96|184:96|280:64,1,150,0|8,0:0|0:0,0:0:0:0:
352,72,18085,2,0,P|384:104|368:160,1,99.9999999999999,0|8,0:0|0:0,0:0:0:0:
328,232,18717,1,0,0:0:0:0:
328,232,19033,2,0,P|264:296|160:256,1,200,8|8,0:0|0:0,0:0:0:0:
112,192,19980,2,0,L|112:72,1,99.9999999999999,0|8,0:0|0:0,0:0:0:0:
176,16,20611,2,0,L|200:64,2,50,0|0|8,0:0|0:0|0:0,0:0:0:0:
216,96,21085,2,0,P|272:168|336:192,1,150,4|0,0:0|0:0,0:0:0:0:
408,136,21875,1,8,0:0:0:0:
440,224,22190,1,0,0:0:0:0:
408,256,22348,6,0,P|368:288|264:280,1,150,4|0,0:0|0:0,0:0:0:0:
200,232,23138,2,0,L|136:328,1,99.9999999999999,8|0,0:0|0:0,0:0:0:0:
64,352,23769,1,0,0:0:0:0:
32,264,24085,1,8,0:0:0:0:
64,176,24401,2,0,P|104:128|224:160,1,200
272,232,25348,5,8,0:0:0:0:
224,312,25664,2,8,L|168:312,2,50,0|0|0,0:0|0:0|0:0,0:0:0:0:
272,312,26138,2,0,P|344:312|400:256,1,150
392,168,26927,1,8,0:0:0:0:
336,96,27243,1,0,0:0:0:0:
304,120,27401,6,0,P|256:152|160:144,1,150,4|0,0:0|0:0,0:0:0:0:
96,96,28190,1,8,0:0:0:0:
96,184,28506,2,0,L|96:288,1,99.9999999999999,0|8,0:0|0:0,0:0:0:0:
184,312,29138,1,0,0:0:0:0:
256,352,29454,1,8,0:0:0:0:
328,312,29769,2,0,P|384:272|392:224,1,99.9999999999999,0|8,0:0|0:0,0:0:0:0:
400,152,30401,1,0,0:0:0:0:
352,80,30717,1,8,0:0:0:0:
352,80,31033,6,0,L|272:168,1,99.9999999999999,4|0,0:0|0:0,0:0:0:0:
200,184,31664,2,0,L|272:272,1,99.9999999999999,4|0,0:0|0:0,0:0:0:0:
336,312,32296,2,0,L|288:352,1,50,4|8,0:0|0:0,0:0:0:0:
160,328,32927,5,8,0:0:0:0:
160,328,33243,2,0,P|136:272|136:216,1,99.9999999999999,0|8,0:0|0:0,0:0:0:0:
160,144,33875,1,0,0:0:0:0:
224,72,34190,2,0,L|344:72,1,99.9999999999999,8|0,0:0|0:0,0:0:0:0:
400,160,34822,2,0,L|288:160,1,99.9999999999999,8|0,0:0|0:0,0:0:0:0:
200,152,35454,1,0,0:0:0:0:
200,152,35769,2,0,P|224:208|360:240,1,200,8|8,0:0|0:0,0:0:0:0:
392,168,36717,1,0,0:0:0:0:
472,208,37033,6,0,B|408:280|408:280|304:296,1,200,4|0,0:0|0:0,0:0:0:0:
216,280,37980,2,0,L|264:168,1,99.9999999999999,8|0,0:0|0:0,0:0:0:0:
272,144,38454,1,0,0:0:0:0:
200,80,38769,2,0,P|128:120|120:192,1,150,4|0,0:0|0:0,0:0:0:0:
128,272,39559,1,8,0:0:0:0:
200,328,39875,2,0,P|216:264|200:224,1,99.9999999999999
232,144,40506,2,0,L|312:232,1,99.9999999999999,8|0,0:0|0:0,0:0:0:0:
400,208,41138,2,0,P|400:272|280:328,1,200,8|8,0:0|0:0,0:0:0:0:
224,264,42085,5,0,0:0:0:0:
136,296,42401,1,8,0:0:0:0:
56,256,42717,1,0,0:0:0:0:
56,168,43033,2,0,P|104:120|152:112,1,99.9999999999999,8|0,0:0|0:0,0:0:0:0:
216,144,43664,1,4,0:0:0:0:
248,176,43822,2,0,P|304:216|392:200,1,150,0|8,0:0|0:0,0:0:0:0:
472,192,44611,5,0,0:0:0:0:
432,272,44927,2,0,L|360:344,1,99.9999999999999,8|0,0:0|0:0,0:0:0:0:
272,336,45559,1,0,0:0:0:0:
208,272,45875,1,0,0:0:0:0:
232,184,46190,1,0,0:0:0:0:
208,144,46348,2,0,P|152:120|64:160,1,150,4|8,0:0|0:0,0:0:0:0:
40,232,47138,1,0,0:0:0:0:
144,320,47611,6,0,B|184:344|184:344|240:320,1,99.9999999999999,4|0,0:0|0:0,0:0:0:0:
288,264,48243,1,8,0:0:0:0:
336,336,48559,1,0,0:0:0:0:
424,304,48875,2,0,P|416:208|376:160,1,150,4|0,0:0|0:0,0:0:0:0:
296,152,49664,1,8,0:0:0:0:
264,232,49980,1,0,0:0:0:0:
224,224,50138,2,0,P|176:184|208:64,1,200,0|8,0:0|0:0,0:0:0:0:
296,56,51085,2,0,L|360:56,2,50,0|8|0,0:0|0:0|0:0,0:0:0:0:
296,144,51717,5,0,0:0:0:0:
296,232,52033,1,0,0:0:0:0:
240,304,52348,2,0,P|176:336|136:320,1,99.9999999999999
64,304,52980,1,0,0:0:0:0:
48,216,53296,2,0,L|112:136,1,99.9999999999999
184,88,53927,1,0,0:0:0:0:
184,176,54243,2,8,L|184:232,1,50
264,264,54717,6,0,P|280:192|352:152,1,150
400,240,55506,2,0,L|344:288,1,50,8|0,0:0|0:0,0:0:0:0:
304,336,55980,1,0,0:0:0:0:
208,320,56296,1,8,0:0:0:0:
328,200,56769,6,0,P|360:160|328:64,1,150
248,56,57559,1,0,0:0:0:0:
232,96,57717,2,0,L|160:176,1,99.9999999999999
176,264,58348,2,0,P|240:288|272:280,1,99.9999999999999
336,224,58980,5,4,0:0:0:0:
184,312,59611,1,4,0:0:0:0:
96,160,60243,1,4,0:0:0:0:
256,72,60875,1,4,0:0:0:0:
336,224,61506,6,0,P|304:272|168:296,1,200,4|0,0:0|0:0,0:0:0:0:
104,240,62454,2,0,L|128:176,1,50,0|8,0:0|0:0,0:0:0:0:
200,144,62927,1,0,0:0:0:0:
264,80,63243,1,0,0:0:0:0:
288,168,63559,1,0,0:0:0:0:
352,104,63875,2,0,B|424:104|424:104|488:152,1,150
424,224,64664,6,0,P|352:264|328:256,1,99.9999999999999,8|0,0:0|0:0,0:0:0:0:
272,312,65296,2,0,P|256:264|272:216,1,99.9999999999999,8|0,0:0|0:0,0:0:0:0:
368,112,66085,1,0,0:0:0:0:
384,248,66559,5,0,0:0:0:0:
456,304,66875,2,0,L|456:360,2,50,0|8|0,0:0|0:0|0:0,0:0:0:0:
448,168,67822,6,0,P|416:120|224:80,1,250,4|0,0:0|0:0,0:0:0:0:
248,184,68927,2,0,L|112:336,1,200
40,280,69875,2,0,P|48:216|80:184,1,99.9999999999999,8|0,0:0|0:0,0:0:0:0:
152,160,70506,1,8,0:0:0:0:
216,224,70822,1,0,0:0:0:0:
280,160,71138,1,8,0:0:0:0:
368,264,71611,6,0,B|352:336|352:336|256:336,1,150
216,272,72401,1,8,0:0:0:0:
96,216,72875,5,0,0:0:0:0:
120,128,73190,2,0,P|200:104|320:112,1,200
392,272,74454,6,8,P|336:240|320:200,1,99.9999999999999,0|0,0:0|0:0,0:0:0:0:
328,120,75085,1,0,0:0:0:0:
240,120,75401,2,0,P|168:144|312:344,1,450,4|0,0:0|0:0,0:0:0:0:
448,280,78085,5,4,0:0:0:0:
384,184,78401,1,0,0:0:0:0:
320,280,78717,1,8,0:0:0:0:
256,184,79033,2,0,P|200:144|136:152,1,125,0|8,0:0|0:0,0:0:0:0:
96,248,79664,2,0,L|32:128,2,125,0|8|0,0:0|0:0|0:0,0:0:0:0:
176,328,80611,6,0,P|216:352|296:320,1,125,8|0,0:0|0:0,0:0:0:0:
376,264,81243,1,8,0:0:0:0:
456,184,81559,1,0,0:0:0:0:
384,96,81875,2,0,B|328:128|328:128|256:128,1,125,8|0,0:0|0:0,0:0:0:0:
160,128,82506,1,8,0:0:0:0:
64,272,83138,6,0,P|112:304|200:288,1,125,4|0,0:0|0:0,0:0:0:0:
272,232,83769,1,8,0:0:0:0:
336,328,84085,1,0,0:0:0:0:
336,328,84401,2,0,B|368:328|368:328|368:216,1,125,8|0,0:0|0:0,0:0:0:0:
368,128,85033,1,8,0:0:0:0:
176,64,85664,6,2,P|120:96|144:256,1,250
320,160,86927,2,2,P|376:192|352:352,1,250
192,344,88190,6,0,L|160:216,1,125,4|0,0:0|0:0,0:0:0:0:
144,120,88822,1,8,0:0:0:0:
272,152,89138,1,0,0:0:0:0:
224,64,89454,2,0,P|312:48|368:176,1,250,8|8,0:0|0:0,0:0:0:0:
320,280,90401,1,0,0:0:0:0:
224,336,90717,5,8,0:0:0:0:
152,248,91033,2,0,P|160:184|208:144,1,125,0|8,0:0|0:0,0:0:0:0:
280,240,91664,2,0,P|272:304|224:344,1,125,0|8,0:0|0:0,0:0:0:0:
120,352,92296,2,0,B|88:296|88:296|64:240,1,125,0|8,0:0|0:0,0:0:0:0:
248,96,93243,5,4,0:0:0:0:
320,184,93559,2,0,P|352:240|344:304,1,125,0|8,0:0|0:0,0:0:0:0:
232,312,94190,2,0,L|232:176,2,125,0|8|0,0:0|0:0|0:0,0:0:0:0:
120,304,95138,2,0,P|115:242|146:189,1,125,0|8,0:0|0:0,0:0:0:0:
160,96,95769,1,4,0:0:0:0:
240,152,96085,6,0,P|304:144|368:168,1,125
352,264,96717,2,0,P|304:248|224:264,1,125,0|0,0:0|0:0,0:0:0:0:
152,344,97348,2,0,P|120:256|168:152,1,187.5
232,88,98138,1,0,0:0:0:0:
256,192,98217,12,0,100506,0:0:0:0:
