osu file format v13

[General]
AudioFilename: GUMIIMAGINARY LIKE THE JUSTICE.mp3
AudioLeadIn: 0
PreviewTime: 78085
Countdown: 1
SampleSet: None
StackLeniency: 0.7
Mode: 0
LetterboxInBreaks: 1
WidescreenStoryboard: 0

[Editor]
DistanceSpacing: 1.5
BeatDivisor: 4
GridSize: 8
TimelineZoom: 1.3

[Metadata]
Title:IMAGINARY LIKE THE JUSTICE (Short Ver.)
TitleUnicode:IMAGINARY LIKE THE JUSTICE (Short Ver.)
Artist:HujuniseikouyuuP
ArtistUnicode:不純異性交遊P
Creator:filsdelama
Version:Imagination
Source:Megpoid GUMI
Tags:fujuniseikouyuuP ナナホシ管弦楽団 nanahoshi kangengaku-dan orchestra gumi Number5 -Famous-
BeatmapID:492803
BeatmapSetID:209365

[Difficulty]
HPDrainRate:7
CircleSize:5
OverallDifficulty:8
ApproachRate:9
SliderMultiplier:1.7
SliderTickRate:1

[Events]
//Background and Video events
0,0,"bg.jpg",0,0
//Break Periods
2,2338,11169
//Storyboard Layer 0 (Background)
//Storyboard Layer 1 (Fail)
//Storyboard Layer 2 (Pass)
//Storyboard Layer 3 (Foreground)
//Storyboard Sound Samples
//Background Colour Transformations
3,100,163,162,255

[TimingPoints]
1033,315.789473684211,4,1,0,100,1,0
1980,-100,4,1,0,50,0,0
11769,-100,4,3,0,40,0,0
12243,-100,4,2,0,60,0,0
32453,-100,4,2,0,55,0,0
76980,-200,4,2,0,40,0,0
77769,-200,4,1,0,50,0,0
78085,-80,4,1,0,65,0,1
98217,-100,4,2,0,30,0,0

[HitObjects]
256,104,1980,5,0,0:0:0:0:
256,272,2138,1,4,0:0:0:0:
224,88,11769,5,0,0:0:0:0:
208,120,11848,1,0,0:0:0:0:
200,160,11927,1,0,0:0:0:0:
200,200,12006,1,0,0:0:0:0:
216,232,12085,1,0,0:0:0:0:
256,240,12164,1,0,0:0:0:0:
296,232,12243,6,0,P|328:152|416:120,1,170,4|0,0:0|0:0,0:0:0:0:
472,200,12717,2,0,L|440:296,1,85,0|0,0:0|0:0,0:0:0:0:
360,352,13033,2,0,P|336:312|344:240,1,85,8|0,0:0|0:0,0:0:0:0:
376,176,13348,1,0,0:0:0:0:
376,176,13427,1,0,0:0:0:0:
376,176,13506,2,0,P|336:128|224:88,1,170
112,136,13980,1,8,0:0:0:0:
64,272,14138,1,0,0:0:0:0:
192,136,14296,1,0,0:0:0:0:
240,272,14454,1,0,0:0:0:0:
336,344,14611,1,8,0:0:0:0:
432,272,14769,6,0,P|400:200|296:160,1,170
248,72,15243,1,8,0:0:0:0:
224,104,15322,1,0,0:0:0:0:
200,136,15401,1,0,0:0:0:0:
112,216,15559,1,0,0:0:0:0:
136,248,15638,1,0,0:0:0:0:
160,280,15717,1,0,0:0:0:0:
272,232,15875,2,8,L|304:288,1,42.5
312,304,16033,6,0,B|376:296|408:272|408:272|416:192,1,170,4|0,0:0|0:0,0:0:0:0:
360,72,16506,1,8,0:0:0:0:
216,136,16664,2,0,P|144:152|96:248,1,170
168,328,17138,1,8,0:0:0:0:
192,304,17217,1,0,0:0:0:0:
216,272,17296,6,0,B|248:240|248:240|264:176,1,85,4|0,0:0|0:0,0:0:0:0:
296,88,17611,1,0,0:0:0:0:
384,168,17769,1,8,0:0:0:0:
296,88,17927,2,0,L|208:48,1,85
120,112,18243,1,0,0:0:0:0:
120,112,18322,1,0,0:0:0:0:
120,112,18401,1,8,0:0:0:0:
56,200,18559,2,0,B|112:264|112:264|184:200,1,170
232,104,19033,2,0,P|288:80|336:96,1,85,8|0,0:0|0:0,0:0:0:0:
440,208,19348,2,0,P|384:184|336:200,1,85
264,240,19664,1,8,0:0:0:0:
192,336,19822,6,0,P|160:288|168:160,1,170
224,80,20296,1,8,0:0:0:0:
304,168,20454,1,0,0:0:0:0:
384,80,20611,1,0,0:0:0:0:
304,168,20769,2,0,L|304:272,1,85,0|8,0:0|0:0,0:0:0:0:
240,352,21085,6,0,P|312:360|400:296,1,170,4|0,0:0|0:0,0:0:0:0:
464,216,21559,1,8,0:0:0:0:
384,128,21717,1,0,0:0:0:0:
264,168,21875,1,8,0:0:0:0:
280,280,22033,1,0,0:0:0:0:
400,312,22190,1,8,0:0:0:0:
320,144,22348,6,0,B|288:96|248:88|248:88|168:112,1,170,4|0,0:0|0:0,0:0:0:0:
96,168,22822,1,8,0:0:0:0:
128,256,22980,1,0,0:0:0:0:
232,288,23138,2,0,P|224:232|240:176,2,85,0|0|8,0:0|0:0|0:0,0:0:0:0:
312,344,23611,2,0,B|368:304|384:248|384:248|360:168,1,170
304,128,24085,1,8,0:0:0:0:
232,200,24243,1,0,0:0:0:0:
232,200,24322,1,0,0:0:0:0:
232,200,24401,2,0,L|128:200,1,85
56,248,24717,1,8,0:0:0:0:
56,248,24875,6,0,P|112:320|208:320,1,170
256,248,25348,2,0,L|312:328,1,85,8|0,0:0|0:0,0:0:0:0:
400,360,25664,1,0,0:0:0:0:
480,304,25822,1,0,0:0:0:0:
384,264,25980,1,8,0:0:0:0:
464,200,26138,2,0,P|440:152|312:88,1,170
248,48,26611,1,8,0:0:0:0:
168,104,26769,1,0,0:0:0:0:
240,176,26927,2,0,L|176:256,1,85
144,344,27243,1,8,0:0:0:0:
176,344,27322,1,0,0:0:0:0:
208,344,27401,6,0,B|280:328|280:328|360:256,1,170
424,176,27875,2,0,P|456:232|456:280,2,85,8|0|0,0:0|0:0|0:0,0:0:0:0:
368,88,28348,1,0,0:0:0:0:
264,88,28506,1,8,0:0:0:0:
208,176,28664,2,0,B|152:112|152:112|72:192,1,170
40,256,29138,2,0,P|72:320|96:336,1,85,8|0,0:0|0:0,0:0:0:0:
176,296,29454,2,0,L|176:200,2,85,0|0|8,0:0|0:0|0:0,0:0:0:0:
256,360,29927,6,0,B|312:336|312:336|360:272|328:224,1,170
280,144,30401,1,8,0:0:0:0:
280,40,30559,1,0,0:0:0:0:
192,96,30717,2,0,L|104:96,1,85
48,184,31033,5,4,0:0:0:0:
48,184,31111,1,0,0:0:0:0:
48,184,31190,1,0,0:0:0:0:
128,272,31348,1,0,0:0:0:0:
200,184,31506,1,0,0:0:0:0:
200,184,31585,1,0,0:0:0:0:
200,184,31664,1,8,0:0:0:0:
128,272,31822,1,0,0:0:0:0:
200,360,31980,5,0,0:0:0:0:
224,336,32059,1,0,0:0:0:0:
248,312,32138,1,0,0:0:0:0:
272,288,32217,1,0,0:0:0:0:
296,264,32296,1,8,0:0:0:0:
320,240,32375,1,0,0:0:0:0:
344,216,32454,6,0,P|352:144|288:56,1,170,4|0,0:0|0:0,0:0:0:0:
200,120,32927,2,0,L|80:280,1,170,8|0,0:0|0:0,0:0:0:0:
304,352,33559,5,0,0:0:0:0:
408,288,33717,1,0,0:0:0:0:
408,288,33796,1,0,0:0:0:0:
408,288,33875,2,0,P|384:224|360:200,1,85,8|0,0:0|0:0,0:0:0:0:
256,88,34190,5,0,0:0:0:0:
200,256,34348,1,0,0:0:0:0:
344,160,34506,1,8,0:0:0:0:
168,160,34664,1,0,0:0:0:0:
312,256,34822,1,0,0:0:0:0:
256,168,34980,1,0,0:0:0:0:
256,168,35059,1,0,0:0:0:0:
256,168,35138,1,8,0:0:0:0:
200,256,35296,5,0,0:0:0:0:
152,344,35454,2,0,P|104:296|96:256,1,85
112,168,35769,1,8,0:0:0:0:
248,280,35927,1,0,0:0:0:0:
376,160,36085,1,0,0:0:0:0:
248,24,36243,1,0,0:0:0:0:
248,280,36401,1,8,0:0:0:0:
176,216,36559,5,0,0:0:0:0:
160,184,36638,1,0,0:0:0:0:
144,152,36717,1,0,0:0:0:0:
320,216,36875,1,0,0:0:0:0:
336,184,36954,1,0,0:0:0:0:
352,152,37033,6,0,L|392:64,1,85,8|0,0:0|0:0,0:0:0:0:
264,32,37348,2,0,L|264:112,1,42.5
264,112,37506,2,0,P|192:112|136:216,1,170,4|0,0:0|0:0,0:0:0:0:
200,296,37980,1,8,0:0:0:0:
312,240,38138,2,0,P|368:240|416:120,1,170
360,40,38611,5,8,0:0:0:0:
336,64,38690,1,0,0:0:0:0:
312,88,38769,2,0,P|248:88|168:24,1,170,4|0,0:0|0:0,0:0:0:0:
48,80,39243,1,8,0:0:0:0:
80,200,39401,2,0,P|144:200|224:264,1,170
312,360,39875,1,8,0:0:0:0:
400,272,40033,6,0,L|400:184,1,85
400,64,40348,1,0,0:0:0:0:
400,64,40427,1,0,0:0:0:0:
400,64,40506,1,8,0:0:0:0:
304,136,40664,2,0,P|248:168|152:128,1,170
80,40,41138,1,8,0:0:0:0:
80,160,41296,6,0,L|80:336,1,170
200,328,41769,1,8,0:0:0:0:
200,208,41927,2,0,B|256:232|296:144|296:144|408:240,1,255,0|8,0:0|0:0,0:0:0:0:
390,225,42559,1,4,0:0:0:0:
168,344,42875,6,0,P|176:288|160:248,1,85,0|8,0:0|0:0,0:0:0:0:
64,104,43190,2,0,P|56:160|72:200,1,85
192,160,43506,1,0,0:0:0:0:
304,24,43664,1,8,0:0:0:0:
400,160,43822,2,0,B|400:208|424:264|424:264|352:304,1,170
280,336,44296,1,8,0:0:0:0:
304,224,44454,6,0,P|312:168|352:136,2,85,0|0|0,0:0|0:0|0:0,0:0:0:0:
280,336,44927,2,0,P|232:336|200:280,1,85,8|0,0:0|0:0,0:0:0:0:
184,192,45243,1,0,0:0:0:0:
184,160,45322,1,0,0:0:0:0:
184,128,45401,1,0,0:0:0:0:
256,32,45559,2,0,L|304:72,1,42.5,8|0,0:0|0:0,0:0:0:0:
320,80,45717,2,0,P|368:128|344:256,1,170
288,328,46190,1,8,0:0:0:0:
216,224,46348,1,0,0:0:0:0:
288,120,46506,5,2,0:0:0:0:
264,104,46585,1,0,0:0:0:0:
240,88,46664,1,0,0:0:0:0:
216,80,46743,1,0,0:0:0:0:
192,96,46822,1,2,0:0:0:0:
176,112,46901,1,0,0:0:0:0:
160,128,46980,1,0,0:0:0:0:
144,144,47059,1,0,0:0:0:0:
128,160,47138,6,0,P|96:208|96:272,1,85,4|0,0:0|0:0,0:0:0:0:
160,344,47454,1,8,0:0:0:0:
176,312,47533,1,0,0:0:0:0:
192,280,47611,2,0,P|216:232|328:200,1,170,4|0,0:0|0:0,0:0:0:0:
424,168,48085,2,0,L|424:72,2,85,8|0|0,0:0|0:0|0:0,0:0:0:0:
352,288,48559,6,0,P|336:216|352:168,1,85,0|8,0:0|0:0,0:0:0:0:
424,128,48875,2,0,P|368:88|272:152,1,170,4|0,0:0|0:0,0:0:0:0:
192,216,49348,1,8,0:0:0:0:
136,104,49506,2,0,P|96:144|96:208,1,85
16,272,49822,2,0,P|56:312|56:376,1,85,0|8,0:0|0:0,0:0:0:0:
144,240,50138,6,0,B|192:240|216:320|216:320|280:272,1,170
304,168,50611,1,8,0:0:0:0:
392,336,50769,2,0,L|392:240,1,85
480,168,51085,1,0,0:0:0:0:
352,112,51243,1,8,0:0:0:0:
328,144,51322,1,0,0:0:0:0:
304,168,51401,2,0,B|232:144|256:64|256:64|104:96,1,255,4|8,0:0|0:0,0:0:0:0:
40,168,52033,1,0,0:0:0:0:
96,280,52190,2,0,L|176:192,1,85
192,96,52506,2,8,L|240:144,1,42.5
248,152,52664,6,0,P|320:176|400:96,1,170,4|0,0:0|0:0,0:0:0:0:
480,32,53138,1,8,0:0:0:0:
480,160,53296,1,0,0:0:0:0:
480,192,53375,1,0,0:0:0:0:
480,224,53454,1,0,0:0:0:0:
400,320,53611,1,0,0:0:0:0:
376,296,53690,1,0,0:0:0:0:
352,272,53769,1,8,0:0:0:0:
376,144,53927,6,0,B|320:112|320:112|224:136,1,127.5,4|0,0:0|0:0,0:0:0:0:
232,144,54243,2,0,L|208:256,1,85,0|8,0:0|0:0,0:0:0:0:
64,344,54717,6,0,P|40:264|88:168,1,170,0|8,0:0|0:0,0:0:0:0:
160,96,55190,1,0,0:0:0:0:
248,192,55348,1,0,0:0:0:0:
336,96,55506,1,0,0:0:0:0:
248,216,55664,2,0,P|288:256|384:200,1,170,8|0,0:0|0:0,0:0:0:0:
432,96,56138,1,0,0:0:0:0:
304,96,56296,1,8,0:0:0:0:
304,96,56454,2,0,P|264:64|128:96,1,170,4|0,0:0|0:0,0:0:0:0:
48,152,56927,2,0,L|112:240,1,85,8|0,0:0|0:0,0:0:0:0:
192,304,57243,2,0,L|192:200,1,85,0|0,0:0|0:0,0:0:0:0:
152,72,57559,1,8,0:0:0:0:
152,72,57638,1,0,0:0:0:0:
152,72,57717,6,0,B|216:56|232:56|232:56|328:104,1,170,4|0,0:0|0:0,0:0:0:0:
416,160,58190,1,10,0:0:0:0:
408,192,58269,1,0,0:0:0:0:
400,224,58348,1,0,0:0:0:0:
376,248,58427,1,0,0:0:0:0:
344,264,58506,1,2,0:0:0:0:
312,264,58585,1,0,0:0:0:0:
280,248,58664,1,0,0:0:0:0:
256,224,58743,1,0,0:0:0:0:
248,192,58822,5,12,0:0:0:0:
312,24,58980,1,0,0:0:0:0:
64,240,59296,5,4,0:0:0:0:
200,352,59454,1,8,0:0:0:0:
248,192,59611,1,0,0:0:0:0:
486,180,59927,5,4,0:0:0:0:
386,35,60085,1,8,0:0:0:0:
296,176,60243,1,0,0:0:0:0:
88,344,60559,5,4,0:0:0:0:
88,184,60717,1,8,0:0:0:0:
88,24,60875,1,0,0:0:0:0:
424,24,61190,5,4,0:0:0:0:
424,184,61348,1,8,0:0:0:0:
424,344,61506,1,0,0:0:0:0:
256,72,61822,5,0,0:0:0:0:
256,336,61980,1,8,0:0:0:0:
256,192,62138,2,0,L|256:96,2,85,0|0|4,0:0|0:0|0:0,0:0:0:0:
144,224,62611,2,0,P|264:280|320:256,1,170,8|0,0:0|0:0,0:0:0:0:
416,240,63085,1,0,0:0:0:0:
456,136,63243,1,8,0:0:0:0:
368,48,63401,6,0,L|368:144,1,85
368,312,63717,2,0,L|368:208,1,85,0|8,0:0|0:0,0:0:0:0:
288,176,64033,1,0,0:0:0:0:
288,176,64111,1,0,0:0:0:0:
288,176,64190,1,0,0:0:0:0:
208,80,64348,6,0,P|160:120|136:168,2,85,0|8|0,0:0|0:0|0:0,0:0:0:0:
288,216,64822,1,0,0:0:0:0:
368,80,64980,2,0,P|416:120|440:168,2,85,0|8|0,0:0|0:0|0:0,0:0:0:0:
240,104,65454,1,0,0:0:0:0:
232,136,65533,1,0,0:0:0:0:
224,168,65611,6,0,B|216:216|216:216|240:272,1,85,0|8,0:0|0:0,0:0:0:0:
384,344,65927,2,0,B|392:296|392:296|368:240,1,85
344,144,66243,1,0,0:0:0:0:
352,120,66322,1,0,0:0:0:0:
360,96,66401,1,8,0:0:0:0:
368,72,66480,1,0,0:0:0:0:
376,48,66559,2,0,P|288:40|208:112,1,170
224,216,67033,2,0,L|144:152,2,85,8|0|0,0:0|0:0|0:0,0:0:0:0:
328,296,67506,6,0,L|360:240,1,42.5
408,224,67664,2,0,L|384:160,1,42.5,8|0,0:0|0:0,0:0:0:0:
344,144,67822,2,0,P|320:96|128:96,1,255,4|8,0:0|0:0,0:0:0:0:
192,200,68454,1,0,0:0:0:0:
192,200,68533,1,0,0:0:0:0:
192,200,68611,2,0,L|96:200,2,85,0|0|8,0:0|0:0|0:0,0:0:0:0:
288,288,69085,6,0,B|360:240|360:240|360:152,1,170
288,48,69559,1,8,0:0:0:0:
224,184,69717,1,0,0:0:0:0:
160,48,69875,1,0,0:0:0:0:
64,184,70033,1,0,0:0:0:0:
160,304,70190,1,8,0:0:0:0:
224,184,70348,1,0,0:0:0:0:
224,184,70427,1,0,0:0:0:0:
224,184,70506,1,0,0:0:0:0:
304,288,70664,2,0,P|384:304|416:160,1,255
328,80,71296,1,8,0:0:0:0:
88,176,71611,6,0,B|104:232|120:256|120:256|208:288,1,170
328,296,72085,1,8,0:0:0:0:
408,168,72243,1,0,0:0:0:0:
352,256,72401,1,0,0:0:0:0:
432,128,72559,1,0,0:0:0:0:
296,40,72717,1,8,0:0:0:0:
160,144,72875,2,0,L|112:224,1,85
96,248,73111,1,0,0:0:0:0:
112,280,73190,6,0,P|160:320|320:224,1,255
336,120,73822,2,0,L|264:72,1,85,0|8,0:0|0:0,0:0:0:0:
136,48,74138,1,0,0:0:0:0:
184,168,74296,1,0,0:0:0:0:
40,152,74454,2,0,P|32:216|48:248,1,85,0|8,0:0|0:0,0:0:0:0:
128,328,74769,2,0,L|192:264,1,85
288,184,75085,1,0,0:0:0:0:
416,184,75243,1,4,0:0:0:0:
352,48,75401,5,0,0:0:0:0:
352,72,75480,1,0,0:0:0:0:
352,96,75559,1,2,0:0:0:0:
352,120,75638,1,0,0:0:0:0:
352,144,75717,1,0,0:0:0:0:
352,168,75796,1,0,0:0:0:0:
352,192,75875,1,2,0:0:0:0:
352,216,75954,1,0,0:0:0:0:
352,240,76033,1,0,0:0:0:0:
352,264,76111,1,0,0:0:0:0:
352,288,76190,5,2,0:0:0:0:
344,312,76269,1,0,0:0:0:0:
328,328,76348,1,0,0:0:0:0:
304,336,76427,1,0,0:0:0:0:
280,336,76506,1,2,0:0:0:0:
256,336,76585,1,0,0:0:0:0:
232,336,76664,1,0,0:0:0:0:
208,336,76743,1,0,0:0:0:0:
184,336,76822,1,8,0:0:0:0:
112,296,76980,6,0,L|152:264,1,42.5
224,224,77296,2,0,L|224:280,2,42.5,0|0|0,0:0|0:0|0:0,0:0:0:0:
224,48,77769,1,0,0:0:0:0:
224,48,78085,5,4,0:0:0:0:
128,184,78243,1,0,0:0:0:0:
224,48,78401,1,0,0:0:0:0:
328,184,78559,1,0,0:0:0:0:
432,48,78717,1,8,0:0:0:0:
456,216,78875,5,0,0:0:0:0:
440,264,78954,1,0,0:0:0:0:
408,304,79033,1,0,0:0:0:0:
272,304,79190,1,0,0:0:0:0:
256,256,79269,1,0,0:0:0:0:
224,216,79348,1,8,0:0:0:0:
128,32,79506,5,0,0:0:0:0:
24,216,79664,1,0,0:0:0:0:
224,112,79822,1,0,0:0:0:0:
24,112,79980,1,8,0:0:0:0:
128,272,80138,1,0,0:0:0:0:
120,160,80296,2,0,P|192:96|312:112,1,212.5,0|4,0:0|0:0,0:0:0:0:
440,208,80769,5,0,0:0:0:0:
328,352,80927,1,0,0:0:0:0:
216,208,81085,1,0,0:0:0:0:
440,208,81243,1,8,0:0:0:0:
336,72,81401,5,0,0:0:0:0:
320,120,81480,1,0,0:0:0:0:
280,152,81559,1,0,0:0:0:0:
160,40,81717,1,0,0:0:0:0:
160,304,81875,6,0,P|136:256|152:192,2,106.25,8|0|0,0:0|0:0|0:0,0:0:0:0:
272,344,82348,1,0,0:0:0:0:
272,344,82506,2,0,P|344:304|328:176,1,212.5,8|0,0:0|0:0,0:0:0:0:
320,160,82901,1,0,0:0:0:0:
296,144,82980,1,0,0:0:0:0:
144,40,83138,5,4,0:0:0:0:
216,192,83296,1,0,0:0:0:0:
304,336,83454,1,0,0:0:0:0:
392,192,83611,1,0,0:0:0:0:
472,40,83769,1,8,0:0:0:0:
304,96,83927,6,0,L|304:32,2,53.125,0|0|0,0:0|0:0|0:0,0:0:0:0:
184,232,84243,1,0,0:0:0:0:
432,232,84401,1,8,0:0:0:0:
152,232,84559,1,0,0:0:0:0:
464,232,84717,1,0,0:0:0:0:
120,232,84875,2,0,P|80:184|8:192,1,106.25,0|8,0:0|0:0,0:0:0:0:
384,352,85348,5,0,0:0:0:0:
384,352,85664,2,0,P|432:312|392:168,1,212.5,8|0,0:0|0:0,0:0:0:0:
328,80,86138,1,0,0:0:0:0:
328,80,86296,2,0,B|320:144|248:112|248:112|240:240,1,212.5,8|0,0:0|0:0,0:0:0:0:
192,304,86769,1,0,0:0:0:0:
104,256,86927,2,0,P|80:200|88:152,1,106.25,8|0,0:0|0:0,0:0:0:0:
200,136,87243,1,0,0:0:0:0:
224,256,87401,1,0,0:0:0:0:
224,256,87480,1,0,0:0:0:0:
224,256,87559,2,0,B|272:288|360:280|360:280|368:160,1,212.5,8|0,0:0|0:0,0:0:0:0:
152,48,88190,5,4,0:0:0:0:
64,192,88348,1,0,0:0:0:0:
248,192,88506,1,0,0:0:0:0:
336,328,88664,1,0,0:0:0:0:
432,192,88822,1,8,0:0:0:0:
248,192,88980,5,0,0:0:0:0:
248,192,89059,1,0,0:0:0:0:
248,192,89138,1,8,0:0:0:0:
248,352,89296,1,0,0:0:0:0:
248,128,89454,6,0,P|280:72|360:56,1,106.25,8|0,0:0|0:0,0:0:0:0:
480,256,89769,2,0,P|448:312|368:328,1,106.25,8|0,0:0|0:0,0:0:0:0:
224,312,90085,2,0,B|192:264|192:264|232:160|232:160|200:120,1,212.5,8|8,0:0|0:0,0:0:0:0:
128,48,90559,1,0,0:0:0:0:
40,192,90717,6,0,L|112:304,1,106.25,8|0,0:0|0:0,0:0:0:0:
464,160,91033,2,0,L|392:48,1,106.25,8|0,0:0|0:0,0:0:0:0:
240,48,91348,1,8,0:0:0:0:
240,344,91506,5,0,0:0:0:0:
240,344,91585,1,0,0:0:0:0:
240,344,91664,1,8,0:0:0:0:
128,192,91822,1,0,0:0:0:0:
352,192,91980,6,0,L|352:72,2,106.25,8|0|8,0:0|0:0|0:0,0:0:0:0:
472,344,92454,1,0,0:0:0:0:
352,192,92611,2,0,P|272:136|184:216,1,212.5,8|8,0:0|0:0,0:0:0:0:
88,56,93085,1,0,0:0:0:0:
88,56,93164,1,0,0:0:0:0:
88,56,93243,6,0,B|48:152|48:152|120:280,1,212.5,8|8,0:0|0:0,0:0:0:0:
184,344,93717,2,0,L|240:248,1,106.25,0|8,0:0|0:0,0:0:0:0:
352,48,94190,5,0,0:0:0:0:
488,144,94348,1,0,0:0:0:0:
320,144,94506,1,8,0:0:0:0:
448,48,94664,1,0,0:0:0:0:
408,216,94822,2,0,P|352:256|216:200,1,212.5,8|8,0:0|0:0,0:0:0:0:
152,112,95296,1,0,0:0:0:0:
24,176,95454,2,0,L|96:264,1,106.25,8|0,0:0|0:0,0:0:0:0:
184,336,95769,1,0,0:0:0:0:
184,336,95848,1,0,0:0:0:0:
184,336,95927,6,0,P|248:296|248:224,1,106.25,0|8,0:0|0:0,0:0:0:0:
328,160,96243,2,0,L|248:48,1,106.25,0|8,0:0|0:0,0:0:0:0:
112,88,96559,2,0,L|192:200,1,106.25,0|8,0:0|0:0,0:0:0:0:
264,264,96875,1,0,0:0:0:0:
288,288,96954,1,0,0:0:0:0:
320,304,97033,1,2,0:0:0:0:
352,312,97111,1,0,0:0:0:0:
384,312,97190,1,0,0:0:0:0:
416,304,97269,1,0,0:0:0:0:
440,280,97348,6,0,P|448:200|360:112,1,212.5,8|0,0:0|0:0,0:0:0:0:
248,40,97822,2,8,L|184:128,1,106.25,0|8,0:0|0:0,0:0:0:0:
120,232,98138,1,4,0:0:0:0:
256,192,98217,12,0,100506,0:0:0:0:
