osu file format v10

[General]
AudioFilename: I Need You.mp3
AudioLeadIn: 0
PreviewTime: 23251
Countdown: 0
SampleSet: Soft
StackLeniency: 0.7
Mode: 0
LetterboxInBreaks: 0

[Editor]
DistanceSpacing: 1
BeatDivisor: 4
GridSize: 4

[Metadata]
Title:I Need You
TitleUnicode:I Need You
Artist:Huh Gak & Zia
ArtistUnicode:Huh Gak & Zia
Creator:IchiGUN
Version:Hard
Source:
Tags:kosiga
BeatmapID:187503
BeatmapSetID:63470

[Difficulty]
HPDrainRate:6
CircleSize:4
OverallDifficulty:6
ApproachRate:7
SliderMultiplier:2
SliderTickRate:2

[Events]
//Background and Video events
0,0,"BG.jpg"
//Break Periods
2,85815,90421
//Storyboard Layer 0 (Background)
//Storyboard Layer 1 (Fail)
//Storyboard Layer 2 (Pass)
//Storyboard Layer 3 (Foreground)
//Storyboard Sound Samples
//Background Colour Transformations
3,100,163,162,255

[TimingPoints]
2137,652.173913043478,4,2,1,70,1,0
64745,-100,4,2,1,80,0,1
65234,-100,4,2,0,80,0,1
65560,-100,4,2,1,80,0,1
66539,-100,4,2,0,80,0,1
66865,-100,4,2,1,80,0,1
67843,-100,4,2,0,80,0,1
68169,-100,4,2,1,80,0,1
69147,-100,4,2,0,80,0,1
69473,-100,4,2,1,80,0,1
70452,-100,4,2,0,80,0,1
70778,-100,4,2,1,80,0,1
71756,-100,4,2,0,80,0,1
72082,-100,4,2,1,80,0,1
73060,-100,4,2,0,80,0,1
73386,-100,4,2,1,80,0,1
74365,-100,4,2,0,80,0,1
74691,-100,4,2,1,80,0,1
75669,-100,4,2,0,80,0,1
75995,-100,4,2,1,80,0,1
76973,-100,4,2,0,80,0,1
77300,-100,4,2,1,80,0,1
79582,-100,4,2,0,80,0,1
79908,-100,4,2,1,80,0,1
82191,-100,4,2,0,80,0,1
82517,-100,4,2,1,80,0,1
83495,-100,4,2,0,80,0,1
83821,-100,4,2,1,80,0,1
85615,-100,4,2,1,70,0,0
127354,-100,4,2,1,80,0,1
127843,-100,4,2,0,80,0,1
128169,-100,4,2,1,80,0,1
129148,-100,4,2,0,80,0,1
129474,-100,4,2,1,80,0,1
130452,-100,4,2,0,80,0,1
130778,-100,4,2,1,80,0,1
131756,-100,4,2,0,80,0,1
132082,-100,4,2,1,80,0,1
133061,-100,4,2,0,80,0,1
133387,-100,4,2,1,80,0,1
134365,-100,4,2,0,80,0,1
134691,-100,4,2,1,80,0,1
135669,-100,4,2,0,80,0,1
135995,-100,4,2,1,80,0,1
136974,-100,4,2,0,80,0,1
137300,-100,4,2,1,80,0,1
138278,-100,4,2,0,80,0,1
138604,-100,4,2,1,80,0,1
139582,-100,4,2,0,80,0,1
139909,-100,4,2,1,80,0,1
142191,-100,4,2,0,80,0,1
142517,-100,4,2,1,80,0,1
144800,-100,4,2,0,80,0,1
145126,-100,4,2,1,80,0,1
146104,-100,4,2,0,80,0,1
146430,-100,4,2,1,80,0,1
147897,-100,4,2,1,70,0,0
169093,-100,4,2,1,80,0,1
169582,-100,4,2,0,80,0,1
169908,-100,4,2,1,80,0,1
170887,-100,4,2,0,80,0,1
171213,-100,4,2,1,80,0,1
172191,-100,4,2,0,80,0,1
172517,-100,4,2,1,80,0,1
173495,-100,4,2,0,80,0,1
173821,-100,4,2,1,80,0,1
174800,-100,4,2,0,80,0,1
175126,-100,4,2,1,80,0,1
176104,-100,4,2,0,80,0,1
176430,-100,4,2,1,80,0,1
177408,-100,4,2,0,80,0,1
177734,-100,4,2,1,80,0,1
178713,-100,4,2,0,80,0,1
179039,-100,4,2,1,80,0,1
180017,-100,4,2,0,80,0,1
180343,-100,4,2,1,80,0,1
181321,-100,4,2,0,80,0,1
181648,-100,4,2,1,80,0,1
183930,-100,4,2,0,80,0,1
184256,-100,4,2,1,80,0,1
186539,-100,4,2,0,80,0,1
186865,-100,4,2,1,80,0,1
187843,-100,4,2,0,80,0,1
188169,-100,4,2,1,80,0,1
190452,-100,4,2,0,80,0,1
190778,-100,4,2,1,80,0,1
191757,-100,4,2,0,80,0,1
192083,-100,4,2,1,80,0,1
193061,-100,4,2,0,80,0,1
193387,-100,4,2,1,80,0,1
194365,-100,4,2,0,80,0,1
194691,-100,4,2,1,80,0,1
195670,-100,4,2,0,80,0,1
195996,-100,4,2,1,80,0,1
196974,-100,4,2,0,80,0,1
197300,-100,4,2,1,80,0,1
198278,-100,4,2,0,80,0,1
198604,-100,4,2,1,80,0,1
199583,-100,4,2,0,80,0,1
199909,-100,4,2,1,80,0,1
200887,-100,4,2,0,80,0,1
201213,-100,4,2,1,80,0,1
202191,-100,4,2,0,80,0,1
202518,-100,4,2,1,80,0,1
204800,-100,4,2,0,80,0,1
205126,-100,4,2,1,80,0,1
207409,-100,4,2,0,80,0,1
207735,-100,4,2,1,80,0,1
208713,-100,4,2,0,80,0,1
209039,-100,4,2,1,80,0,1
210832,-100,4,2,1,70,0,0

[Colours]
Combo1 : 243,129,122
Combo2 : 138,220,234
Combo3 : 29,250,200
SliderBorder : 255,255,255

[HitObjects]
184,236,23006,2,0,B|276:220|280:112,1,150,4|0,0:0|0:0,0:0:0
312,96,23658,2,0,B|344:72|344:72|372:184|460:188,1,200,8|0,0:0|0:0,0:0:0
472,280,24636,1,0,0:0:0
404,352,24963,1,8,0:0:0
368,260,25289,1,0,0:0:0
288,320,25615,2,0,B|244:284|276:204,2,100,0|2|8,0:0|0:0|0:0,0:0:0
148,368,26756,5,0,0:0:0
148,368,26919,1,0,0:0:0
192,276,27245,2,0,B|132:248|84:288,2,100,0|8|0,0:0|0:0|0:0,0:0:0
256,196,28223,2,0,B|228:136|268:88,1,100,0|2,0:0|0:0,0:0:0
292,64,28713,1,0,0:0:0
336,40,28876,6,0,B|372:40|396:56|396:56|412:92,2,100,8|0|0,0:0|0:0|0:0,0:0:0
236,28,29854,1,0,0:0:0
159,92,30180,2,0,B|123:92|99:108|99:108|83:144,2,100,8|0|0,0:0|0:0|0:0,0:0:0
236,28,31158,2,0,B|288:64|252:124,1,100,2|8,0:0|0:0,0:0:0
236,160,31647,6,0,B|296:192,2,50
200,192,32136,2,0,B|172:191|92:224|135:309|160:320,1,150,0|0,0:0|0:0,0:0:0
164,348,32789,2,0,B|172:372|172:372|220:288|324:300,1,200,8|4,0:0|0:0,0:0:0
415,327,33767,1,2,0:0:0
484,256,34093,6,0,B|464:236|464:200,1,50,8|0,0:0|0:0,0:0:0
504,180,34419,2,0,B|524:152|516:108,1,50
504,84,34745,2,0,B|492:40|456:20|404:32,1,100
400,124,35397,1,8,0:0:0
332,52,35723,1,0,0:0:0
292,144,36050,6,0,B|304:216|236:232,1,100,0|2,0:0|0:0,0:0:0
204,239,36539,1,0,0:0:0
156,248,36702,2,0,B|88:268|92:348,2,100,8|0|0,0:0|0:0|0:0,0:0:0
196,344,37680,1,2,0:0:0
292,312,38006,6,0,B|316:292|348:308|348:308|372:280|340:256,1,100,8|0,0:0|0:0,0:0:0
217,74,38658,2,0,B|196:92|164:76|164:76|140:104|157:112,1,100,0|2,0:0|0:0,0:0:0
217,309,39310,2,0,B|196:292|164:308|164:308|140:280|157:271,1,100,8|0,0:0|0:0,0:0:0
292,72,39963,2,0,B|316:92|348:76|348:76|372:104|340:128,1,100,0|2,0:0|0:0,0:0:0
354,271,40615,5,8,0:0:0
157,271,40941,1,0,0:0:0
157,112,41267,1,0,0:0:0
354,112,41593,1,2,0:0:0
256,240,41919,2,0,B|256:184,2,50,8|0|0,0:0|0:0|0:0,0:0:0
288,280,42408,6,0,B|320:280|344:312,1,50
428,352,42897,2,0,B|468:352|468:312,1,50
467,226,43386,2,0,B|447:206|455:174,1,50,0|0,0:0|0:0,0:0:0
354,187,43876,5,4,0:0:0
256,192,44202,2,0,B|256:84,1,100,0|2,0:0|0:0,0:0:0
340,40,44854,1,0,0:0:0
256,92,45180,1,0,0:0:0
172,148,45506,1,2,0:0:0
172,48,45832,2,0,B|112:52|86:99,1,100,8|0,0:0|0:0,0:0:0
92,196,46484,6,0,B|92:296,1,100,4|2,0:0|0:0,0:0:0
0,336,47137,1,8,0:0:0
92,296,47463,1,0,0:0:0
184,256,47789,1,2,0:0:0
184,356,48115,2,0,B|244:360|276:304,2,100,0|8|0,0:0|0:0|0:0,0:0:0
184,256,49093,1,4,0:0:0
240,172,49419,6,0,B|256:124,2,50,0|0|8,0:0|0:0|0:0,0:0:0
276,208,49908,2,0,B|324:184,1,50
368,168,50234,2,0,B|392:164|392:164|412:248|496:248,1,150,0|2,0:0|0:0,0:0:0
492,148,51050,1,8,0:0:0
336,24,51702,6,0,B|295:42|295:42|268:17|246:28,1,100,0|0,0:0|0:0,0:0:0
200,40,52191,2,0,B|182:57|148:43|148:43|117:74,1,100,0|2,0:0|0:0,0:0:0
80,104,52680,2,0,B|32:152|72:192|72:192|32:232|80:280,1,200,0|2,0:0|0:0,0:0:0
168,328,53658,1,4,0:0:0
368,352,54310,6,0,B|472:328,1,100,0|0,0:0|0:0,0:0:0
368,352,54963,2,0,B|416:264,1,100,8|0,0:0|0:0,0:0:0
368,352,55615,2,0,B|320:256,1,100
368,352,56267,2,0,B|264:328,1,100,8|0,0:0|0:0,0:0:0
256,192,56919,5,4,0:0:0
336,128,57245,2,0,B|304:80|232:88,1,100,2|8,0:0|0:0,0:0:0
184,16,57897,2,0,B|152:52|88:32,2,100,0|0|0,0:0|0:0|0:0,0:0:0
280,16,58876,1,8,0:0:0
376,32,59202,2,0,B|440:32|456:88,1,100,0|6,0:0|0:0,0:0:0
456,184,59854,6,0,B|464:160|496:152,2,50,0|0|8,0:0|0:0|0:0,0:0:0
440,232,60343,2,0,B|464:248|456:288,1,50
448,328,60669,2,0,B|424:360|424:360|360:368|312:328,1,150,0|2,0:0|0:0,0:0:0
256,264,61484,1,12,0:0:0
116,120,62137,5,0,0:0:0
256,44,62463,1,0,0:0:0
396,120,62789,1,2,0:0:0
364,276,63115,2,0,P|272:280|256:360|256:360|240:280|140:276,1,300,0|4,0:0|0:0,0:0:0
256,192,64419,5,2,0:0:0
160,160,64745,2,0,B|208:72,1,100,4|0,0:0|0:0,0:0:0
304,72,65397,2,0,B|352:160,1,100,8|0,0:0|0:0,0:0:0
256,192,66050,1,0,0:0:0
256,288,66376,2,0,B|256:344,2,50,2|0|8,0:0|0:0|0:0,0:0:0
344,248,67028,5,0,0:0:0
440,288,67354,1,2,0:0:0
480,200,67680,2,0,B|528:160|496:88,1,100,0|8,0:0|0:0,0:0:0
443,30,68332,2,0,B|395:54|339:30,1,100
296,32,68821,1,0,0:0:0
248,24,68984,2,0,B|192:16|136:72,1,100,0|8,0:0|0:0,0:0:0
88,128,69637,1,2,0:0:0
185,262,69963,6,0,B|256:192,1,100,0|2,0:0|0:0,0:0:0
326,121,70615,2,0,B|256:192,1,100,8|0,0:0|0:0,0:0:0
185,121,71267,2,0,B|256:192,1,100,0|2,0:0|0:0,0:0:0
326,262,71919,2,0,B|256:192,1,100,8|0,0:0|0:0,0:0:0
256,88,72571,6,0,B|216:48,2,50,0|0|2,0:0|0:0|0:0,0:0:0
256,296,73223,2,0,B|291:331,2,50,8|0|2,0:0|0:0|0:0,0:0:0
160,328,73876,2,0,B|152:272|168:208|240:192|296:200,1,200,0|8,0:0|0:0,0:0:0
368,192,74854,5,2,0:0:0
368,192,75180,2,0,B|368:256|320:280,1,100,4|0,0:0|0:0,0:0:0
144,192,75832,2,0,B|144:128|186:106,1,100,8|0,0:0|0:0,0:0:0
256,192,76484,1,0,0:0:0
185,107,76810,1,0,0:0:0
202,83,76973,1,0,0:0:0
197,53,77136,1,8,0:0:0
104,16,77463,5,0,0:0:0
24,72,77789,2,0,B|48:136|8:200,1,100
16,216,78278,2,0,B|19:269|68:306,1,100
104,328,78767,1,2,0:0:0
200,352,79093,2,0,B|256:360|312:304,2,100,0|0|8,0:0|0:0|0:0,0:0:0
392,352,80071,5,0,0:0:0
488,312,80397,2,0,B|464:248|504:184,1,100
496,168,80886,2,0,B|492:114|444:77,1,100
408,56,81376,1,2,0:0:0
312,32,81702,2,0,B|256:24|200:80,2,100,0|0|8,0:0|0:0|0:0,0:0:0
184,192,83006,6,0,B|184:256,2,50,0|0|2,0:0|0:0|0:0,0:0:0
328,192,83658,2,0,B|328:136,2,50,8|0|2,0:0|0:0|0:0,0:0:0
328,296,84310,5,0,0:0:0
184,368,84800,1,0,0:0:0
72,264,85289,1,0,0:0:0
72,264,85615,5,4,0:0:0
160,144,91321,5,0,0:0:0
144,96,91484,2,0,B|112:32|56:88,2,100,8|0|0,0:0|0:0|0:0,0:0:0
352,240,92626,1,0,0:0:0
368,288,92789,2,0,B|400:352|456:296,2,100,8|0|0,0:0|0:0|0:0,0:0:0
256,360,93767,2,0,B|220:328|212:268,1,100,2|8,0:0|0:0,0:0:0
168,252,94256,6,0,B|120:240,2,50
216,236,94745,2,0,B|252:212|272:176|272:136|252:104,1,150,0|0,0:0|0:0,0:0:0
216,72,95397,2,0,B|200:52|112:0|56:88|56:120,1,200,8|4,0:0|0:0,0:0:0
152,144,96376,1,2,0:0:0
64,184,96702,6,0,B|44:204|44:240,1,50,8|0,0:0|0:0,0:0:0
80,264,97028,2,0,B|60:292|68:336,1,50
104,344,97354,2,0,B|136:376|160:376|200:336,1,100
272,288,98006,1,8,0:0:0
352,344,98332,1,0,0:0:0
432,288,98658,6,0,B|420:216|488:200,1,100,0|2,0:0|0:0,0:0:0
448,160,99147,1,0,0:0:0
424,112,99310,2,0,B|492:92|488:12,2,100,8|0|0,0:0|0:0|0:0,0:0:0
384,24,100289,1,2,0:0:0
256,64,100615,6,0,B|211:60|211:60|176:96|208:120,1,100,8|0,0:0|0:0,0:0:0
256,320,101267,2,0,B|301:324|301:324|336:288|304:264,1,100,0|2,0:0|0:0,0:0:0
112,192,101919,2,0,B|91:204|126:240|126:240|171:236,1,100,8|0,0:0|0:0,0:0:0
400,192,102571,2,0,B|420:179|385:143|385:143|344:147,1,100,0|2,0:0|0:0,0:3:0
256,64,103223,5,8,0:0:0
112,192,103550,1,0,0:0:0
256,320,103876,1,0,0:0:0
400,192,104202,1,2,0:0:0
256,192,104528,2,0,B|256:248,2,50,8|0|0,0:0|0:0|0:0,0:0:0
256,144,105017,6,0,B|216:96,1,50
140,52,105506,1,0,0:0:0
92,66,105669,1,0,0:0:0
72,112,105832,2,0,B|96:168|56:208,1,100,8|0,0:0|0:0,0:0:0
158,197,106484,5,4,0:0:0
256,192,106810,2,0,B|256:300,1,100,0|2,0:0|0:0,0:0:0
172,344,107463,1,0,0:0:0
256,292,107789,1,0,0:0:0
340,236,108115,1,2,0:0:0
340,336,108441,2,0,B|400:332|426:285,1,100,8|0,0:0|0:0,0:0:0
424,184,109093,6,0,B|400:141|340:137,1,100,4|2,0:0|0:0,0:0:0
392,48,109745,1,8,0:0:0
341,137,110071,1,0,0:0:0
256,192,110397,1,2,0:0:0
256,96,110723,2,0,B|200:96|172:148,2,100,0|8|0,0:0|0:0|0:0,0:0:0
341,138,111702,1,4,0:0:0
272,212,112028,6,0,B|272:264,2,50,0|0|8,0:0|0:0|0:0,0:0:0
224,200,112517,2,0,B|208:224|176:224,1,50
136,224,112843,2,0,B|112:228|112:228|92:144|0:144,1,150,0|2,0:0|0:0,0:0:0
8,248,113658,1,8,0:0:0
176,360,114310,6,0,B|288:288,1,100,0|0,0:0|0:0,0:0:0
280,352,114800,2,0,B|384:368,1,100,0|2,0:0|0:0,0:0:0
416,336,115289,2,0,B|456:304|456:304|432:256|456:208|456:208|408:176,1,200,0|2,0:0|0:0,0:0:0
328,136,116267,1,4,0:0:0
144,32,116919,6,0,B|40:56,1,100,0|0,0:0|0:0,0:0:0
144,32,117571,2,0,B|96:120,1,100,8|0,0:0|0:0,0:0:0
144,32,118223,2,0,B|192:128,1,100
144,32,118876,2,0,B|248:56,1,100,8|0,0:0|0:0,0:0:0
256,192,119528,5,4,0:0:0
176,252,119854,2,0,B|208:300|280:292,1,100,2|8,0:0|0:0,0:0:0
360,272,120506,2,0,B|361:223|423:198,2,100,0|0|0,0:0|0:0|0:0,0:0:0
460,288,121484,1,8,0:0:0
508,200,121810,1,0,0:0:0
460,112,122136,1,6,0:0:0
364,136,122463,6,0,B|332:136|324:168,2,50,0|0|8,0:0|0:0|0:0,0:0:0
356,88,122952,2,0,B|340:56|300:64,1,50
268,44,123278,2,0,B|220:60|164:20|164:20|124:36,1,150,0|2,0:0|0:0,0:0:0
34,70,124093,1,8,0:0:0
184,352,124745,5,2,0:0:0
344,352,125071,1,0,0:0:0
448,228,125397,1,0,0:0:0
388,80,125723,2,0,P|328:60|328:60|256:148|184:60|184:60|120:80,1,300,0|4,0:0|0:0,0:0:0
256,192,127028,5,2,0:0:0
352,192,127354,2,0,B|360:248|304:280,1,100,4|0,0:0|0:0,0:0:0
201,276,128006,2,0,B|152:248|160:192,1,100,8|0,0:0|0:0,0:0:0
256,192,128658,1,0,0:0:0
256,96,128984,2,0,B|256:40,2,50,2|0|8,0:0|0:0|0:0,0:0:0
184,32,129636,6,0,B|152:48|152:48|120:24|80:24,1,100,0|2,0:0|0:0,0:0:0
64,120,130289,2,0,B|16:160|48:232,1,100,0|8,0:0|0:0,0:0:0
56,256,130778,2,0,B|144:272|176:344,1,150
280,360,131593,2,0,B|328:392|376:360,1,100,0|8,0:0|0:0,0:0:0
327,262,132245,1,2,0:0:0
256,192,132571,6,0,B|327:122,1,100,0|2,0:0|0:0,0:0:0
256,192,133223,2,0,B|186:263,1,100,8|0,0:0|0:0,0:0:0
256,192,133876,2,0,B|327:263,1,100,0|2,0:0|0:0,0:0:0
256,192,134528,2,0,B|186:122,1,100,8|0,0:0|0:0,0:0:0
144,248,135180,5,2,0:0:0
144,220,135343,1,0,0:0:0
144,192,135506,1,0,0:0:0
368,136,135832,1,8,0:0:0
368,164,135995,1,0,0:0:0
368,192,136158,1,0,0:0:0
256,296,136484,2,0,B|256:96,1,200,0|8,0:0|0:0,0:0:0
144,192,137463,5,2,0:0:0
144,192,137789,2,0,B|144:128|192:104,1,100,4|0,0:0|0:0,0:0:0
368,192,138441,2,0,B|368:256|326:278,1,100,8|0,0:0|0:0,0:0:0
256,192,139093,1,0,0:0:0
256,292,139419,1,0,0:0:0
256,320,139582,1,0,0:0:0
256,348,139745,1,8,0:0:0
350,316,140071,5,0,0:0:0
440,360,140397,2,0,B|504:360|512:280,1,100
504,248,140886,2,0,B|499:188|435:188,1,100
400,224,141376,1,2,0:0:0
306,188,141702,2,0,B|242:188|239:247,2,100,0|0|8,0:0|0:0|0:0,0:0:0
168,344,142680,5,0,0:0:0
72,360,143006,2,0,B|8:360|0:280,1,100
8,248,143495,2,0,B|13:188|77:188,1,100
112,224,143984,1,2,0:0:0
205,188,144310,2,0,B|269:188|272:247,2,100,0|0|8,0:0|0:0|0:0,0:0:0
336,336,145615,6,0,B|296:392,2,50,0|0|2,0:0|0:0|0:0,0:0:0
416,280,146267,2,0,B|496:288,2,50,8|0|2,0:0|0:0|0:0,0:0:0
320,224,146919,5,0,0:0:0
320,56,147408,1,0,0:0:0
176,136,147897,1,4,0:0:0
256,192,148223,12,4,149528,0:0:0
344,258,150017,6,0,B|362:252|362:252|370:172|444:147,1,150,8|0,0:0|0:0,0:0:0
464,56,150832,2,0,B|408:72|360:32,1,100,0|0,0:0|0:0,0:0:0
280,88,151484,1,8,0:0:0
240,180,151810,5,0,0:0:0
232,280,152136,1,4,0:0:0
89,327,152626,2,0,B|71:321|71:321|63:241|-11:216,1,150,8|0,0:0|0:0,0:0:0
0,120,153441,6,0,B|40:72|104:104,1,100,0|0,0:0|0:0,0:0:0
176,152,154093,1,8,0:0:0
232,232,154419,2,0,B|264:272|264:272|332:208|416:264,1,200
440,284,155234,1,8,0:0:0
500,204,155560,2,0,P|452:176,1,50,0|8,0:0|0:0,0:0:0
504,92,156050,5,2,0:0:0
504,92,156213,1,0,0:0:0
428,24,156539,2,0,B|432:92|376:112,1,100
328,28,157191,2,0,B|279:11|222:41,1,100
152,100,157843,2,0,B|152:156|80:204,1,100
14,142,158495,1,0,0:0:0
8,192,158658,2,0,B|8:240|56:288|120:280|120:280|76:324,1,200,4|8,0:0|0:0,0:0:0
176,360,159636,6,0,B|240:336|280:352,1,100,0|2,0:0|0:0,0:0:0
424,368,160452,1,8,0:0:0
256,192,160941,1,0,0:0:0
256,192,161267,1,4,0:0:0
336,24,162245,6,0,B|272:48|232:32,1,100,0|2,0:0|0:0,0:0:0
88,16,163060,1,8,0:0:0
184,128,163550,2,0,B|264:136|296:240|232:296,1,200
168,224,164528,1,8,0:0:0
0,336,165180,1,0,0:0:0
16,184,165669,1,8,0:0:0
136,96,166158,5,0,0:0:0
160,80,166321,1,0,0:0:0
184,64,166484,1,12,0:0:0
352,80,166973,1,0,0:0:0
376,96,167136,1,12,0:0:0
352,304,167626,1,0,0:0:0
328,320,167789,1,12,0:0:0
160,304,168278,1,0,0:0:0
136,288,168441,1,12,0:0:0
256,192,168767,5,2,0:0:0
168,192,169093,2,0,B|168:144|168:144|216:104,1,100,4|0,0:0|0:0,0:0:0
344,192,169745,2,0,B|344:240|344:240|296:280,1,100,8|0,0:0|0:0,0:0:0
256,192,170397,1,0,0:0:0
256,288,170723,1,0,0:0:0
256,320,170886,1,0,0:0:0
256,352,171050,1,8,0:0:0
160,360,171376,6,0,B|128:320|64:328,1,100,0|2,0:0|0:0,0:0:0
32,232,172028,2,0,B|-16:192|16:120,1,100,0|8,0:0|0:0,0:0:0
88,80,172680,2,0,B|144:88|176:32,1,100
272,32,173332,2,0,B|320:0|368:32,1,100,0|8,0:0|0:0,0:0:0
320,120,173984,1,2,0:0:0
352,216,174310,6,0,B|423:286,1,100,0|2,0:0|0:0,0:0:0
352,360,174963,2,0,B|282:289,1,100,8|0,0:0|0:0,0:0:0
160,168,175615,2,0,B|89:98,1,100,0|2,0:0|0:0,0:0:0
160,24,176267,2,0,B|230:95,1,100,8|0,0:0|0:0,0:0:0
328,128,176919,6,0,B|360:88,2,50,0|0|2,0:0|0:0|0:0,0:0:0
184,256,177571,2,0,B|152:296,2,50,8|0|2,0:0|0:0|0:0,0:0:0
256,192,178223,1,0,0:0:0
256,192,178876,1,8,0:0:0
256,96,179202,5,2,0:0:0
168,144,179528,2,0,B|176:208|136:240,1,100,4|0,0:0|0:0,0:0:0
40,240,180180,2,0,B|40:304|82:326,1,100,8|0,0:0|0:0,0:0:0
176,352,180832,1,0,0:0:0
256,288,181158,1,0,0:0:0
256,256,181321,1,0,0:0:0
256,224,181484,1,8,0:0:0
256,128,181810,5,0,0:0:0
336,64,182136,2,0,B|376:32|376:32|432:32,1,100
464,56,182626,2,0,B|456:112|456:112|496:168,1,100
504,192,183115,1,2,0:0:0
416,240,183441,2,0,B|412:283|412:283|447:328,2,100,0|0|8,0:0|0:0|0:0,0:0:0
256,192,184419,5,0,0:0:0
176,320,184745,2,0,B|136:352|136:352|80:352,1,100
48,328,185234,2,0,B|56:272|56:272|16:216,1,100
8,192,185723,1,2,0:0:0
96,144,186050,2,0,B|99:100|99:100|64:55,2,100,0|0|8,0:0|0:0|0:0,0:0:0
296,80,187354,6,0,B|304:24,2,50,0|0|2,0:0|0:0|0:0,0:0:0
216,304,188006,2,0,B|208:360,2,50,8|0|2,0:0|0:0|0:0,0:0:0
344,216,188658,5,0,0:0:0
480,280,189147,1,0,0:0:0
472,128,189636,1,0,0:0:0
448,32,189963,6,0,B|384:40|368:96,1,100,4|0,0:0|0:0,0:0:0
294,32,190615,2,0,B|358:40|374:96,1,100,8|0,0:0|0:0,0:0:0
280,136,191267,1,0,0:0:0
208,200,191593,2,0,B|168:240,2,50,2|0|8,0:0|0:0|0:0,0:0:0
294,32,192245,6,0,B|320:40|336:56|336:56|352:40|384:32,1,100,0|2,0:0|0:0,0:0:0
472,80,192897,2,0,B|520:120|488:192,1,100,0|8,0:0|0:0,0:0:0
464,208,193386,2,0,B|416:200|416:200|360:224|344:296,1,150
392,360,194202,2,0,B|344:392|296:360,1,100,0|8,0:0|0:0,0:0:0
256,272,194854,1,2,0:0:0
296,112,195180,6,0,B|256:80|256:80|216:112,1,100,0|2,0:0|0:0,0:0:0
337,230,195832,2,0,B|368:192|368:192|336:152,1,100,8|0,0:0|0:0,0:0:0
216,272,196484,2,0,B|256:304|256:304|294:273,1,100,0|2,0:0|0:0,0:0:0
176,152,197136,2,0,B|144:192|144:192|174:230,1,100,8|0,0:0|0:0,0:0:0
256,116,197789,5,0,0:0:0
255,83,197952,1,0,0:0:0
255,51,198115,1,2,0:0:0
256,192,198441,1,8,0:0:0
255,225,198604,1,0,0:0:0
255,257,198767,1,2,0:0:0
168,368,199093,2,0,B|168:304|168:304|84:316|56:224,1,200,0|8,0:0|0:0,0:0:0
152,208,200071,5,2,0:0:0
152,208,200397,2,0,B|168:144|104:120,1,100,4|0,0:0|0:0,0:0:0
16,128,201050,2,0,B|16:72|58:42,1,100,8|0,0:0|0:0,0:0:0
160,32,201702,1,0,0:0:0
256,72,202028,1,0,0:0:0
256,100,202191,1,0,0:0:0
256,128,202354,1,8,0:0:0
316,208,202680,5,0,0:0:0
256,288,203006,2,0,B|232:304|208:296|208:296|200:320|176:336,1,100
131,350,203495,2,0,B|75:382|35:334,1,100
16,296,203984,1,2,0:0:0
24,200,204310,2,0,B|88:208|112:264,2,100,0|0|8,0:0|0:0|0:0,0:0:0
256,192,205289,5,0,0:0:0
256,96,205615,2,0,B|280:80|304:88|304:88|312:64|336:48,1,100
381,34,206104,2,0,B|437:2|477:50,1,100
496,88,206593,1,2,0:0:0
488,184,206919,2,0,B|424:176|400:120,2,100,0|0|8,0:0|0:0|0:0,0:0:0
256,160,208223,5,0,0:0:0
256,128,208386,1,0,0:0:0
256,96,208550,1,2,0:0:0
256,264,208876,1,2,0:0:0
256,296,209039,1,0,0:0:0
256,328,209202,1,0,0:0:0
352,288,209528,5,0,0:0:0
256,160,210017,1,0,0:0:0
160,288,210506,1,0,0:0:0
256,248,210832,1,4,0:0:0
