osu file format v5

[General]
AudioFilename: 06_-_blue_resort.mp3
AudioLeadIn: 0
PreviewTime: 17247
Countdown: 0
SampleSet: Soft
StackLeniency: 0.7
Mode: 0
LetterboxInBreaks: 1
EditorBookmarks: 8859,16177,88115
EditorDistanceSpacing: 1

[Metadata]
Title:Blue Resort
Artist:Hudson Soft
Creator:Zerostarry
Version:Hard
Source:Baku Bomberman
Tags:

[Difficulty]
HPDrainRate:7
CircleSize:5
OverallDifficulty:6
SliderMultiplier:1.8
SliderTickRate:2

[Events]
//Background and Video events
0,0,"blueresortbg.PNG"
//Break Periods
//Storyboard Layer 0 (Background)
//Storyboard Layer 1 (Failing)
//Storyboard Layer 2 (Passing)
//Storyboard Layer 3 (Foreground)
//Storyboard Sound Samples
//Background Colour Transformations
3,100,163,162,255

[TimingPoints]
8878,521.739130434783,4,1,0,70,1,0
18653,-100,4,2,0,70,0,0
20087,-100,4,1,0,70,0,0
22302,-100,4,2,0,70,0,0
24389,-100,4,1,0,70,0,0
26998,-100,4,2,0,100,0,0
28558,-100,4,1,0,70,0,0
30643,-100,4,2,0,70,0,0
32998,-100,4,1,0,70,0,0
33780,-100,4,2,0,100,0,0
36911,-100,4,1,0,70,0,0
37954,-100,4,2,0,100,0,0
41085,-100,4,1,0,70,0,0
42128,-100,4,2,0,100,0,0
45259,-100,4,1,0,70,0,0
50476,-100,4,1,0,70,0,0
67172,-100,4,2,0,100,0,0
73954,-100,4,1,0,70,0,0
83998,-100,4,2,0,100,0,0
88182,-100,4,2,0,0,0,0

[Colours]
Combo1 : 255,0,128
Combo2 : 255,255,255

[HitObjects]
80,40,17225,1,2
80,40,17356,1,2
80,40,17486,1,2
152,40,17747,1,0
224,40,18008,2,0,B|312:120|216:200,1,180
184,248,18791,1,8
144,312,19051,6,0,B|40:312,2,90
216,312,19834,1,8
408,336,20356,5,2
408,336,20486,1,2
408,336,20617,1,2
344,296,20878,2,0,B|424:224,1,90,0|8
464,192,21399,2,0,B|560:112|448:24,1,180
392,40,22182,1,8
320,40,22443,5,0
320,40,22573,1,0
320,40,22704,1,0
256,72,22964,1,2
256,72,23225,1,2
192,40,23486,1,0
192,40,23617,1,0
192,40,23747,1,0
128,72,24008,1,2
128,72,24269,1,2
56,72,24530,5,8
56,72,24791,1,0
56,72,25051,1,8
56,72,25312,1,8
56,144,25573,5,2
56,144,25704,1,2
56,144,25834,1,2
56,216,26095,1,0
56,288,26356,2,0,B|128:368|224:288,1,180
256,232,27138,5,0
296,296,27399,1,0
368,296,27660,1,0
440,296,27921,1,0
408,232,28182,1,8
336,232,28443,1,0
376,176,28704,6,0,B|376:80,3,90,8|0|8|0
376,16,29747,2,0,B|288:-48|184:32,1,180
144,56,30530,1,2
88,104,30791,5,0
32,144,31051,1,0
88,184,31312,1,0
32,224,31573,1,0
88,264,31834,1,8
32,304,32095,1,0
88,344,32356,1,8
144,304,32617,1,0
200,344,32878,1,0
256,296,33138,5,4
256,296,33399,1,4
256,296,33660,1,4
328,296,33921,6,2,B|408:216|328:136,1,180
256,192,34704,2,2,B|160:192,2,90
256,120,35486,2,2,B|256:16,2,90
256,192,36269,2,2,B|360:192,2,90
256,264,37051,5,0
256,264,37312,1,0
256,336,37573,1,2
400,336,38095,6,2,B|488:264|392:176,1,180
328,184,38877,2,2,B|240:112|336:24,4,180
352,112,41225,5,8
352,112,41486,1,0
352,112,41747,1,8
352,112,42008,1,8
280,112,42269,6,0,B|184:112,1,90
120,112,42791,1,0
48,112,43051,1,0
48,112,43182,1,0
48,112,43312,1,0
48,184,43573,1,2
48,184,43834,1,2
48,256,44095,1,0
48,256,44225,1,0
48,256,44356,1,0
48,328,44617,1,2
48,328,44877,1,2
112,296,45138,1,0
184,296,45399,5,8
256,296,45660,1,0
328,296,45921,1,8
400,296,46182,1,8
472,296,46443,2,2,B|472:192,1,90
400,208,46964,1,0
328,208,47225,2,2,B|328:112,1,90
256,120,47747,1,0
184,120,48008,2,2,B|184:24,1,90
256,192,48530,12,0,50095
216,88,50356,5,0
296,88,50617,2,2,B|392:160|296:248,3,180
256,288,52443,1,8
304,344,52704,6,0,B|400:344,1,90
464,344,53225,1,0
464,272,53486,2,0,B|352:272,1,90
304,272,54008,1,0
304,200,54269,1,0
304,200,54530,1,0
304,200,54791,2,2,B|384:128|472:208,3,180
464,128,56617,5,0
464,56,56877,2,2,B|360:56,1,90
376,128,57399,1,0
304,128,57660,2,2,B|200:128,1,90
144,128,58182,1,0
72,128,58443,1,8
72,128,58704,1,8
72,200,58964,6,0,B|72:296|208:280,1,180
256,232,59747,1,0
308,280,60008,2,0,B|440:296|440:192,1,180
256,192,61051,12,0,63138
184,80,63660,5,8
256,80,63921,1,8
328,80,64182,1,8
256,200,64704,1,8
256,272,64964,5,0
328,272,65225,1,0
400,272,65486,2,0,B|496:272,1,90,0|2
490,272,65877,1,2
490,272,66008,1,2
490,272,66138,1,2
490,272,66269,1,2
488,200,66530,5,0
448,144,66791,1,0
408,200,67051,1,0
336,200,67312,2,2,B|248:120|352:32,3,180
192,48,69399,5,8
120,48,69660,1,8
48,48,69921,1,8
48,192,70443,5,0
104,232,70704,1,0
48,272,70964,1,0
104,312,71225,1,0
176,312,71486,2,0,B|272:312,1,90
336,312,72008,1,0
408,312,72269,2,0,B|504:312|488:168,1,180
416,176,73051,2,0,B|312:176|328:40,1,180
184,56,74095,5,4
48,112,74617,1,4
184,160,75138,1,4
96,272,75660,6,0,B|192:272,1,90,0|2
184,272,76051,1,2
184,272,76182,1,2
256,272,76443,1,0
328,272,76704,2,2,B|416:328|504:272,1,180
416,112,77747,6,0,B|320:112,1,90,0|2
328,112,78138,1,2
328,112,78269,1,2
256,112,78530,1,0
184,112,78791,2,2,B|96:56|8:112,1,180
16,176,79573,1,0
16,248,79834,2,2,B|98:301|192:240,1,180
184,176,80617,1,0
256,176,80877,5,4
336,56,81269,1,4
176,56,81660,1,4
176,56,81921,1,4
256,320,82964,5,4
256,192,84008,12,0,88182
