osu file format v12

[General]
AudioFilename: Butterfly Springs Boundary.mp3
AudioLeadIn: 0
PreviewTime: 119686
Countdown: 0
SampleSet: Soft
StackLeniency: 1
Mode: 0
LetterboxInBreaks: 1

[Editor]
DistanceSpacing: 1.2
BeatDivisor: 1
GridSize: 4

[Metadata]
Title:Hu Die Quan Bian
TitleUnicode:蝴蝶泉边
Artist:Huang Yali
ArtistUnicode:黄雅莉
Creator:sunshy
Version:Hard
Source:Zaizai
Tags:
BeatmapID:213405
BeatmapSetID:75550

[Difficulty]
HPDrainRate:7
CircleSize:5
OverallDifficulty:5
ApproachRate:7
SliderMultiplier:1.99999990463257
SliderTickRate:1

[Events]
//Background and Video events
0,0,"245.jpg",0,0
//Break Periods
2,100719,105449
//Storyboard Layer 0 (Background)
//Storyboard Layer 1 (Fail)
//Storyboard Layer 2 (Pass)
//Storyboard Layer 3 (Foreground)
//Storyboard Sound Samples
//Background Colour Transformations
3,100,163,162,255

[TimingPoints]
8016,833.333333333333,4,2,1,25,1,0
31353,-100,4,2,1,25,0,0
47182,833.333333333333,4,2,1,25,1,0
53015,-133.333333333333,4,2,1,25,0,0
53848,-100,4,2,1,25,0,0
55515,833.333333333333,4,2,1,25,1,0
63848,833.333333333333,4,2,1,25,1,0
79681,833.333333333333,4,2,1,25,1,0
91347,-133.333333333333,4,2,1,25,0,0
92181,-100,4,2,1,25,0,0
94681,833.333333333333,4,2,1,25,1,0
106347,833.333333333333,4,2,1,25,1,0
119680,833.333333333333,4,2,1,40,1,0
119680,-80,4,2,1,40,0,1
148013,-100,4,2,1,40,0,0

[Colours]
Combo1 : 125,190,255
Combo2 : 206,234,9
Combo3 : 80,216,29

[HitObjects]
136,96,31349,1,0,0:0:0:0:
208,48,31765,2,0,P|224:96|205:139,1,99.9999952316285,0|0,0:0|0:0,0:0:0:0:
144,192,32599,1,0,0:0:0:0:
144,192,32807,1,0,0:0:0:0:
72,240,33015,2,0,P|88:296|122:311,1,99.9999952316285,0|0,0:0|0:0,0:0:0:0:
200,312,33640,1,0,0:0:0:0:
280,312,33849,2,0,L|380:312,1,99.9999952316285,2|0,0:0|0:0,0:0:0:0:
432,248,34682,5,0,0:0:0:0:
432,248,35099,1,0,0:0:0:0:
360,168,35515,1,0,0:0:0:0:
432,88,35932,1,0,0:0:0:0:
432,88,36140,1,0,0:0:0:0:
432,88,36349,2,0,P|384:72|338:86,2,99.9999952316285,0|0|2,0:0|0:0|0:0,0:0:0:0:
88,256,38015,6,0,P|104:200|137:178,1,99.9999952316285
137,179,38849,1,0,0:0:0:0:
184,248,39266,1,0,0:0:0:0:
184,248,39474,1,0,0:0:0:0:
288,248,39682,1,0,0:0:0:0:
288,248,40099,2,0,P|336:256|386:251,2,99.9999952316285,0|2|0,0:0|0:0|0:0,0:0:0:0:
376,56,41349,6,0,P|368:104|374:154,2,99.9999952316285,0|0|0,0:0|0:0|0:0,0:0:0:0:
272,112,42599,1,0,0:0:0:0:
272,112,42807,1,0,0:0:0:0:
176,112,43015,1,0,0:0:0:0:
104,64,43432,2,0,P|88:112|98:159,2,99.9999952316285,0|0|2,0:0|0:0|0:0,0:0:0:0:
128,336,47182,6,0,P|96:304|79:252,1,99.9999952316285
80,253,48016,1,0,0:0:0:0:
128,168,48432,1,0,0:0:0:0:
128,168,48641,1,0,0:0:0:0:
80,80,48849,2,0,P|128:72|178:78,1,99.9999952316285
264,72,49474,1,0,0:0:0:0:
352,72,49682,2,0,P|400:80|451:76,1,99.9999952316285,2|0,0:0|0:0,0:0:0:0:
472,192,50516,6,0,L|465:241,1,49.9999976158143
384,224,50932,2,0,L|376:273,1,49.9999976158143
304,312,51349,2,0,P|256:328|208:312,1,99.9999952316285,0|0,0:0|0:0,0:0:0:0:
128,280,51974,1,0,0:0:0:0:
96,200,52182,2,0,L|46:207,1,49.9999976158143
128,112,52599,2,0,L|78:119,1,49.9999976158143
196,68,53015,2,0,B|236:60|272:68|308:80|345:72,1,149.999998569489,2|0,0:0|0:0,0:0:0:0:
312,240,55515,6,0,P|361:230|409:238,2,99.9999952316285,0|0|0,0:0|0:0|0:0,0:0:0:0:
200,240,56766,1,0,0:0:0:0:
200,240,56974,1,0,0:0:0:0:
200,240,57182,2,0,P|152:232|96:240,2,99.9999952316285,0|0|2,0:0|0:0|0:0,0:0:0:0:
120,152,58849,1,0,0:0:0:0:
192,88,59266,1,0,0:0:0:0:
256,160,59682,2,0,P|304:168|354:163,2,99.9999952316285,0|0|0,0:0|0:0|0:0,0:0:0:0:
144,280,63849,6,0,P|192:288|240:276,2,99.9999952316285,0|0|0,0:0|0:0|0:0,0:0:0:0:
72,208,65099,1,0,0:0:0:0:
72,208,65307,1,0,0:0:0:0:
112,120,65516,1,0,0:0:0:0:
112,120,65932,2,0,P|160:112|209:121,2,99.9999952316285,0|2|0,0:0|0:0|0:0,0:0:0:0:
192,208,67182,6,0,P|240:216|290:209,1,99.9999952316285
296,128,67807,1,0,0:0:0:0:
312,48,68016,2,0,P|360:40|409:49,1,99.9999952316285,0|0,0:0|0:0,0:0:0:0:
400,136,68848,2,0,P|464:144|504:136,2,99.9999952316285,0|0|2,0:0|0:0|0:0,0:0:0:0:
312,273,70516,5,0,0:0:0:0:
312,272,70932,2,0,P|360:264|410:270,2,99.9999952316285,0|0|0,0:0|0:0|0:0,0:0:0:0:
208,280,72182,2,0,P|160:288|110:278,1,99.9999952316285
109,278,72807,1,0,0:0:0:0:
64,192,73016,2,0,P|113:182|161:190,1,99.9999952316285,2|0,0:0|0:0,0:0:0:0:
272,200,73849,1,0,0:0:0:0:
392,160,74266,1,0,0:0:0:0:
392,160,74474,1,0,0:0:0:0:
360,56,74681,2,0,P|312:48|261:57,1,99.9999952316285,0|0,0:0|0:0,0:0:0:0:
200,128,75307,1,0,0:0:0:0:
136,192,75516,2,0,P|88:200|38:190,3,99.9999952316285,0|0|2|0,0:0|0:0|0:0|0:0,0:0:0:0:
382,77,79682,6,0,P|374:125|390:173,1,99.9999952316285
387,172,80515,1,0,0:0:0:0:
387,172,80932,1,0,0:0:0:0:
387,172,81140,1,0,0:0:0:0:
456,288,81349,1,0,0:0:0:0:
456,288,81765,1,0,0:0:0:0:
456,288,81974,1,0,0:0:0:0:
320,296,82181,2,0,P|272:304|221:297,2,99.9999952316285,2|0|0,0:0|0:0|0:0,0:0:0:0:
222,297,83432,1,0,0:0:0:0:
222,297,83640,1,0,0:0:0:0:
112,272,83849,2,0,P|72:248|59:198,2,99.9999952316285
60,199,85099,1,0,0:0:0:0:
60,199,85307,1,0,0:0:0:0:
60,111,85514,2,0,B|88:96|112:112|136:128|157:113,1,99.9999952316285,2|0,0:0|0:0,0:0:0:0:
264,144,86349,6,0,P|316:152|362:144,2,99.9999952316285
364,145,87599,1,0,0:0:0:0:
364,145,87807,1,0,0:0:0:0:
440,64,88015,1,0,0:0:0:0:
440,64,88432,1,0,0:0:0:0:
440,64,88640,1,0,0:0:0:0:
472,176,88849,2,0,P|472:232|457:273,1,99.9999952316285,2|0,0:0|0:0,0:0:0:0:
368,240,89682,2,0,P|360:292|372:344,1,99.9999952316285
264,336,90515,2,0,P|272:288|263:238,1,99.9999952316285
180,280,91347,2,0,B|160:240|180:208|200:172|181:134,1,149.999998569489,0|2,0:0|0:0,0:0:0:0:
280,112,94682,6,0,P|332:104|378:110,2,99.9999952316285
280,112,95932,1,0,0:0:0:0:
280,112,96140,1,0,0:0:0:0:
160,48,96349,1,0,0:0:0:0:
160,48,96765,1,0,0:0:0:0:
160,48,96974,1,0,0:0:0:0:
104,168,97182,2,0,P|96:220|104:265,2,99.9999952316285,2|0|0,0:0|0:0|0:0,0:0:0:0:
192,224,98432,2,0,P|200:272|190:321,1,99.9999952316285
192,320,99265,1,0,0:0:0:0:
192,320,99474,1,0,0:0:0:0:
321,321,99682,2,0,P|312:272|319:222,2,99.9999952316285,0|0|2,0:0|0:0|0:0,0:0:0:0:
128,112,106349,5,0,0:0:0:0:
128,112,106765,1,8,0:0:0:0:
128,112,106974,1,8,0:0:0:0:
248,176,107180,2,0,P|232:128|242:81,1,99.9999952316285,8|0,0:0|0:0,0:0:0:0:
336,64,108015,1,0,0:0:0:0:
336,64,108224,1,0,0:0:0:0:
368,192,108432,1,8,0:0:0:0:
368,192,108640,1,8,0:0:0:0:
456,80,108849,2,0,P|472:128|469:177,1,99.9999952316285,10|0,0:0|0:0,0:0:0:0:
464,296,109682,5,0,0:0:0:0:
376,208,110099,1,8,0:0:0:0:
376,208,110307,1,8,0:0:0:0:
336,320,110515,2,0,P|288:332|237:322,1,99.9999952316285,8|0,0:0|0:0,0:0:0:0:
237,322,111349,1,0,0:0:0:0:
237,322,111557,1,0,0:0:0:0:
200,224,111765,1,8,0:0:0:0:
200,224,111974,1,8,0:0:0:0:
88,212,112180,2,0,L|52:148,2,66.6666634877523,10|8|8,0:0|0:0|0:0,0:0:0:0:
152,80,113015,5,0,0:0:0:0:
152,80,113432,1,8,0:0:0:0:
152,80,113640,1,8,0:0:0:0:
228,40,113849,2,0,P|236:88|227:137,1,99.9999952316285,8|0,0:0|0:0,0:0:0:0:
316,144,114682,1,0,0:0:0:0:
316,144,114890,1,0,0:0:0:0:
360,52,115099,1,8,0:0:0:0:
360,52,115307,1,8,0:0:0:0:
452,56,115515,2,0,P|460:104|452:154,1,99.9999952316285,10|0,0:0|0:0,0:0:0:0:
424,224,116349,6,0,L|375:236,1,49.9999976158143,8|0,0:0|0:0,0:0:0:0:
336,312,116765,2,0,L|289:329,1,49.9999976158143,8|0,0:0|0:0,0:0:0:0:
240,264,117182,2,0,L|201:231,1,49.9999976158143,8|0,0:0|0:0,0:0:0:0:
128,272,117599,2,0,L|92:236,1,49.9999976158143,8|0,0:0|0:0,0:0:0:0:
96,128,118015,1,8,0:0:0:0:
136,88,118432,1,8,0:0:0:0:
192,80,118849,1,10,0:0:0:0:
240,88,119265,1,8,0:0:0:0:
328,144,119682,5,0,0:0:0:0:
432,144,120099,1,8,0:0:0:0:
432,144,120307,1,8,0:0:0:0:
428,248,120724,2,0,P|360:236|306:248,1,124.999994039536
307,250,121349,1,0,0:0:0:0:
208,280,121765,1,0,0:0:0:0:
208,280,121974,1,0,0:0:0:0:
128,336,122182,2,0,P|104:280|122:221,2,124.999994039536,10|0|0,0:0|0:0|0:0,0:0:0:0:
121,222,123432,1,8,0:0:0:0:
121,222,123640,1,8,0:0:0:0:
56,144,123849,2,0,P|116:132|178:146,1,124.999994039536,8|0,0:0|0:0,0:0:0:0:
264,160,124474,1,0,0:0:0:0:
352,160,124682,2,0,P|412:176|475:163,2,124.999994039536,0|0|10,0:0|0:0|0:0,0:0:0:0:
424,320,126349,5,0,0:0:0:0:
352,232,126765,1,8,0:0:0:0:
352,232,126974,1,8,0:0:0:0:
304,320,127390,2,0,P|240:328|181:314,1,124.999994039536
181,314,128015,1,0,0:0:0:0:
181,314,128432,1,0,0:0:0:0:
181,314,128640,1,0,0:0:0:0:
120,240,128849,2,0,P|176:228|240:244,1,124.999994039536,10|0,0:0|0:0,0:0:0:0:
240,244,129682,5,0,0:0:0:0:
272,120,130099,1,8,0:0:0:0:
272,120,130307,1,8,0:0:0:0:
336,200,130515,2,0,P|400:220|456:208,1,124.999994039536,8|0,0:0|0:0,0:0:0:0:
456,208,131140,1,0,0:0:0:0:
448,320,131349,2,0,P|384:308|325:315,2,124.999994039536,0|0|10,0:0|0:0|0:0,0:0:0:0:
152,312,133015,6,0,P|208:328|271:312,2,124.999994039536,0|0|8,0:0|0:0|0:0,0:0:0:0:
88,240,134057,2,0,P|148:224|212:240,1,124.999994039536
207,238,134682,1,0,0:0:0:0:
312,240,135099,1,8,0:0:0:0:
312,240,135307,1,8,0:0:0:0:
384,304,135513,2,0,P|408:248|389:189,1,124.999994039536,10|0,0:0|0:0,0:0:0:0:
390,190,136349,5,0,0:0:0:0:
320,112,136765,1,0,0:0:0:0:
320,112,136974,1,0,0:0:0:0:
240,48,137182,2,0,P|216:108|234:162,1,124.999994039536,8|0,0:0|0:0,0:0:0:0:
234,162,138015,1,0,0:0:0:0:
144,96,138432,1,8,0:0:0:0:
144,96,138640,1,8,0:0:0:0:
104,200,138849,1,0,0:0:0:0:
104,200,139057,1,2,0:0:0:0:
240,288,139682,6,0,P|304:304|360:291,2,124.999994039536,0|0|8,0:0|0:0|0:0,0:0:0:0:
309,219,140724,2,0,P|369:207|429:223,1,124.999994039536
428,224,141349,1,0,0:0:0:0:
368,104,141765,1,8,0:0:0:0:
368,104,141974,1,8,0:0:0:0:
288,40,142182,2,0,P|264:96|288:152,1,124.999994039536,10|0,0:0|0:0,0:0:0:0:
160,152,143015,2,0,P|184:100|160:40,2,124.999994039536,0|0|8,0:0|0:0|0:0,0:0:0:0:
88,96,144057,2,0,P|64:156|83:210,1,124.999994039536
128,280,144680,2,0,B|155:269|187:281|219:293|251:277,1,124.999994039536
348,280,145513,1,8,0:0:0:0:
312,112,146349,6,0,P|253:100|189:108,1,124.999994039536
256,192,147182,1,0,0:0:0:0:
256,192,147388,2,0,B|288:208|320:196|352:184|379:194,1,124.999994039536
256,192,148015,12,0,152182,0:0:0:0:
