osu file format v7

[General]
AudioFilename: Huajin - Aurora.mp3
AudioLeadIn: 0
PreviewTime: 52739
Countdown: 0
SampleSet: Soft
StackLeniency: 0.7
Mode: 0
LetterboxInBreaks: 1

[Editor]
DistanceSpacing: 0.699999988079071
BeatDivisor: 4
GridSize: 8

[Metadata]
Title:Aurora
Artist:Huajin
Creator:eveless
Version:Hard
Source:Nico Nico Douga
Tags:Hatsune Miku

[Difficulty]
HPDrainRate:6
CircleSize:5
OverallDifficulty:7
SliderMultiplier:1.9
SliderTickRate:2

[Events]
//Background and Video events
0,0,"1.png"
//Break Periods
2,69065,80510
//Storyboard Layer 0 (Background)
//Storyboard Layer 1 (Fail)
//Storyboard Layer 2 (Pass)
//Storyboard Layer 3 (Foreground)
//Storyboard Sound Samples
//Background Colour Transformations
3,100,163,162,255

[TimingPoints]
18138,545.454545454545,4,2,1,70,1,0
18819,-200,4,2,1,70,0,0
19637,-100,4,2,1,70,0,0
19910,-200,4,2,1,70,0,0
20728,-100,4,2,1,70,0,0
22364,-200,4,2,1,70,0,0
23183,-100,4,2,1,70,0,0
28637,-200,4,2,1,70,0,0
29455,-100,4,2,1,70,0,0
31092,-200,4,2,1,70,0,0
31910,-100,4,2,1,70,0,0
39819,-200,4,2,1,70,0,0
41319,-100,4,2,1,70,0,0
47456,-200,4,2,1,70,0,0
50455,-100,4,2,1,70,0,0
54819,-200,4,2,1,70,0,0
55637,-100,4,2,1,70,0,0
59183,-200,4,2,1,70,0,0
60001,-100,4,2,1,70,0,0
62996,-200,4,2,1,70,0,0
63814,-100,4,2,1,70,0,0
68859,-100,4,2,1,0,0,0
81269,-100,4,2,1,60,0,0
87269,-100,4,2,1,70,0,0
92178,-200,4,2,1,70,0,0
92996,-100,4,2,1,70,0,0
102547,-200,4,2,1,70,0,0
103910,-100,4,2,1,70,0,0
104183,-200,4,2,1,70,0,0
105001,-100,4,2,1,70,0,0
119183,-200,4,2,1,70,0,0
121092,-100,4,2,1,70,0,0
124365,-200,4,2,1,70,0,0
125319,-100,4,2,1,70,0,0
137456,-200,4,2,1,70,0,0
138547,-100,4,2,1,70,0,0
138956,-100,4,2,1,60,0,0
139228,-100,4,2,1,50,0,0
139501,-100,4,2,1,40,0,0
140047,-100,4,2,1,20,0,0
140319,-100,4,2,1,0,0,0

[Colours]
Combo1 : 255,215,155
Combo2 : 134,253,134
Combo3 : 172,172,253
Combo4 : 252,129,129

[HitObjects]
112,192,18137,1,2
400,192,18683,1,8
328,192,18956,2,0,B|224:192,1,95
233,192,19774,1,8
232,264,20047,2,0,B|200:312|128:288,1,95
152,152,20865,5,8
272,72,21137,1,0
392,152,21410,1,2
192,80,21819,1,0
192,80,21956,1,8
328,120,22228,1,0
216,200,22501,2,0,B|256:112,1,95,2|8
48,344,23865,5,0
88,208,24137,1,8
232,224,24410,1,0
464,64,24956,1,0
328,96,25228,1,8
424,200,25501,1,0
456,336,25774,1,2
424,200,26047,1,0
424,200,26183,1,0
424,200,26319,2,0,B|320:200,1,95,8|0
184,200,26865,5,2
464,200,27410,1,8
400,72,27683,2,0,B|304:32|208:80,1,190
312,176,28501,1,8
312,248,28774,2,0,B|336:280|296:304|320:352,1,95
315,340,29592,5,8
200,256,29865,1,0
272,136,30137,2,0,B|384:128|424:248,1,190,2|8
280,272,30956,1,0
256,208,31228,2,0,B|216:160|152:200,1,95,2|8
170,190,32047,5,0
272,88,32319,1,2
368,192,32592,1,0
272,296,32865,1,8
120,56,33410,5,2
216,160,33683,1,0
88,104,33956,1,8
192,208,34228,1,0
192,208,34365,1,0
192,208,34501,1,2
336,184,34774,6,0,B|240:200,2,95,0|8|0
216,112,35592,1,2
104,192,35865,1,0
88,48,36138,1,8
216,112,36410,2,0,B|272:128|296:184,1,95,0|2
288,169,36956,1,0
152,184,37228,2,0,B|184:240|232:264|280:264|328:256,1,190,8|2
496,40,38319,6,0,B|416:112,1,95,8|0
425,103,38865,1,2
273,255,39274,1,2
273,255,39410,1,8
373,154,39683,1,0
322,204,39956,2,0,B|400:280,2,95,2|8|2
48,136,41592,5,8
120,256,41865,1,0
200,136,42138,1,2
272,256,42410,1,0
200,376,42683,1,8
352,136,43228,1,2
64,128,43774,5,8
208,128,44047,1,0
232,272,44319,2,0,B|136:328|40:264,2,190,2|8|2
152,152,45956,1,8
440,152,46501,5,2
296,152,46774,1,0
152,152,47047,1,8
288,200,47592,2,0,B|192:200|192:200,2,95,2|8|2
152,256,49228,2,0,B|248:304|344:256,1,190,8|8
256,192,50865,12,0,52501
136,112,52774,6,0,B|224:152|288:240,1,190,2|0
136,112,53592,1,8
280,112,53865,2,0,B|392:112,1,95,0|2
328,248,54410,2,0,B|424:248,1,95,0|8
384,192,54956,2,0,B|336:160|280:192,1,95,0|2
293,185,55774,1,8
8,184,56319,2,0,B|112:184,2,95,2|0|8
8,328,57138,5,0
144,280,57410,1,2
232,168,57683,1,0
296,40,57956,1,8
232,168,58228,6,0,B|136:168,1,95,0|2
144,280,58774,2,0,B|240:280,1,95,0|8
288,224,59319,2,0,B|392:224,1,95,0|2
383,224,60138,1,8
328,96,60410,1,0
288,224,60683,1,2
288,224,60819,1,2
288,224,60956,1,0
184,120,61228,1,8
40,120,61501,5,0
72,152,61638,1,2
104,184,61774,1,2
204,284,62047,2,0,B|124:204,2,95,0|8|0
405,82,63138,2,0,B|400:112|368:120|352:176,1,95,2|2
356,162,63956,1,2
71,162,64501,1,8
213,162,64774,2,0,B|213:277,1,95,0|2
213,114,65319,5,0
352,112,65592,2,0,B|352:216,1,95,8|0
352,64,66138,1,2
209,64,66410,2,0,B|145:64,2,47.5,0|0|8
352,64,66956,2,0,B|464:64,2,95
256,192,67774,12,0,68865
256,192,81410,5,2
176,72,81683,1,0
104,192,81956,1,8
176,312,82228,1,0
256,192,82501,1,2
336,312,82774,1,0
408,192,83047,1,8
336,72,83319,1,0
256,192,83592,5,2
256,48,83865,1,0
112,48,84138,1,8
112,192,84410,1,0
112,192,84547,1,2
112,192,84683,1,2
256,192,84956,1,0
184,320,85228,1,8
184,176,85501,1,0
184,32,85774,5,2
468,32,86319,1,8
468,316,86865,1,2
182,316,87410,6,0,B|208:264|176:216|176:216,1,95,8|0
320,184,87956,2,0,B|344:232|352:280|344:336|312:376,1,190,2|8
182,316,88774,2,0,B|208:264|176:216|176:216,1,95,0|2
320,184,89319,1,0
320,184,89592,2,0,B|344:232|352:280|344:336|312:376,2,190,8|2|8
184,144,90956,6,0,B|256:80|256:80,1,95,0|2
192,208,91501,2,0,B|304:200|320:72,1,190,0|2
368,144,92319,2,0,B|464:144,1,95,2|8
400,264,93410,5,2
256,264,93683,1,0
328,144,93956,2,0,B|328:352,1,190,8|2
328,48,95047,2,0,B|328:264,2,190,8|2|8
192,88,96410,5,0
192,88,96547,1,2
192,88,96683,2,0,B|136:40|88:64,1,95,2|0
192,176,97228,1,8
336,176,97501,2,0,B|376:224|440:200,1,95,0|2
296,144,98047,1,0
288,288,98319,2,0,B|224:104,1,190,8|2
56,336,99410,5,8
112,208,99683,1,0
176,336,99956,2,0,B|232:336|256:280,1,95,2|0
304,152,100501,2,0,B|368:176|400:128,1,95,8|0
248,152,101047,2,0,B|168:72|64:120,2,190,2|8|2
328,272,102683,6,0,B|360:312|360:312|360:312,1,47.5,8|0
328,272,103228,2,0,B|264:184,1,95,2|8
192,72,104047,1,0
256,96,104319,2,0,B|240:152|168:144,1,95,2|8
296,232,105137,5,0
438,232,105410,2,0,B|462:288|414:328,1,95,2|0
360,192,105956,2,0,B|304:96|400:24,1,190,8|2
464,152,106774,2,0,B|440:264|320:264,1,190
330,263,107592,1,2
45,263,108137,1,8
192,16,108683,1,2
192,158,108956,1,0
192,300,109228,1,8
104,192,109501,5,0
240,136,109774,2,0,B|304:48|424:104,1,190,2|8
320,208,110592,2,0,B|256:296|136:240,1,190,2|0
150,246,111410,1,8
432,208,111956,5,2
192,56,112501,1,8
40,296,113047,1,2
117,176,113319,1,0
216,280,113592,1,8
80,240,113865,5,0
213,190,114137,1,2
345,137,114410,1,0
336,280,114683,1,8
200,328,114956,2,0,B|160:240,1,95,0|2
224,112,115501,6,0,B|288:32|416:56,1,190,2|0
288,152,116319,2,0,B|224:232|96:208,1,190,0|2
240,280,117137,2,0,B|336:304,1,95,0|2
376,168,117683,6,0,B|480:168,1,95,0|8
328,168,118228,2,0,B|224:168,1,95,0|2
360,232,118774,1,0
232,296,119047,1,8
288,248,119319,2,0,B|248:224|256:192|216:160,1,95,2|0
230,173,120137,1,8
184,224,120410,2,0,B|232:240|256:200|296:208,1,95,2|0
275,207,121228,1,8
48,32,121774,5,2
148,132,122047,1,0
240,232,122319,1,8
148,132,122592,6,0,B|224:64|328:128,1,190,2|0
240,232,123410,1,8
148,132,123683,2,0,B|224:64|328:128,1,190,2|0
240,232,124501,2,0,B|240:336,1,95,8|2
336,224,125592,5,8
51,224,126137,1,2
193,224,126410,1,0
336,224,126683,1,8
240,120,126956,6,0,B|272:72|320:56|384:88|384:152,1,190,2|0
264,216,127774,2,0,B|320:120,1,95,8|0
240,256,128319,2,0,B|296:160,1,95,2|0
160,248,128865,2,0,B|160:304|192:344|232:344|272:328|304:304,2,190,8|2|8
352,160,130365,5,2
352,160,130501,1,2
494,160,130774,1,0
423,36,131047,1,8
280,36,131319,5,0
280,36,131456,1,2
280,36,131592,2,0,B|189:36|169:83,1,95,2|0
328,32,132137,1,8
416,144,132410,2,0,B|416:80|360:56,1,95,0|2
416,200,132956,6,0,B|416:264|360:288,1,95,0|8
360,136,133501,2,0,B|288:136|248:224|288:296,1,190,2|0
216,152,134319,2,0,B|336:224,1,95,8|0
56,32,135137,6,0,B|120:56|96:152|168:200,1,190,2|0
296,192,135956,1,2
440,192,136228,2,0,B|440:288,2,95,0|8|0
152,192,137319,1,0
224,192,137592,2,0,B|72:192,1,142.5,8|0
81,192,138683,1,8
256,192,138956,12,0,140319
