osu file format v14

[General]
AudioFilename: Anson Hu - Confidante (Remix).mp3
AudioLeadIn: 0
PreviewTime: 58859
Countdown: 0
SampleSet: Soft
StackLeniency: 0.6
Mode: 0
LetterboxInBreaks: 0
WidescreenStoryboard: 0

[Editor]
DistanceSpacing: 1
BeatDivisor: 4
GridSize: 4
TimelineZoom: 1

[Metadata]
Title:Hong Yan
TitleUnicode:红颜
Artist:Hu Yan Bin
ArtistUnicode:胡彦斌
Creator:CET 6
Version:Normal
Source:
Tags:
BeatmapID:178105
BeatmapSetID:59421

[Difficulty]
HPDrainRate:3
CircleSize:3
OverallDifficulty:3
ApproachRate:4
SliderMultiplier:1
SliderTickRate:1

[Events]
//Background and Video events
0,0,"BG.jpg",0,0
//Break Periods
//Storyboard Layer 0 (Background)
//Storyboard Layer 1 (Fail)
//Storyboard Layer 2 (Pass)
//Storyboard Layer 3 (Foreground)
//Storyboard Sound Samples

[TimingPoints]
1395,422.535211267606,4,2,1,50,1,0

[Colours]
Combo1 : 140,255,255
Combo2 : 149,255,149
Combo3 : 255,255,128
Combo4 : 255,191,255

[HitObjects]
32,48,14916,6,0,P|80:32|128:48,1,100,4|0,0:0|0:0,0:0:0:0:
196,117,15761,2,0,P|180:165|196:213,1,100
317,210,16606,2,0,P|331:163|316:117,2,100
247,281,17873,1,0,0:0:0:0:
317,351,18296,6,0,P|364:365|410:349,1,100
481,278,19141,2,0,P|497:230|481:182,1,100
382,184,19986,2,0,P|367:231|383:277,2,100
452,113,21253,1,0,0:0:0:0:
381,42,21676,6,0,P|334:26|287:40,1,100
216,111,22521,2,0,P|200:159|216:207,1,100
314,204,23366,2,0,P|328:156|312:110,2,100
243,274,24633,1,0,0:0:0:0:
172,203,25056,6,0,P|156:156|170:109,1,100
99,38,25901,2,0,P|51:22|3:38,1,100
5,136,26746,2,0,P|52:150|98:134,1,100
169,63,27592,2,0,P|216:48|262:64,1,100
256,192,28437,12,0,30127,0:0:0:0:
40,40,31817,6,0,P|23:86|38:133,1,100
138,133,32662,2,0,P|154:179|139:226,1,100
39,226,33507,1,0,0:0:0:0:
39,326,33930,2,0,P|85:341|132:324,1,100
232,324,34775,1,0,0:0:0:0:
232,224,35197,6,0,P|278:208|325:225,1,100
325,325,36042,2,0,P|371:340|418:323,1,100
489,253,36887,1,0,0:0:0:0:
500,154,37310,1,0,0:0:0:0:
399,154,37733,2,0,L|409:54,1,100
309,54,38578,6,0,L|298:153,1,100
298,253,39423,2,0,P|251:268|205:252,1,100
204,151,40268,1,0,0:0:0:0:
215,52,40690,1,0,0:0:0:0:
114,52,41113,2,0,L|103:151,1,100
103,251,41958,6,0,P|149:267|196:252,1,100
267,322,42803,2,0,P|313:338|360:323,1,100
431,252,43648,1,0,0:0:0:0:
451,53,44493,5,0,0:0:0:0:
441,152,44916,1,0,0:0:0:0:
370,81,45338,6,0,P|323:64|276:79,1,100
276,179,46183,2,0,P|229:195|182:180,1,100
182,80,47028,1,0,0:0:0:0:
81,80,47451,2,0,P|65:126|82:173,1,100
82,273,48296,1,0,0:0:0:0:
181,273,48718,6,0,P|227:288|274:271,1,100
274,171,49563,2,0,P|320:155|367:172,1,100
367,272,50408,1,0,0:0:0:0:
467,272,50831,1,0,0:0:0:0:
467,171,51254,2,0,P|482:124|465:77,1,100
365,77,52099,6,0,P|348:123|363:170,1,100
293,241,52944,2,0,P|246:256|200:240,1,100
128,169,53789,2,0,P|143:122|126:75,1,100
26,75,54634,2,0,P|9:121|24:168,1,100
95,239,55479,6,0,L|84:338,1,100
184,338,56324,2,0,L|194:238,1,100
256,192,57169,12,0,58859,0:0:0:0:
256,192,59282,6,0,L|266:88,2,100,8|2|8,0:0|0:0|0:0,0:0:0:0:
326,262,60549,1,2,0:0:0:0:
255,332,60972,1,8,0:0:0:0:
184,261,61395,2,0,L|84:250,1,100,2|8,0:0|0:0,0:0:0:0:
13,179,62240,6,0,P|-2:132|14:85,1,100,2|8,0:0|0:0,0:0:0:0:
84,14,63085,2,0,L|183:24,1,100,2|8,0:0|0:0,0:0:0:0:
254,95,63930,2,0,P|270:141|255:188,1,100,2|0,0:0|0:0,0:0:0:0:
184,259,64775,2,0,P|167:305|182:352,1,100
282,352,65620,5,0,0:0:0:0:
282,252,66042,2,0,L|381:241,2,100
211,181,67310,2,0,P|194:134|209:87,1,100
280,16,68155,2,0,L|379:5,1,100
450,76,69000,6,0,P|465:122|448:169,1,100
378,240,69845,2,0,L|278:250,1,100
207,321,70690,2,0,P|160:337|113:322,1,100
42,251,71535,2,0,P|25:204|40:157,1,100
111,86,72380,5,0,0:0:0:0:
181,156,72803,2,0,P|196:202|179:249,2,100
251,85,74071,1,0,0:0:0:0:
350,75,74493,1,0,0:0:0:0:
350,175,74916,2,0,L|449:164,1,100
449,264,75761,6,0,L|349:274,1,100
249,274,76606,2,0,P|233:227|250:180,1,100
179,109,77451,2,0,L|79:119,1,100
79,219,78296,2,0,L|178:208,1,100
178,308,79141,5,0,0:0:0:0:
277,297,79564,1,0,0:0:0:0:
277,197,79986,2,0,L|376:186,1,100
376,86,80831,2,0,L|276:96,1,100
205,167,81676,1,0,0:0:0:0:
216,267,82099,1,0,0:0:0:0:
145,337,82521,2,0,P|112:312|152:88,1,300
256,192,84211,12,0,85479,0:0:0:0:
256,192,85902,5,0,0:0:0:0:
114,50,86747,1,0,0:0:0:0:
114,249,87592,1,0,0:0:0:0:
256,192,89282,5,0,0:0:0:0:
398,334,90127,1,0,0:0:0:0:
398,135,90972,1,0,0:0:0:0:
256,192,92662,6,0,L|266:88,1,100
194,21,93507,1,0,0:0:0:0:
52,162,94352,6,0,L|42:266,1,100
114,333,95197,1,0,0:0:0:0:
313,333,96042,6,0,L|322:233,1,100
251,162,96887,1,0,0:0:0:0:
256,192,97733,12,0,99000,0:0:0:0:
256,192,99423,6,0,L|266:296,1,100
336,362,100268,1,0,0:0:0:0:
406,291,100690,1,0,0:0:0:0:
406,190,101113,2,0,L|505:180,2,100
335,119,102380,1,0,0:0:0:0:
264,189,102803,6,0,L|273:288,1,100
202,359,103648,1,0,0:0:0:0:
131,288,104070,1,0,0:0:0:0:
131,187,104493,2,0,L|31:196,2,100
201,116,105760,1,0,0:0:0:0:
271,186,106183,6,0,P|255:233|272:280,2,100
341,115,107451,1,0,0:0:0:0:
411,185,107873,2,0,P|427:232|410:279,2,100
341,115,109141,5,0,0:0:0:0:
270,44,109564,2,0,L|170:53,2,100
341,115,110831,5,0,0:0:0:0:
270,185,111254,2,0,L|170:194,2,100
340,255,112521,1,0,0:0:0:0:
269,325,112944,1,0,0:0:0:0:
