osu file format v14

[General]
AudioFilename: Anson Hu - Confidante (Remix).mp3
AudioLeadIn: 0
PreviewTime: 58859
Countdown: 0
SampleSet: Soft
StackLeniency: 0.6
Mode: 0
LetterboxInBreaks: 0
WidescreenStoryboard: 0

[Editor]
DistanceSpacing: 0.8
BeatDivisor: 4
GridSize: 8
TimelineZoom: 1

[Metadata]
Title:Hong Yan
TitleUnicode:红颜
Artist:Hu Yan Bin
ArtistUnicode:胡彦斌
Creator:CET 6
Version:Insane
Source:
Tags:
BeatmapID:178102
BeatmapSetID:59421

[Difficulty]
HPDrainRate:7
CircleSize:4
OverallDifficulty:7
ApproachRate:8
SliderMultiplier:1.6
SliderTickRate:2

[Events]
//Background and Video events
0,0,"BG.jpg",0,0
//Break Periods
2,86102,96983
//Storyboard Layer 0 (Background)
//Storyboard Layer 1 (Fail)
//Storyboard Layer 2 (Pass)
//Storyboard Layer 3 (Foreground)
//Storyboard Sound Samples

[TimingPoints]
1395,422.535211267606,4,2,1,50,1,0
30127,-100,4,2,1,60,0,0
57169,-100,4,2,2,5,0,0
58855,-100,4,2,1,60,0,1
59704,-100,4,2,1,35,0,1
60127,-100,4,2,1,50,0,1
60549,-100,4,2,1,60,0,1
60972,-100,4,2,1,50,0,1
61606,-100,4,2,1,70,0,1
67310,-100,4,2,2,70,0,1
67521,-100,4,2,1,70,0,1
72803,-80,4,2,1,70,0,1
74071,-80,4,2,1,60,0,1
74282,-80,4,2,1,70,0,1
74916,-66.6666666666667,4,2,1,60,0,1
75761,-80,4,2,1,70,0,1
79141,-80,4,2,2,70,0,1
79564,-100,4,2,1,70,0,1
82521,-100,4,2,1,50,0,0
85902,-100,4,2,1,60,0,0
97733,-100,4,2,0,5,0,0
99000,-100,4,2,1,60,0,0
112944,-100,4,2,0,5,0,0

[Colours]
Combo1 : 140,255,255
Combo2 : 149,255,149
Combo3 : 255,255,128
Combo4 : 255,191,255

[HitObjects]
256,64,14493,6,0,L|168:64,1,80
64,64,14916,1,0,0:0:0:0:
24,168,15127,1,2,0:0:0:0:
136,176,15338,2,0,L|136:256,1,80,0|2,0:0|0:0,0:0:0:0:
248,264,15761,2,0,P|240:304|192:352,2,80,0|0|0,0:0|0:0|0:0,0:0:0:0:
136,256,16395,1,2,0:0:0:0:
136,136,16606,6,0,L|224:136,1,80,0|2,0:0|0:0,0:0:0:0:
336,136,17029,1,0,0:0:0:0:
456,136,17240,1,2,0:0:0:0:
392,240,17451,2,0,L|392:320,1,80,0|2,0:0|0:0,0:0:0:0:
272,320,17873,5,0,0:0:0:0:
232,328,17979,1,0,0:0:0:0:
192,328,18085,1,0,0:0:0:0:
152,320,18190,1,0,0:0:0:0:
120,304,18296,1,0,0:0:0:0:
8,272,18507,5,2,0:0:0:0:
24,152,18718,2,0,P|48:128|120:104,1,80,0|2,0:0|0:0,0:0:0:0:
200,152,19141,1,0,0:0:0:0:
256,48,19352,1,2,0:0:0:0:
312,152,19564,2,0,P|344:192|368:208,1,80
456,128,19986,6,0,L|456:40,1,80,0|2,0:0|0:0,0:0:0:0:
488,256,20409,1,0,0:0:0:0:
408,344,20620,1,2,0:0:0:0:
288,328,20831,2,0,L|208:328,1,80,0|2,0:0|0:0,0:0:0:0:
120,248,21254,5,0,0:0:0:0:
104,224,21359,1,0,0:0:0:0:
72,224,21465,1,0,0:0:0:0:
64,192,21571,1,0,0:0:0:0:
32,192,21676,1,0,0:0:0:0:
168,152,21887,5,2,0:0:0:0:
64,56,22099,2,0,L|160:56,1,80,0|2,0:0|0:0,0:0:0:0:
248,136,22521,2,0,L|168:152,1,80,0|2,0:0|0:0,0:0:0:0:
256,240,22944,1,0,0:0:0:0:
356,175,23155,1,2,0:0:0:0:
416,280,23366,6,0,P|368:336|336:344,1,80,0|2,0:0|0:0,0:0:0:0:
256,240,23789,6,0,P|304:184|336:176,1,80,0|2,0:0|0:0,0:0:0:0:
368,80,24211,1,0,0:0:0:0:
256,40,24423,1,2,0:0:0:0:
144,80,24634,5,0,0:0:0:0:
112,88,24740,1,0,0:0:0:0:
80,104,24845,1,0,0:0:0:0:
56,128,24951,1,0,0:0:0:0:
40,160,25056,1,0,0:0:0:0:
64,280,25268,5,2,0:0:0:0:
152,200,25479,1,0,0:0:0:0:
232,288,25690,1,2,0:0:0:0:
304,192,25902,2,0,L|400:192,1,80,0|2,0:0|0:0,0:0:0:0:
464,280,26324,2,0,L|368:288,1,80,0|2,0:0|0:0,0:0:0:0:
304,192,26747,5,0,0:0:0:0:
240,88,26958,1,2,0:0:0:0:
144,200,27169,1,0,0:0:0:0:
64,80,27380,1,2,0:0:0:0:
16,200,27592,2,0,L|16:304,1,80,0|2,0:0|0:0,0:0:0:0:
144,280,28014,2,0,L|144:200,1,80,0|2,0:0|0:0,0:0:0:0:
256,232,28437,5,0,0:0:0:0:
288,232,28542,1,0,0:0:0:0:
328,224,28648,1,0,0:0:0:0:
360,208,28754,1,0,0:0:0:0:
392,184,28859,1,0,0:0:0:0:
416,160,28965,1,0,0:0:0:0:
432,128,29071,1,0,0:0:0:0:
424,96,29176,1,0,0:0:0:0:
392,88,29282,5,0,0:0:0:0:
360,104,29387,1,0,0:0:0:0:
336,128,29493,1,0,0:0:0:0:
312,152,29599,1,0,0:0:0:0:
280,152,29704,1,0,0:0:0:0:
256,136,29810,1,0,0:0:0:0:
256,104,29916,1,0,0:0:0:0:
272,80,30021,1,0,0:0:0:0:
296,64,30127,1,0,0:0:0:0:
256,192,30338,12,0,31606,0:0:0:0:
432,160,31817,6,0,P|416:112|360:64,1,120
336,72,32240,2,0,L|240:72,1,80,8|0,0:0|0:0,0:0:0:0:
80,160,32662,6,0,P|96:112|152:64,1,120
176,72,33085,1,8,0:0:0:0:
234,168,33296,1,0,0:0:0:0:
240,280,33507,5,2,0:0:0:0:
336,320,33718,1,0,0:0:0:0:
320,216,33930,2,0,P|376:168|400:160,1,80,10|0,0:0|0:0,0:0:0:0:
408,40,34352,2,0,P|384:72|320:112,1,80
256,56,34774,5,8,0:0:0:0:
248,88,34880,1,0,0:0:0:0:
256,120,34986,1,0,0:0:0:0:
152,88,35197,2,0,L|64:48,1,80
16,152,35620,1,8,0:0:0:0:
40,264,35831,1,0,0:0:0:0:
144,216,36042,2,0,L|192:216,2,40
216,312,36465,5,8,0:0:0:0:
216,312,36676,2,0,L|304:304,1,80,0|2,0:0|0:0,0:0:0:0:
416,280,37099,2,0,P|392:336|379:349,1,80,0|10,0:0|0:0,0:0:0:0:
216,312,37521,1,0,0:0:0:0:
256,176,37733,1,0,0:0:0:0:
352,72,37944,1,0,0:0:0:0:
232,72,38155,2,0,L|184:72,2,40,8|0|0,0:0|0:0|0:0,0:0:0:0:
168,176,38578,6,0,L|72:176,1,80
64,296,39000,1,8,0:0:0:0:
88,176,39211,1,0,0:0:0:0:
192,264,39423,2,0,P|216:304|264:328,1,80,0|8,0:0|0:0,0:0:0:0:
280,232,39845,1,0,0:0:0:0:
356,172,40056,1,8,0:0:0:0:
384,264,40268,6,0,L|472:256,1,80,2|8,0:0|0:0,0:0:0:0:
448,136,40690,1,10,0:0:0:0:
412,128,40796,1,0,0:0:0:0:
376,120,40902,1,0,0:0:0:0:
264,160,41113,6,0,L|184:160,1,80
176,40,41535,1,8,0:0:0:0:
144,48,41641,1,0,0:0:0:0:
112,64,41747,1,0,0:0:0:0:
88,88,41852,1,0,0:0:0:0:
72,120,41958,1,0,0:0:0:0:
32,232,42169,5,0,0:0:0:0:
152,200,42380,2,0,L|152:288,1,80,8|0,0:0|0:0,0:0:0:0:
264,160,42803,2,0,L|256:264,1,80,0|8,0:0|0:0,0:0:0:0:
360,96,43225,2,0,L|368:176,1,80,0|8,0:0|0:0,0:0:0:0:
456,264,43648,2,0,L|512:264,2,40,2|0|8,0:0|0:0|0:0,0:0:0:0:
304,160,44071,2,0,L|248:160,2,40,10|0|0,0:0|0:0|0:0,0:0:0:0:
129,42,44493,6,0,P|136:40|208:32,1,80,0|0,0:0|0:0,0:0:0:0:
304,160,44916,2,0,P|240:184|208:184,1,80,8|0,0:0|0:0,0:0:0:0:
112,152,45338,1,0,0:0:0:0:
32,240,45549,1,0,0:0:0:0:
136,304,45761,2,0,L|184:320,1,40,8|0,0:0|0:0,0:0:0:0:
200,324,45972,1,0,0:0:0:0:
280,232,46183,6,0,L|368:232,1,80
480,248,46606,2,0,L|480:176,2,40,8|0|0,0:0|0:0|0:0,0:0:0:0:
360,232,47028,6,0,P|336:160|312:136,1,80,2|0,0:0|0:0,0:0:0:0:
256,64,47451,1,10,0:0:0:0:
128,64,47662,1,0,0:0:0:0:
32,144,47873,1,0,0:0:0:0:
8,272,48085,1,0,0:0:0:0:
128,224,48296,5,8,0:0:0:0:
160,208,48401,1,0,0:0:0:0:
192,200,48507,1,0,0:0:0:0:
224,192,48612,1,0,0:0:0:0:
256,176,48718,1,0,0:0:0:0:
224,296,48930,5,0,0:0:0:0:
128,224,49141,2,0,L|112:136,1,80,8|0,0:0|0:0,0:0:0:0:
208,72,49564,2,0,L|232:120,2,40,0|0|8,0:0|0:0|0:0,0:0:0:0:
328,56,49986,2,0,P|360:80|408:96,1,80,0|8,0:0|0:0,0:0:0:0:
392,272,50409,2,0,P|408:232|408:184,1,80,2|8,0:0|0:0,0:0:0:0:
504,136,50831,1,10,0:0:0:0:
410,196,51042,1,0,0:0:0:0:
296,232,51254,6,0,L|272:312,1,80,0|0,0:0|0:0,0:0:0:0:
152,272,51676,1,8,0:0:0:0:
274,309,51887,1,0,0:0:0:0:
152,272,52099,2,0,L|72:272,1,80,0|0,0:0|0:0,0:0:0:0:
224,80,52521,2,0,L|304:80,1,80,8|0,0:0|0:0,0:0:0:0:
152,240,52944,6,0,L|72:240,1,80,0|8,0:0|0:0,0:0:0:0:
224,40,53366,2,0,L|304:40,1,80,0|8,0:0|0:0,0:0:0:0:
152,320,53789,6,0,L|72:320,1,80,0|8,0:0|0:0,0:0:0:0:
224,80,54211,2,0,L|304:80,1,80,8|0,0:0|0:0,0:0:0:0:
424,88,54634,6,0,L|424:168,2,80,0|0|8,0:0|0:0|0:0,0:0:0:0:
424,240,55268,1,0,0:0:0:0:
424,88,55479,2,0,L|344:88,1,80,0|0,0:0|0:0,0:0:0:0:
120,224,55902,2,0,L|208:224,1,80,8|0,0:0|0:0,0:0:0:0:
504,88,56324,2,0,L|416:88,1,80,0|8,0:0|0:0,0:0:0:0:
40,224,56747,2,0,L|136:224,1,80,0|8,0:0|0:0,0:0:0:0:
256,192,57169,12,0,58859,0:0:0:0:
256,192,59282,6,0,P|192:208|136:192,1,120,8|0,0:0|0:0,0:0:0:0:
120,168,59704,2,0,L|120:88,1,80,8|10,0:0|0:0,0:0:0:0:
424,256,60127,2,0,L|424:336,1,80,8|10,0:0|0:0,0:0:0:0:
256,192,60549,6,0,P|320:176|376:192,1,120,8|0,0:0|0:0,0:0:0:0:
400,176,60972,2,0,L|400:96,1,80,8|10,0:0|0:0,0:0:0:0:
256,112,61395,2,0,L|256:208,1,80,2|2,0:0|0:0,0:0:0:0:
256,312,61817,1,8,0:0:0:0:
364,240,62028,1,2,0:0:0:0:
440,128,62240,6,0,L|512:128,2,40,2|0|2,0:0|0:0|0:0,0:0:0:0:
256,112,62662,2,0,L|176:112,1,80,8|2,0:0|0:0,0:0:0:0:
16,176,63085,2,0,L|56:176,2,40,0|0|2,0:0|0:0|0:0,0:0:0:0:
176,224,63507,2,0,L|264:224,1,80,8|2,0:0|0:0,0:0:0:0:
112,312,63930,6,0,L|64:312,2,40,0|0|2,0:0|0:0|0:0,0:0:0:0:
224,312,64352,2,0,P|264:328|320:328,1,80,8|2,0:0|0:0,0:0:0:0:
392,328,64775,1,0,0:0:0:0:
328,224,64986,1,10,0:0:0:0:
392,328,65197,1,0,0:0:0:0:
456,224,65409,1,10,0:0:0:0:
392,328,65620,1,0,0:0:0:0:
392,168,65831,1,2,0:0:0:0:
320,80,66042,6,0,P|280:72|208:88,1,80,8|2,0:0|0:0,0:0:0:0:
184,192,66465,2,0,L|264:192,1,80,0|2,0:0|0:0,0:0:0:0:
135,309,66887,2,0,P|120:304|72:264,1,80,8|2,0:0|0:0,0:0:0:0:
376,309,67310,2,0,P|392:304|440:264,2,80,0|2|8,0:0|0:0|0:0,0:0:0:0:
272,176,67944,1,2,0:0:0:0:
424,176,68155,2,0,L|336:176,2,80,0|10|0,0:0|0:0|0:0,0:0:0:0:
272,176,68789,1,10,0:0:0:0:
216,256,69000,5,0,0:0:0:0:
160,176,69211,1,2,0:0:0:0:
272,176,69423,1,8,0:0:0:0:
216,296,69634,5,2,0:0:0:0:
120,176,69845,1,0,0:0:0:0:
312,176,70056,1,2,0:0:0:0:
216,336,70268,5,8,0:0:0:0:
80,176,70479,1,2,0:0:0:0:
352,176,70690,1,0,0:0:0:0:
216,336,70902,5,2,0:0:0:0:
336,304,71113,2,0,L|416:304,1,80,8|2,0:0|0:0,0:0:0:0:
432,176,71535,2,0,L|344:176,2,80,0|2|10,0:0|0:0|0:0,0:0:0:0:
288,216,72169,1,10,0:0:0:0:
288,128,72380,1,2,0:0:0:0:
136,72,72803,6,0,L|32:72,1,100,8|2,0:0|0:0,0:0:0:0:
120,184,73225,2,0,L|224:184,1,100,0|2,0:0|0:0,0:0:0:0:
160,296,73648,1,8,0:0:0:0:
280,320,73859,1,2,0:0:0:0:
368,232,74071,6,8,L|440:152,1,100,8|10,0:0|0:0,0:0:0:0:
344,80,74493,2,0,L|248:176,1,100,0|10,0:0|0:0,0:0:0:0:
120,184,74916,2,0,L|224:72,1,120.000004577637,8|10,0:0|0:0,0:0:0:0:
344,80,75338,2,0,L|240:184,1,120.000004577637,0|10,0:0|0:0,0:0:0:0:
120,184,75761,6,0,L|16:184,1,100,2|2,0:0|0:0,0:0:0:0:
80,72,76183,1,8,0:0:0:0:
120,184,76395,1,2,0:0:0:0:
96,304,76606,2,0,L|208:304,1,100,8|2,0:0|0:0,0:0:0:0:
328,256,77028,6,0,P|360:288|376:344,1,100,8|2,0:0|0:0,0:0:0:0:
184,128,77451,2,0,P|152:96|136:40,1,100,8|2,0:0|0:0,0:0:0:0:
256,192,77873,1,8,0:0:0:0:
80,288,78085,6,0,P|89:268|160:224,1,100,10|0,0:0|0:0,0:0:0:0:
256,192,78507,1,2,0:0:0:0:
432,96,78718,2,0,P|423:116|352:160,1,100,8|10,0:0|0:0,0:0:0:0:
256,192,79141,1,2,0:0:0:0:
432,280,79564,6,0,P|408:328|360:344,1,80,8|2,0:0|0:0,0:0:0:0:
320,240,79986,1,0,0:0:0:0:
192,240,80197,1,2,0:0:0:0:
80,200,80408,2,0,P|104:152|125:139,1,80,8|2,0:0|0:0,0:0:0:0:
272,240,80831,6,0,L|192:240,1,80,0|2,0:0|0:0,0:0:0:0:
432,280,81254,2,0,L|488:280,2,40,8|0|2,0:0|0:0|0:0,0:0:0:0:
192,240,81676,2,0,L|192:328,1,80,0|2,0:0|0:0,0:0:0:0:
432,280,82099,2,0,L|432:240,2,40,8|0|2,0:0|0:0|0:0,0:0:0:0:
256,192,82521,12,0,85902,0:0:0:0:
256,192,97733,12,0,99000,0:0:0:0:
256,96,99423,6,0,P|296:104|368:112,1,80
256,176,99845,2,0,L|176:192,1,80
256,96,100268,1,0,0:0:0:0:
256,288,100690,6,0,L|192:288,2,40
144,288,101113,2,0,P|160:240|208:216,1,80
112,168,101535,2,0,L|32:168,1,80
64,248,101958,1,0,0:0:0:0:
256,288,102380,6,0,L|360:288,2,80
256,208,103014,1,0,0:0:0:0:
256,128,103225,2,0,L|152:128,2,80
416,128,104071,6,0,L|416:184,2,40
416,48,104493,2,0,P|376:56|344:96,1,80
272,80,104916,2,0,L|192:80,1,80
112,80,105338,2,0,P|120:120|160:152,1,80
144,232,105761,6,0,L|248:232,2,80
424,232,106606,1,0,0:0:0:0:
424,232,107028,1,0,0:0:0:0:
400,72,107451,2,0,P|344:104|240:112,1,160
72,88,108296,5,0,0:0:0:0:
40,224,108718,1,0,0:0:0:0:
184,312,109141,2,0,L|184:208,1,80
184,128,109564,1,0,0:0:0:0:
328,264,109986,2,0,L|328:160,1,80
328,80,110409,1,0,0:0:0:0:
152,160,110831,6,0,P|80:168|40:184,2,80
328,80,111676,2,0,L|328:160,1,80
232,208,112099,2,0,L|232:288,1,80
336,264,112521,2,0,L|336:360,1,80
256,192,112944,12,0,114211,0:0:0:0:
