osu file format v14

[General]
AudioFilename: Nostalgia.mp3
AudioLeadIn: 0
PreviewTime: 11388
Countdown: 0
SampleSet: Soft
StackLeniency: 0.7
Mode: 2
LetterboxInBreaks: 0
WidescreenStoryboard: 1

[Editor]
Bookmarks: 38988
DistanceSpacing: 1.5
BeatDivisor: 4
GridSize: 8
TimelineZoom: 2.599999

[Metadata]
Title:Paris Taxi Ride
TitleUnicode:Paris Taxi Ride
Artist:Howard Goodall
ArtistUnicode:Howard Goodall
Creator:Hi_Hello
Version:Rain
Source:Mr. Bean's Holiday
Tags:movie official original score soundtrack france mister rowan atkinson
BeatmapID:1528602
BeatmapSetID:599901

[Difficulty]
HPDrainRate:6
CircleSize:4.5
OverallDifficulty:9
ApproachRate:9
SliderMultiplier:1.8
SliderTickRate:2

[Events]
//Background and Video events
0,0,"04.jpg",0,0
//Break Periods
//Storyboard Layer 0 (Background)
//Storyboard Layer 1 (Fail)
//Storyboard Layer 2 (Pass)
//Storyboard Layer 3 (Foreground)
//Storyboard Sound Samples

[TimingPoints]
188,400,4,2,0,40,1,0
9788,-100,4,3,0,40,0,0
10988,-66.6666666666667,4,2,1,60,0,0
11088,-66.6666666666667,4,2,0,5,0,0
11388,-83.3333333333333,4,2,1,60,0,0
14388,-83.3333333333333,4,3,0,60,0,0
14788,-83.3333333333333,4,2,1,60,0,0
17588,-83.3333333333333,4,3,0,60,0,0
17988,-83.3333333333333,4,2,1,60,0,0
24988,-83.3333333333333,4,3,0,60,0,0
25388,-83.3333333333333,4,2,1,60,0,0
28788,-83.3333333333333,4,3,0,60,0,0
29188,-83.3333333333333,4,2,1,60,0,0
31988,-83.3333333333333,4,3,0,60,0,0
32588,-83.3333333333333,4,2,1,60,0,0
37588,-83.3333333333333,4,3,0,60,0,0
37788,-83.3333333333333,4,2,1,60,0,0
38388,-83.3333333333333,4,3,0,30,0,0
38588,-66.6666666666667,4,2,1,20,0,0
38988,-83.3333333333333,4,2,1,60,0,0

[Colours]
Combo1 : 255,0,0
Combo2 : 0,128,255
Combo3 : 192,192,192

[HitObjects]
312,344,188,5,0,0:0:0:0:
192,312,388,2,0,L|376:216,1,180,2|2,0:0|0:0,0:0:0:0:
248,184,988,1,0,0:0:0:0:
408,144,1188,2,0,L|224:96,1,180,2|2,0:0|0:0,0:0:0:0:
344,48,1788,1,0,0:0:0:0:
176,248,1988,2,0,L|368:176,1,180,2|2,0:0|0:0,0:0:0:0:
232,144,2588,1,0,0:0:0:0:
352,96,2788,2,0,L|144:48,1,180,2|2,0:0|0:0,0:0:0:0:
240,32,3288,1,0,0:0:0:0:
304,16,3388,5,0,0:0:0:0:
40,208,3588,2,0,L|248:168,1,180,2|2,0:0|0:0,0:0:0:0:
120,144,4188,1,0,0:0:0:0:
256,272,4388,2,0,L|48:232,1,180,2|2,0:0|0:0,0:0:0:0:
168,208,4988,1,0,0:0:0:0:
448,200,5188,2,0,L|256:184,1,180,2|2,0:0|0:0,0:0:0:0:
344,144,5788,1,0,0:0:0:0:
224,128,5988,2,0,L|408:112,1,180,2|2,0:0|0:0,0:0:0:0:
320,72,6588,5,0,0:0:0:0:
24,216,6788,2,0,L|208:200,1,180,2|2,0:0|0:0,0:0:0:0:
112,160,7388,1,0,0:0:0:0:
424,296,7588,2,0,L|240:280,1,180,2|2,0:0|0:0,0:0:0:0:
336,240,8188,1,0,0:0:0:0:
48,280,8388,2,0,L|248:280,1,180,2|2,0:0|0:0,0:0:0:0:
144,240,8988,1,0,0:0:0:0:
456,248,9188,2,0,L|264:248,1,180,2|2,0:0|0:0,0:0:0:0:
312,200,9688,1,0,0:0:0:0:
80,336,9788,2,0,P|40:240|248:144,1,360,2|0,0:0|0:0,0:0:0:0:
136,64,10788,1,0,0:0:0:0:
472,328,10988,2,0,L|488:176,1,135.000005149842,8|0,0:0|0:0,0:0:0:0:
144,304,11388,6,0,L|272:248,1,107.999996704102,4|0,0:0|0:0,0:0:0:0:
112,216,11788,1,10,0:0:0:0:
376,304,11988,2,0,L|152:272,1,215.999993408203,2|2,0:0|0:0,0:0:0:0:
264,232,12588,1,8,0:0:0:0:
64,184,12788,1,2,0:0:0:0:
368,320,12988,6,0,L|232:272,1,107.999996704102,2|0,0:0|0:0,0:0:0:0:
440,248,13388,1,8,0:0:0:0:
160,336,13588,2,0,P|104:248|160:160,1,215.999993408203,2|2,0:0|0:0,0:0:0:0:
88,112,14188,1,8,0:0:0:0:
264,208,14388,1,2,0:0:0:0:
216,176,14488,1,2,0:0:0:0:
168,152,14588,1,4,0:0:0:0:
272,112,14788,1,0,0:0:0:0:
112,280,14988,5,10,0:0:0:0:
432,320,15188,2,0,B|336:272|336:272|456:224,1,215.999993408203,2|2,0:0|0:0,0:0:0:0:
352,192,15788,1,8,0:0:0:0:
464,168,15988,1,2,0:0:0:0:
128,320,16188,6,0,P|56:256|136:192,1,215.999993408203,2|8,0:0|0:0,0:0:0:0:
296,168,16788,2,0,L|176:144,1,107.999996704102,2|0,0:0|0:0,0:0:0:0:
48,128,17188,2,0,L|192:104,1,107.999996704102,2|8,0:0|0:0,0:0:0:0:
352,240,17588,1,2,0:0:0:0:
408,216,17688,1,2,0:0:0:0:
320,168,17788,2,0,L|176:144,1,107.999996704102,4|0,0:0|0:0,0:0:0:0:
392,264,18188,5,10,0:0:0:0:
56,344,18388,2,0,L|272:320,1,215.999993408203,2|2,0:0|0:0,0:0:0:0:
176,264,18988,1,8,0:0:0:0:
56,240,19188,1,2,0:0:0:0:
392,304,19388,6,0,L|248:296,1,107.999996704102,2|0,0:0|0:0,0:0:0:0:
432,232,19788,1,8,0:0:0:0:
128,328,19988,2,0,P|64:240|160:176,1,215.999993408203,2|2,0:0|0:0,0:0:0:0:
192,168,20488,1,0,0:0:0:0:
256,160,20588,1,8,0:0:0:0:
136,96,20788,2,2,L|232:80,1,53.9999983520508
376,104,20988,6,0,L|512:96,1,107.999996704102,2|0,0:0|0:0,0:0:0:0:
320,168,21388,2,0,L|168:160,1,107.999996704102,10|0,0:0|0:0,0:0:0:0:
368,256,21788,2,0,L|512:248,1,107.999996704102,2|0,0:0|0:0,0:0:0:0:
344,360,22188,2,0,L|200:352,1,107.999996704102,10|0,0:0|0:0,0:0:0:0:
184,352,22488,1,0,0:0:0:0:
424,304,22588,6,0,L|296:256,1,107.999996704102,6|2,0:0|0:0,0:0:0:0:
144,248,22988,1,8,0:0:0:0:
80,224,23088,1,0,0:0:0:0:
80,160,23188,1,2,0:0:0:0:
144,136,23288,1,0,0:0:0:0:
328,112,23388,2,0,L|456:96,1,107.999996704102,0|2,0:0|0:0,0:0:0:0:
272,264,23788,2,0,L|232:200,1,53.9999983520508,8|0,0:0|0:0,0:0:0:0:
320,192,23988,2,0,L|352:112,1,53.9999983520508,2|0,0:0|0:0,0:0:0:0:
136,272,24188,6,0,L|8:240,1,107.999996704102,2|2,0:0|0:0,0:0:0:0:
328,176,24588,2,0,L|448:128,1,107.999996704102,8|2,0:0|0:0,0:0:0:0:
136,128,24988,1,4,0:0:0:0:
288,152,25188,1,0,0:0:0:0:
320,104,25288,1,0,0:0:0:0:
144,264,25388,1,8,0:0:0:0:
296,264,25588,2,0,L|280:192,1,53.9999983520508
80,176,25788,2,0,L|200:160,1,107.999996704102,4|0,0:0|0:0,0:0:0:0:
24,120,26188,5,10,0:0:0:0:
384,280,26388,2,0,P|408:272|368:136,1,215.999993408203,2|2,0:0|0:0,0:0:0:0:
256,136,26988,1,8,0:0:0:0:
416,88,27188,1,2,0:0:0:0:
144,64,27388,5,0,0:0:0:0:
192,64,27488,1,2,0:0:0:0:
240,64,27588,1,2,0:0:0:0:
104,136,27788,1,8,0:0:0:0:
360,48,27988,2,0,P|416:136|360:224,1,215.999993408203,2|2,0:0|0:0,0:0:0:0:
424,256,28588,1,8,0:0:0:0:
248,176,28788,1,2,0:0:0:0:
296,208,28888,1,2,0:0:0:0:
344,232,28988,1,4,0:0:0:0:
240,272,29188,1,0,0:0:0:0:
400,104,29388,5,10,0:0:0:0:
80,64,29588,2,0,B|176:112|176:112|56:160,1,215.999993408203,2|2,0:0|0:0,0:0:0:0:
160,192,30188,1,8,0:0:0:0:
48,216,30388,1,2,0:0:0:0:
384,64,30588,6,0,P|456:128|376:192,1,215.999993408203,2|8,0:0|0:0,0:0:0:0:
216,216,31188,2,0,L|336:240,1,107.999996704102,2|0,0:0|0:0,0:0:0:0:
448,280,31588,2,0,L|304:304,1,107.999996704102,2|8,0:0|0:0,0:0:0:0:
128,200,31988,1,2,0:0:0:0:
72,224,32088,1,2,0:0:0:0:
160,272,32188,2,0,L|304:296,1,107.999996704102,4|0,0:0|0:0,0:0:0:0:
120,120,32588,5,10,0:0:0:0:
456,40,32788,2,0,L|240:64,1,215.999993408203,2|2,0:0|0:0,0:0:0:0:
336,120,33388,1,8,0:0:0:0:
456,144,33588,1,2,0:0:0:0:
120,80,33788,6,0,L|264:88,1,107.999996704102,2|0,0:0|0:0,0:0:0:0:
64,152,34188,1,8,0:0:0:0:
384,56,34388,2,0,P|448:144|352:208,1,215.999993408203,2|2,0:0|0:0,0:0:0:0:
320,216,34888,1,0,0:0:0:0:
256,224,34988,1,8,0:0:0:0:
376,288,35188,2,2,L|280:304,1,53.9999983520508
136,280,35388,6,0,L|0:288,1,107.999996704102,2|0,0:0|0:0,0:0:0:0:
192,216,35788,2,0,L|344:224,1,107.999996704102,10|0,0:0|0:0,0:0:0:0:
144,128,36188,2,0,L|0:136,1,107.999996704102,2|0,0:0|0:0,0:0:0:0:
168,24,36588,2,0,L|312:32,1,107.999996704102,10|0,0:0|0:0,0:0:0:0:
232,72,36888,1,0,0:0:0:0:
48,128,36988,6,8,L|40:272,1,107.999996704102
464,240,37588,1,4,0:0:0:0:
144,336,37788,2,8,L|128:208,1,107.999996704102
352,224,38388,1,4,0:0:0:0:
40,216,38588,2,2,L|32:176,6,33.7500012874604
352,296,38988,1,8,0:0:0:0:
