osu file format v12

[General]
AudioFilename: Gate of Steiner(To True Remix).mp3
AudioLeadIn: 0
PreviewTime: -1
Countdown: 0
SampleSet: None
StackLeniency: 0.7
Mode: 0
LetterboxInBreaks: 1

[Editor]
DistanceSpacing: 1
BeatDivisor: 4
GridSize: 8

[Metadata]
Title:Gate of Steiner (To True Remix)
TitleUnicode:
Artist:Hououin Kyouma
ArtistUnicode:
Creator:Patchouli
Version:死ぬがよい
Source:Steins;Gate
Tags:
BeatmapID:242255
BeatmapSetID:88999

[Difficulty]
HPDrainRate:8
CircleSize:4
OverallDifficulty:8
ApproachRate:9
SliderMultiplier:3.2
SliderTickRate:1

[Events]
//Background and Video events
0,0,"ibg012.jpg",0,0
//Break Periods
2,60727,78148
//Storyboard Layer 0 (Background)
//Storyboard Layer 1 (Fail)
//Storyboard Layer 2 (Pass)
//Storyboard Layer 3 (Foreground)
//Storyboard Sound Samples
//Background Colour Transformations
3,100,163,162,255

[TimingPoints]
20319,314.13612565445,4,2,0,40,1,1
40358,-76.9230769230769,4,2,0,40,0,1
60528,-76.9230769230769,4,2,0,40,0,0
80633,-76.9230769230769,4,2,0,40,0,1
115806,-76.9230769230769,4,2,0,40,0,0
115816,-76.9230769230769,4,2,0,40,0,1
116120,-76.9230769230769,4,2,0,40,0,0
116130,-76.9230769230769,4,2,0,40,0,1
116434,-76.9230769230769,4,2,0,40,0,0
116444,-76.9230769230769,4,2,0,40,0,1
116591,-76.9230769230769,4,2,0,40,0,0
116601,-76.9230769230769,4,2,0,40,0,1
116905,-76.9230769230769,4,2,0,40,0,0
116915,-76.9230769230769,4,2,0,40,0,1
120842,-76.9230769230769,4,2,0,40,0,0

[HitObjects]
56,176,20319,2,0,B|208:112,1,160
256,264,20633,1,8,0:0:0:0:
368,56,20790,6,0,B|448:224,1,160
280,160,21104,1,0,0:0:0:0:
168,48,21261,5,8,0:0:0:0:
128,288,21418,1,0,0:0:0:0:
368,304,21575,6,0,B|216:208,1,160
384,176,21889,1,8,0:0:0:0:
144,152,22046,6,0,B|288:72,1,160
440,104,22360,1,0,0:0:0:0:
240,232,22517,6,0,B|48:232,1,160,8|0,0:0|0:0,0:0:0:0:
168,48,22832,6,0,B|304:192,1,160
280,328,23146,1,8,0:0:0:0:
328,96,23303,6,0,B|176:176,1,160
128,320,23617,1,0,0:0:0:0:
72,168,23774,5,8,0:0:0:0:
312,200,23931,1,0,0:0:0:0:
208,320,24088,6,0,B|248:128,1,160
384,232,24402,1,8,0:0:0:0:
472,96,24559,6,0,B|320:192,1,160
192,120,24873,1,0,0:0:0:0:
40,72,25031,6,0,B|8:0,4,80,8|0|0|0|0,0:0|0:0|0:0|0:0|0:0,0:0:0:0:
96,304,25502,2,0,B|152:96,1,160,0|8,0:0|0:0,0:0:0:0:
248,264,25816,6,0,B|408:328,1,160
304,192,26130,1,0,0:0:0:0:
488,40,26287,6,0,B|448:208,1,160,8|0,0:0|0:0,0:0:0:0:
160,56,26601,6,0,B|344:104,1,160
376,248,26915,1,8,0:0:0:0:
152,336,27072,6,0,B|32:224,1,160
176,144,27387,1,0,0:0:0:0:
232,296,27544,5,8,0:0:0:0:
344,88,27701,1,0,0:0:0:0:
232,296,27858,6,0,B|408:336,1,160,8|0,0:0|0:0,0:0:0:0:
224,56,28329,2,0,B|48:96,1,160,8|0,0:0|0:0,0:0:0:0:
280,208,28800,2,0,B|440:144,1,160,8|0,0:0|0:0,0:0:0:0:
428,148,29114,5,8,0:0:0:0:
344,280,29271,1,0,0:0:0:0:
296,128,29428,1,8,0:0:0:0:
136,96,29586,1,0,0:0:0:0:
72,240,29743,2,0,B|0:288,4,80,8|0|8|0|8,0:0|0:0|0:0|0:0|0:0,0:0:0:0:
216,176,30371,6,0,B|144:328,1,160,4|0,0:0|0:0,0:0:0:0:
104,168,30685,1,8,0:0:0:0:
296,312,30842,6,0,B|464:256,1,160
456,104,31156,1,0,0:0:0:0:
224,40,31313,5,8,0:0:0:0:
384,224,31470,1,0,0:0:0:0:
112,56,31627,6,0,B|208:208,1,160
320,80,31942,1,8,0:0:0:0:
280,232,32099,6,0,B|112:312,1,160
376,320,32413,1,0,0:0:0:0:
184,176,32570,5,8,0:0:0:0:
424,152,32727,1,0,0:0:0:0:
248,320,32884,6,0,B|72:272,1,160
200,64,33198,1,8,0:0:0:0:
40,64,33355,6,0,B|120:216,1,160
256,128,33669,1,0,0:0:0:0:
400,48,33826,5,8,0:0:0:0:
336,280,33983,1,0,0:0:0:0:
96,264,34140,6,0,B|288:216,1,160
328,80,34455,1,8,0:0:0:0:
480,360,34612,6,0,B|392:216,1,160
272,320,34926,1,0,0:0:0:0:
72,192,35083,5,8,0:0:0:0:
440,192,35240,1,0,0:0:0:0:
232,72,35397,6,0,B|192:240,1,160
144,72,35711,1,8,0:0:0:0:
328,224,35868,6,0,B|408:72,1,160
256,152,36182,1,0,0:0:0:0:
168,280,36339,5,8,0:0:0:0:
408,320,36497,1,0,0:0:0:0:
464,88,36654,6,0,B|288:184,1,160
264,312,36968,1,8,0:0:0:0:
72,168,37125,6,0,B|232:232,1,160
376,184,37439,1,0,0:0:0:0:
288,48,37596,5,8,0:0:0:0:
64,280,37753,1,0,0:0:0:0:
144,144,37910,6,0,B|288:224,2,160,8|0|0,0:0|0:0|0:0,0:0:0:0:
304,136,38381,2,0,B|264:304,2,160,8|0|0,0:0|0:0|0:0,0:0:0:0:
360,288,38853,2,0,B|176:304,1,160,8|0,0:0|0:0,0:0:0:0:
72,200,39167,5,8,0:0:0:0:
72,200,39481,1,8,0:0:0:0:
368,72,39795,2,0,B|416:56,8,40,8|0|0|0|8|0|0|0|8,0:0|0:0|0:0|0:0|0:0|0:0|0:0|0:0|0:0,0:0:0:0:
136,48,40423,5,4,0:0:0:0:
160,256,40580,2,0,B|288:72,1,207.99999628067,0|8,0:0|0:0,0:0:0:0:
80,144,40894,2,0,B|296:232,1,207.99999628067
456,120,41209,1,0,0:0:0:0:
424,328,41366,1,8,0:0:0:0:
328,144,41523,1,0,0:0:0:0:
264,344,41680,6,0,B|48:304,1,207.99999628067
248,224,41994,1,8,0:0:0:0:
152,40,42151,2,0,B|128:248,1,207.99999628067
40,56,42465,1,0,0:0:0:0:
232,128,42622,2,0,B|424:224,1,207.99999628067,8|0,0:0|0:0,0:0:0:0:
448,16,42936,6,0,B|328:208,1,207.99999628067
144,112,43250,1,8,0:0:0:0:
64,304,43408,2,0,B|320:312,1,207.99999628067
472,352,43722,1,0,0:0:0:0:
448,144,43879,1,8,0:0:0:0:
352,328,44036,1,0,0:0:0:0:
216,168,44193,6,0,B|432:256,1,207.99999628067
344,48,44507,1,8,0:0:0:0:
264,240,44664,2,0,B|32:272,1,207.99999628067
56,64,44978,1,0,0:0:0:0:
264,80,45135,2,0,B|80:176,1,207.99999628067,8|0,0:0|0:0,0:0:0:0:
184,352,45449,6,0,B|160:136,1,207.99999628067
80,336,45764,1,8,0:0:0:0:
264,240,45921,2,0,B|456:336,1,207.99999628067
472,128,46235,1,0,0:0:0:0:
264,120,46392,2,0,B|104:264,1,207.99999628067,8|0,0:0|0:0,0:0:0:0:
80,56,46706,6,0,B|192:248,1,207.99999628067
368,144,47020,1,8,0:0:0:0:
464,328,47177,2,0,B|264:200,1,207.99999628067
96,304,47491,1,0,0:0:0:0:
200,128,47648,2,0,B|416:48,1,207.99999628067,8|0,0:0|0:0,0:0:0:0:
192,32,47962,6,0,B|72:216,1,207.99999628067,8|0,0:0|0:0,0:0:0:0:
248,328,48277,1,0,0:0:0:0:
408,192,48434,2,0,B|184:232,1,207.99999628067,8|0,0:0|0:0,0:0:0:0:
360,96,48748,1,0,0:0:0:0:
352,304,48905,2,0,B|256:88,1,207.99999628067,8|0,0:0|0:0,0:0:0:0:
64,64,49219,6,0,B|240:216,1,207.99999628067,8|0,0:0|0:0,0:0:0:0:
16,232,49533,1,8,0:0:0:0:
216,296,49690,1,0,0:0:0:0:
272,96,49847,2,8,B|112:256,1,207.99999628067
328,224,50161,1,8,0:0:0:0:
328,224,50476,6,0,B|152:112,1,207.99999628067,4|0,0:0|0:0,0:0:0:0:
360,120,50790,1,8,0:0:0:0:
192,240,50947,2,0,B|8:360,1,207.99999628067
120,168,51261,1,0,0:0:0:0:
272,304,51418,2,0,B|480:352,1,207.99999628067,8|0,0:0|0:0,0:0:0:0:
272,112,51732,6,0,B|440:240,1,207.99999628067
376,40,52046,1,8,0:0:0:0:
168,64,52203,2,0,B|40:232,1,207.99999628067
80,24,52517,1,0,0:0:0:0:
192,200,52675,2,0,B|416:224,1,207.99999628067,8|0,0:0|0:0,0:0:0:0:
208,304,52989,6,0,B|88:120,1,207.99999628067
104,336,53303,1,8,0:0:0:0:
320,112,53460,2,0,B|88:168,1,207.99999628067
288,280,53774,1,0,0:0:0:0:
416,120,53931,2,0,B|464:344,1,207.99999628067,8|0,0:0|0:0,0:0:0:0:
296,200,54245,6,0,B|120:80,1,207.99999628067
32,272,54559,1,8,0:0:0:0:
240,304,54716,2,0,B|384:96,1,207.99999628067
352,344,55031,1,0,0:0:0:0:
184,224,55188,2,0,B|-8:72,1,207.99999628067,8|0,0:0|0:0,0:0:0:0:
224,40,55502,6,0,B|104:232,1,207.99999628067
320,240,55816,1,8,0:0:0:0:
440,72,55973,2,0,B|232:160,1,207.99999628067
72,40,56287,1,0,0:0:0:0:
56,248,56444,2,0,B|160:48,1,207.99999628067,8|0,0:0|0:0,0:0:0:0:
224,256,56758,6,0,B|424:336,1,207.99999628067,0|0,0:0|0:0,0:0:0:0:
496,136,57072,1,8,0:0:0:0:
304,48,57229,2,0,B|112:208,1,207.99999628067,0|0,0:0|0:0,0:0:0:0:
352,144,57544,1,0,0:0:0:0:
168,48,57701,2,0,B|304:224,1,207.99999628067,8|0,0:0|0:0,0:0:0:0:
120,328,58015,6,0,B|240:144,1,207.99999628067,8|0,0:0|0:0,0:0:0:0:
56,40,58329,1,0,0:0:0:0:
64,248,58486,2,0,B|304:304,1,207.99999628067,8|0,0:0|0:0,0:0:0:0:
440,184,58800,1,0,0:0:0:0:
264,72,58957,2,0,B|56:168,1,207.99999628067,8|0,0:0|0:0,0:0:0:0:
280,192,59271,5,8,0:0:0:0:
280,192,59428,2,0,B|312:240,28,51.9999990701676,0|0|0|0|0|0|0|0|0|0|0|0|0|0|0|0|0|0|0|0|0|0|0|0|0|0|0|0|4,0:0|0:0|0:0|0:0|0:0|0:0|0:0|0:0|0:0|0:0|0:0|0:0|0:0|0:0|0:0|0:0|0:0|0:0|0:0|0:0|0:0|0:0|0:0|0:0|0:0|0:0|0:0|0:0|0:0,0:0:0:0:
256,80,78748,5,0,0:0:0:0:
256,112,79062,1,0,0:0:0:0:
256,144,79376,1,0,0:0:0:0:
256,152,79455,1,0,0:0:0:0:
256,160,79533,1,0,0:0:0:0:
256,168,79612,1,0,0:0:0:0:
256,176,79690,1,0,0:0:0:0:
256,184,79769,1,0,0:0:0:0:
256,192,79847,1,0,0:0:0:0:
256,200,79926,1,0,0:0:0:0:
256,208,80004,1,0,0:0:0:0:
256,216,80083,1,0,0:0:0:0:
256,224,80161,1,0,0:0:0:0:
256,232,80240,1,0,0:0:0:0:
256,240,80318,1,0,0:0:0:0:
256,248,80397,1,0,0:0:0:0:
256,256,80476,1,0,0:0:0:0:
256,264,80554,1,0,0:0:0:0:
256,272,80633,6,0,B|464:216,1,207.99999628067,4|0,0:0|0:0,0:0:0:0:
304,72,80947,1,8,0:0:0:0:
96,56,81104,2,0,B|16:264,2,207.99999628067
104,264,81575,2,0,B|184:48,1,207.99999628067,8|0,0:0|0:0,0:0:0:0:
376,128,81889,6,0,B|168:208,1,207.99999628067
392,224,82203,1,8,0:0:0:0:
232,88,82360,2,0,B|152:312,1,207.99999628067
40,120,82675,1,0,0:0:0:0:
232,208,82832,2,0,B|424:336,1,207.99999628067,8|0,0:0|0:0,0:0:0:0:
120,312,83146,6,0,B|104:80,1,207.99999628067
24,296,83460,1,8,0:0:0:0:
200,176,83617,2,0,B|392:64,1,207.99999628067
472,256,83931,1,0,0:0:0:0:
288,352,84088,2,0,B|96:208,1,207.99999628067,8|0,0:0|0:0,0:0:0:0:
328,240,84402,6,0,B|504:104,1,207.99999628067
296,48,84716,1,8,0:0:0:0:
200,232,84873,2,0,B|432:320,2,207.99999628067
184,24,85345,1,8,0:0:0:0:
96,208,85502,1,0,0:0:0:0:
296,144,85659,6,0,B|128:304,1,207.99999628067
352,256,85973,1,8,0:0:0:0:
176,144,86130,2,0,B|8:8,1,207.99999628067
96,208,86444,1,0,0:0:0:0:
256,80,86601,2,0,B|472:72,1,207.99999628067,8|0,0:0|0:0,0:0:0:0:
304,208,86915,6,0,B|144:352,1,207.99999628067
360,336,87229,1,8,0:0:0:0:
184,224,87387,2,0,B|120:24,1,207.99999628067
88,232,87701,1,0,0:0:0:0:
272,144,87858,2,0,B|480:216,1,207.99999628067,8|0,0:0|0:0,0:0:0:0:
264,256,88172,6,0,B|72:368,1,207.99999628067
264,256,88486,2,0,B|16:128,1,207.99999628067,8|0,0:0|0:0,0:0:0:0:
264,256,88800,2,0,B|256:40,1,207.99999628067
264,256,89114,2,0,B|456:128,1,207.99999628067,8|0,0:0|0:0,0:0:0:0:
232,112,89428,6,0,B|152:48,3,103.999998140335
232,112,89743,2,0,B|128:128,3,103.999998140335
232,112,90057,2,0,B|176:208,3,103.999998140335
232,112,90371,2,0,B|264:216,3,103.999998140335
288,312,90685,6,0,B|448:144,1,207.99999628067,4|0,0:0|0:0,0:0:0:0:
376,360,90999,1,8,0:0:0:0:
200,256,91156,2,0,B|-8:320,1,207.99999628067
208,352,91470,1,0,0:0:0:0:
96,176,91627,2,0,B|280:48,1,207.99999628067,8|0,0:0|0:0,0:0:0:0:
56,64,91942,5,0,0:0:0:0:
232,176,92099,2,0,B|440:288,1,207.99999628067,0|8,0:0|0:0,0:0:0:0:
304,96,92413,1,0,0:0:0:0:
240,296,92570,2,0,B|32:352,1,207.99999628067
272,88,92884,2,0,B|480:32,1,207.99999628067,8|0,0:0|0:0,0:0:0:0:
320,168,93198,5,0,0:0:0:0:
432,344,93355,1,0,0:0:0:0:
416,136,93512,1,8,0:0:0:0:
336,328,93669,2,0,B|88:272,1,207.99999628067
184,80,93983,1,0,0:0:0:0:
32,216,94140,2,0,B|272:144,1,207.99999628067,8|0,0:0|0:0,0:0:0:0:
32,112,94455,6,0,B|168:280,1,207.99999628067
280,104,94769,2,0,B|248:328,1,207.99999628067,8|0,0:0|0:0,0:0:0:0:
456,296,95083,1,0,0:0:0:0:
384,104,95240,2,0,B|160:152,2,207.99999628067,0|8|0,0:0|0:0|0:0,0:0:0:0:
216,232,95711,6,0,B|288:24,1,207.99999628067
328,240,96025,1,8,0:0:0:0:
144,152,96182,2,0,B|288:328,1,207.99999628067
80,248,96497,1,0,0:0:0:0:
136,48,96654,2,0,B|360:88,1,207.99999628067,8|0,0:0|0:0,0:0:0:0:
488,232,96968,1,0,0:0:0:0:
304,328,97125,6,0,B|416:144,1,207.99999628067,0|8,0:0|0:0,0:0:0:0:
224,240,97439,1,0,0:0:0:0:
424,288,97596,2,0,B|264:136,1,207.99999628067
136,296,97910,1,8,0:0:0:0:
32,112,98067,1,0,0:0:0:0:
32,112,98224,6,0,B|232:32,1,207.99999628067
392,160,98538,2,0,B|160:128,1,207.99999628067,8|0,0:0|0:0,0:0:0:0:
360,248,98853,1,0,0:0:0:0:
304,48,99010,2,0,B|240:272,1,207.99999628067,0|8,0:0|0:0,0:0:0:0:
56,328,99324,1,0,0:0:0:0:
160,144,99481,6,0,B|304:320,1,207.99999628067
480,208,99795,1,8,0:0:0:0:
288,136,99952,1,0,0:0:0:0:
288,136,100266,1,8,0:0:0:0:
200,320,100423,1,0,0:0:0:0:
24,208,100580,1,8,0:0:0:0:
168,56,100737,6,0,B|296:248,1,207.99999628067,4|0,0:0|0:0,0:0:0:0:
104,128,101051,1,8,0:0:0:0:
304,56,101209,2,0,B|160:264,1,207.99999628067
392,240,101523,1,0,0:0:0:0:
216,344,101680,2,0,B|48:200,1,207.99999628067,8|0,0:0|0:0,0:0:0:0:
248,232,101994,6,0,B|432:120,1,207.99999628067
216,128,102308,1,8,0:0:0:0:
320,304,102465,2,0,B|320:96,1,207.99999628067
136,192,102779,2,0,B|8:24,2,207.99999628067,0|8|0,0:0|0:0|0:0,0:0:0:0:
288,56,103250,5,0,0:0:0:0:
432,200,103408,2,0,B|232:304,1,207.99999628067,0|8,0:0|0:0,0:0:0:0:
456,320,103722,2,0,B|288:168,1,207.99999628067
168,336,104036,1,0,0:0:0:0:
200,128,104193,2,0,B|280:336,1,207.99999628067,8|0,0:0|0:0,0:0:0:0:
72,280,104507,5,0,0:0:0:0:
256,184,104664,2,0,B|448:88,1,207.99999628067,0|8,0:0|0:0,0:0:0:0:
232,80,104978,2,0,B|16:32,1,207.99999628067
144,208,105292,1,0,0:0:0:0:
304,344,105449,2,0,B|328:128,1,207.99999628067,8|0,0:0|0:0,0:0:0:0:
408,328,105764,5,0,0:0:0:0:
216,256,105921,1,0,0:0:0:0:
416,208,106078,2,0,B|176:112,1,207.99999628067,8|0,0:0|0:0,0:0:0:0:
120,312,106392,1,0,0:0:0:0:
40,120,106549,2,0,B|248:24,1,207.99999628067,0|8,0:0|0:0,0:0:0:0:
112,200,106863,1,0,0:0:0:0:
32,8,107020,6,0,B|216:144,1,207.99999628067
312,304,107334,1,8,0:0:0:0:
384,104,107491,2,0,B|216:248,1,207.99999628067
296,48,107805,1,0,0:0:0:0:
136,184,107962,1,8,0:0:0:0:
336,248,108120,1,0,0:0:0:0:
144,320,108277,6,0,B|16:144,1,207.99999628067
144,320,108591,2,0,B|184:80,1,207.99999628067,8|0,0:0|0:0,0:0:0:0:
144,320,108905,2,0,B|344:184,1,207.99999628067
144,320,109219,2,0,B|376:360,1,207.99999628067,8|0,0:0|0:0,0:0:0:0:
424,136,109533,6,0,B|456:240,3,103.999998140335
424,136,109847,2,0,B|368:248,3,103.999998140335
424,136,110161,2,0,B|296:152,3,103.999998140335
424,136,110476,2,0,B|320:32,3,103.999998140335
248,40,110790,6,0,B|344:272,1,207.99999628067,4|0,0:0|0:0,0:0:0:0:
152,344,111104,1,8,0:0:0:0:
24,176,111261,2,0,B|232:264,1,207.99999628067
88,96,111575,1,0,0:0:0:0:
72,304,111732,2,0,B|184:112,1,207.99999628067,8|0,0:0|0:0,0:0:0:0:
272,304,112046,5,0,0:0:0:0:
472,256,112203,2,0,B|264:208,1,207.99999628067,0|8,0:0|0:0,0:0:0:0:
360,24,112517,1,0,0:0:0:0:
192,144,112675,2,0,B|152:352,1,207.99999628067
80,152,112989,1,8,0:0:0:0:
280,208,113146,2,0,B|496:136,1,207.99999628067
280,80,113460,5,0,0:0:0:0:
80,32,113617,1,8,0:0:0:0:
200,200,113774,2,0,B|56:352,1,207.99999628067
264,344,114088,1,0,0:0:0:0:
472,344,114245,2,0,B|264:256,1,207.99999628067,8|0,0:0|0:0,0:0:0:0:
384,80,114559,6,0,B|360:320,1,207.99999628067
480,120,114873,1,8,0:0:0:0:
280,184,115031,2,0,B|40:96,1,207.99999628067
288,56,115345,1,0,0:0:0:0:
144,208,115502,2,0,B|8:376,1,207.99999628067,8|0,0:0|0:0,0:0:0:0:
56,168,115816,6,0,B|176:368,1,207.99999628067,4|0,0:0|0:0,0:0:0:0:
360,288,116130,2,0,B|160:160,1,207.99999628067,12|0,0:0|0:0,0:0:0:0:
392,176,116444,1,4,0:0:0:0:
216,72,116601,1,4,0:0:0:0:
216,72,116915,1,4,0:0:0:0:
120,328,117387,6,0,B|272:160,1,207.99999628067,8|0,0:0|0:0,0:0:0:0:
64,232,117701,1,4,0:0:0:0:
240,344,117858,1,0,0:0:0:0:
424,256,118015,1,12,0:0:0:0:
368,56,118172,1,4,0:0:0:0:
256,192,118329,12,0,120842,0:0:0:0:
