osu file format v5

[General]
AudioFilename: Naruto Episode 22.mp3
AudioLeadIn: 0
PreviewTime: -1
Countdown: 1
SampleSet: Soft
StackLeniency: 0.7
Mode: 0
LetterboxInBreaks: 1
EditorBookmarks: 74677

[Metadata]
Title:Rocks
Artist:Hound Dog
Creator:chaosanime
Version:vocal - Hard
Source:Naruto
Tags:Hound Dog Naruto Rocks OP opening first

[Difficulty]
HPDrainRate:6
CircleSize:5
OverallDifficulty:6
SliderMultiplier:1.4
SliderTickRate:1

[Events]
//Background and Video events
1,0,"Naruto Episode 22 opening no sound.00.avi"
//Break Periods
//Storyboard Layer 0 (Background)
//Storyboard Layer 1 (Failing)
//Storyboard Layer 2 (Passing)
//Storyboard Layer 3 (Foreground)
//Storyboard Sound Samples
//Background Colour Transformations
3,100,163,162,255

[TimingPoints]
2385,477.17512327024,4,2,0,100,1

[Colours]
Combo1 : 234,245,3
Combo2 : 243,150,10
Combo3 : 67,65,71

[HitObjects]
144,80,2384,1,0
368,80,4293,1,0
256,144,6202,1,0
256,224,6440,1,0
48,320,7156,1,0
48,16,8111,1,0
64,96,8349,1,0
144,112,8588,1,0
160,192,8826,1,0
320,208,9304,5,0
320,128,9542,1,0
192,112,11212,1,0
272,112,11451,1,0
352,112,11689,1,0
432,112,11928,1,0
432,272,12405,1,0
448,112,15030,1,0
416,176,15268,1,0
352,224,15507,1,0
272,240,15745,1,0
176,240,16064,1,0
80,160,16461,5,0
224,96,16938,1,0
224,176,17177,1,0
304,176,17416,1,0
304,96,17654,1,0
224,96,17893,1,0
64,96,18370,1,0
64,96,20279,5,0
224,96,20756,1,0
304,96,20994,1,0
224,96,21233,1,0
240,176,21472,1,0
256,256,21710,1,0
432,320,24096,5,0
288,384,24573,1,0
240,336,24811,1,0
240,256,25050,1,0
160,256,25289,1,0
160,176,25527,1,0
48,272,26005,1,0
48,304,27913,5,0
16,144,28391,1,0
96,144,28629,1,0
32,176,28868,1,0
112,192,29107,1,0
160,256,29345,1,0
320,256,29822,1,0
448,64,32208,5,0
368,64,32446,1,0
448,64,32685,1,0
368,64,32924,1,0
448,192,33401,1,0
368,192,33639,1,0
304,224,33878,1,0
240,304,34196,1,0
368,304,34594,1,0
256,16,36025,5,0
208,80,36263,1,0
256,144,36502,1,0
208,208,36741,1,0
368,208,37218,1,0
256,304,37695,1,0
176,304,37934,1,0
320,368,38411,1,0
48,80,40559,5,0
48,240,41036,1,0
112,192,41274,1,0
176,48,41751,1,0
272,176,42229,1,0
448,320,43660,1,0
400,256,43899,1,0
368,320,44137,1,0
288,48,47478,5,0
224,80,47716,1,0
288,112,47955,1,0
224,160,48194,1,0
288,192,48432,1,0
416,272,48909,1,0
272,320,49386,1,0
192,320,49624,1,0
112,288,49863,1,0
96,208,50102,1,0
176,208,50341,1,0
176,48,50818,1,0
272,176,51295,1,0
272,96,51533,1,0
272,16,51772,1,0
352,16,52011,1,0
352,96,52249,1,0
352,256,52726,1,0
480,48,55112,5,0
416,96,55350,1,0
368,144,55589,1,0
320,192,55828,1,0
272,240,56067,1,0
144,192,56464,1,0
48,32,57021,1,0
128,32,57259,1,0
208,32,57498,1,0
128,32,57737,1,0
128,112,57975,1,0
288,112,58453,1,0
288,272,58930,1,0
208,272,59168,1,0
128,272,59407,1,0
128,192,59646,1,0
224,112,60043,1,0
304,48,60361,1,0
32,128,63224,5,0
192,128,63702,1,0
272,128,63940,1,0
352,128,64179,1,0
432,128,64418,1,0
512,128,64656,1,0
384,224,65133,1,0
16,304,67042,5,0
16,128,67598,1,0
112,80,67917,1,0
208,128,68235,1,0
272,80,68473,1,0
272,240,68950,1,0
128,304,69428,1,0
80,48,70859,1,0
160,48,71098,1,0
160,208,71575,1,0
80,208,71813,1,0
208,128,72291,1,0
288,128,72529,1,0
208,128,72768,1,0
16,304,74199,5,0
16,384,74438,1,0
256,192,74677,12,0,76585
128,160,81834,5,0
208,160,82072,1,0
288,160,82311,1,0
368,160,82550,1,0
32,352,83743,1,0
64,288,83981,1,0
96,352,84220,1,0
128,288,84459,1,0
272,352,84936,1,0
96,192,85652,1,0
176,192,85890,1,0
256,192,86129,1,0
336,192,86368,1,0
