osu file format v5

[General]
AudioFilename: Naruto Episode 22.mp3
AudioLeadIn: 0
PreviewTime: -1
Countdown: 1
SampleSet: Soft
StackLeniency: 0.7
Mode: 0
LetterboxInBreaks: 1
EditorBookmarks: 17018,58691

[Metadata]
Title:Rocks
Artist:Hound Dog
Creator:chaosanime
Version:vocal - Beginner
Source:Naruto
Tags:Hound Dog Naruto Rocks OP opening first

[Difficulty]
HPDrainRate:4
CircleSize:3
OverallDifficulty:3
SliderMultiplier:1.4
SliderTickRate:1

[Events]
//Background and Video events
1,0,"Naruto Episode 22 opening no sound.00.avi"
//Break Periods
//Storyboard Layer 0 (Background)
//Storyboard Layer 1 (Failing)
//Storyboard Layer 2 (Passing)
//Storyboard Layer 3 (Foreground)
//Storyboard Sound Samples
//Background Colour Transformations
3,100,163,162,255

[TimingPoints]
2385,477.17512327024,4,2,0,100,1

[Colours]
Combo1 : 234,245,3
Combo2 : 243,150,10
Combo3 : 67,65,71

[HitObjects]
144,80,2384,1,0
416,80,4293,1,0
416,352,6202,2,0,B|336:352,1,70
240,352,7156,1,0
240,208,8111,2,0,B|320:208,3,70
304,144,9304,2,0,B|384:144,1,70
128,128,11212,2,0,B|48:128,3,70
0,128,12405,1,0
112,64,15030,2,0,B|192:64,3,70
192,160,16064,1,0
304,160,16461,1,0
224,272,16938,2,0,B|304:272,2,70
64,112,17654,2,0,B|64:192,1,70
64,256,18370,1,0
128,144,20279,5,0
272,144,20756,2,0,B|352:144,4,70
48,64,24096,1,0
112,64,24573,2,0,B|192:64,4,70
288,64,26005,1,0
480,256,27913,5,0
416,256,28391,2,0,B|336:256,4,70
416,192,29822,1,0
96,64,32208,6,0,B|16:64,3,70
16,128,33401,2,0,B|80:192,2,70
16,176,34196,1,0
16,240,34594,1,0
208,304,36025,6,0,B|288:304,3,70
352,240,37218,1,0
352,176,37695,2,0,B|272:176,1,70
208,176,38411,1,0
80,160,40559,1,0
80,224,41036,2,0,B|80:304,1,70
144,288,41751,1,0
208,288,42229,1,0
208,80,43660,2,0,B|288:80,2,70
224,160,47478,6,0,B|160:96,4,70
224,224,48909,1,0
160,240,49386,2,0,B|144:320,4,70
96,224,50818,1,0
96,160,51295,2,0,B|176:144,4,70
80,96,52726,1,0
432,48,55112,6,0,B|480:128,4,70
384,64,56464,1,0
304,96,57021,2,0,B|224:96,4,70
304,240,58453,1,0
192,320,58930,2,0,B|112:320,2,70
160,160,59646,1,0
96,160,60043,1,0
48,160,60361,1,0
80,160,63224,5,0
144,160,63702,2,0,B|192:96,4,70
192,208,65133,1,0
32,240,67042,1,0
144,160,67598,1,0
320,96,67917,1,0
208,336,68235,2,0,B|272:272,1,70
304,240,68950,1,0
352,192,69428,1,0
176,80,70859,2,0,B|96:80,1,70
96,144,71575,2,0,B|16:144,1,70
16,208,72291,2,0,B|80:272,2,70
176,96,74199,2,0,B|256:96,1,70
256,192,74677,12,0,76585
112,160,81834,6,0,B|192:160,3,70
208,336,83743,2,0,B|128:352,3,70
96,288,84936,1,0
160,208,85652,2,0,B|208:144,3,70
