osu file format v4

[General]
AudioFilename: 10 Mr.Lonely.mp3
AudioLeadIn: 0
AudioHash: 11cfabf373c8caf59f95e0a8bc857d0e
PreviewTime: -1
SampleSet: Normal
EditorBookmarks: 7782,33010,44146,73010,88237,113010,131419,159600,167782,175055,182328,203691,211419

[Metadata]
Title:Mr.Lonely
Artist:Hotei Tomoyasu
Creator:mtmcl
Version:Normal

[Difficulty]
HPDrainRate:5
CircleSize:5
OverallDifficulty:5
SliderMultiplier: 1.4
SliderTickRate: 1

[Events]
//Background and Video events
//Break Periods
2,33209,42946
2,73210,87037
2,113210,130219
2,159800,166582
2,175255,181128
2,203891,210219
//Storyboard Layer 0 (Background)
//Storyboard Layer 1 (Failing)
//Storyboard Layer 2 (Passing)
//Storyboard Layer 3 (Foreground)
//Storyboard Sound Samples
//Background Colour Transformations
3,100,0,0,0

[TimingPoints]
510,454.545454545455,4,1,0

[HitObjects]
32,32,7782,5,0
128,32,8237,1,0
192,32,8691,1,0
192,32,8919,1,0
352,32,9600,5,0
352,128,10055,1,0
352,224,10510,1,0
352,320,10964,1,0
224,320,11419,5,0
160,224,11873,1,0
128,160,12328,1,0
128,160,12555,1,0
288,160,13237,5,0
384,160,13691,1,0
384,32,14146,1,0
288,32,14600,1,0
160,32,15055,5,0
160,160,15510,1,0
160,160,15737,1,0
160,160,15964,2,0,B|160:160|256:160,1,70
352,160,16646,5,0
352,256,17100,1,0
448,256,17555,1,0
448,160,18010,1,0
448,64,18464,2,0,B|448:64|32:288|512:352,1,560
480,192,21419,5,0
480,192,21646,1,0
480,192,21873,1,0
480,192,22100,1,0
480,192,22328,1,0
352,192,22782,5,0
352,192,23010,1,0
352,192,23237,1,0
352,192,23464,1,0
224,192,23919,1,0
224,288,24373,5,0
128,288,24828,1,0
128,192,25282,1,0
128,96,25737,1,0
416,96,26873,5,0
416,96,27100,1,0
288,96,27555,1,0
128,96,28237,1,0
256,192,28464,12,0,29373
96,64,30055,1,0
192,64,30510,1,0
192,64,30737,1,0
288,64,31191,1,0
448,64,31873,1,0
256,192,32100,12,0,33009
256,192,44146,5,0
352,192,44600,2,0,B|352:192|352:96,3,70
256,96,45737,1,0
160,96,46191,1,0
160,192,46646,1,0
256,192,47100,1,0
288,288,47555,2,0,B|288:288|512:64,2,280
128,288,50055,5,0
64,192,50510,1,0
64,192,50737,1,0
64,192,50964,1,0
64,192,51191,1,0
64,192,51419,1,0
160,192,51873,5,0
160,192,52100,1,0
160,192,52328,1,0
160,192,52555,1,0
256,192,53010,1,0
256,96,53464,1,0
352,96,53919,1,0
352,192,54373,1,0
352,288,54828,1,0
192,288,55510,5,0
192,128,56191,1,0
192,128,56419,1,0
192,128,56646,1,0
352,128,57328,1,0
256,192,57555,12,0,58464
256,192,59146,1,0
160,192,59600,1,0
160,96,60055,1,0
160,96,60282,1,0
256,96,60964,1,0
256,192,61191,12,0,62100
256,192,62782,1,0
256,96,63237,1,0
256,96,63464,1,0
256,96,63691,1,0
256,96,63919,1,0
256,96,64146,1,0
352,96,64600,5,0
448,96,65055,1,0
448,96,65282,1,0
448,192,65737,2,0,B|448:192|160:192,2,280
192,192,68919,5,0
320,192,69373,1,0
256,192,69600,12,0,71191
256,192,72328,1,0
256,192,72555,1,0
256,192,72782,1,0
256,192,73010,1,0
64,128,88237,2,0,B|64:128|288:32|288:64,1,210
384,192,89600,2,0,B|384:192|416:256,3,70
64,128,91873,6,0,B|64:128|288:32|288:64,1,210
384,192,93237,1,0
384,192,93464,1,0
384,192,93691,1,0
384,192,93919,1,0
64,256,95510,6,0,B|64:256|288:352|288:320,1,210
384,192,96873,2,0,B|384:192|160:96|160:128,1,210
96,256,99146,6,0,B|96:256|192:256,3,70
96,160,100510,1,0
96,160,100737,1,0
96,160,100964,1,0
96,160,101191,1,0
96,160,101419,1,0
96,160,101646,1,0
96,160,101873,1,0
96,160,102100,1,0
96,160,102328,1,0
192,160,102782,5,0
192,160,103010,1,0
192,160,103237,1,0
192,160,103464,1,0
256,192,103691,12,0,105737
256,192,106873,1,0
256,192,107100,1,0
256,192,107328,1,0
256,192,107555,1,0
256,32,108237,1,0
256,128,108691,5,0
256,128,108919,1,0
256,128,109146,1,0
256,128,109373,1,0
256,128,109600,1,0
256,224,110055,5,0
256,224,110282,1,0
256,224,110510,2,0,B|256:224|256:320,1,70
320,288,111191,5,0
192,288,111646,1,0
320,192,112100,1,0
192,192,112555,1,0
256,96,113010,1,0
256,192,131419,2,0,B|256:192|256:96,1,70
256,32,132100,1,0
352,32,132782,6,0,B|352:32|352:128,1,70
352,96,133237,2,0,B|352:96|352:192,1,70
352,256,133919,1,0
352,352,134600,6,0,B|352:352|256:352,1,70
288,352,135055,2,0,B|288:352|192:352,1,70
128,352,135737,1,0
32,352,136419,6,0,B|32:352|32:256,1,70
32,288,136873,2,0,B|32:288|32:192,1,70
32,128,137555,1,0
192,128,138237,5,0
288,128,138691,1,0
288,128,138919,1,0
384,128,139373,1,0
384,288,140055,5,0
288,288,140510,1,0
288,288,140737,1,0
192,288,141191,1,0
256,192,141419,12,0,143919
256,192,145282,1,0
256,192,145510,1,0
256,192,145737,1,0
160,192,146191,1,0
160,192,146419,1,0
160,192,146646,1,0
160,96,147100,6,0,B|160:96|320:96,1,140
384,96,148010,2,0,B|384:96|384:192,2,70
288,96,148919,5,0
288,96,149146,1,0
288,96,149373,1,0
256,192,149828,1,0
32,32,150964,5,0
128,32,151419,1,0
128,128,151873,1,0
32,128,152328,1,0
32,128,152555,2,0,B|32:128|32:224,1,70
32,192,153010,1,0
32,288,153464,6,0,B|32:288|128:288,1,70
102,288,153919,1,0
192,288,154373,2,0,B|192:288|192:192,1,70
192,224,154828,1,0
288,224,155282,5,0
288,224,155510,1,0
288,224,155737,1,0
288,128,156191,2,0,B|288:128|128:128,1,140
64,128,157100,1,0
320,224,158237,5,0
416,224,158691,1,0
416,320,159146,1,0
320,320,159600,1,0
192,192,167782,1,0
320,192,168464,1,0
256,128,169600,5,0
256,256,170282,1,0
256,32,171419,5,0
256,160,172100,1,0
256,288,172782,1,0
256,288,173010,1,0
256,192,173237,12,0,175055
256,192,182328,1,0
256,96,182782,1,0
256,256,183691,5,0
256,256,183919,1,0
256,256,184146,2,0,B|256:256|256:96,1,140
256,32,185055,5,0
256,32,185282,1,0
256,32,185510,1,0
256,32,185737,1,0
256,32,185964,2,0,B|256:32|352:32,2,70
256,32,186646,2,0,B|256:32|160:32,2,70
256,32,187328,2,0,B|256:32|256:128,2,70
256,192,188010,12,0,189373
256,192,190055,1,0
256,192,190282,1,0
256,96,190964,1,0
256,96,191191,1,0
160,192,191873,1,0
160,192,192100,1,0
256,288,192782,1,0
256,288,193010,1,0
352,192,193691,1,0
352,192,193919,1,0
256,192,194600,5,0
256,192,194828,1,0
256,192,195055,1,0
256,192,195282,1,0
256,192,195510,1,0
256,192,195737,1,0
160,32,196646,6,0,B|160:32|384:32,1,210
384,128,197782,1,0
256,192,198010,12,0,199373
192,192,200282,1,0
320,192,200964,1,0
256,96,201419,5,0
256,96,201646,1,0
352,96,202100,1,0
352,96,202328,1,0
352,192,202782,1,0
352,192,203010,1,0
352,288,203464,1,0
352,288,203691,1,0
256,192,211419,2,0,B|256:192|256:288,1,70
256,352,212100,1,0
352,352,212782,6,0,B|352:352|352:256,1,70
352,288,213237,2,0,B|352:288|352:192,1,70
352,128,213919,1,0
352,32,214600,6,0,B|352:32|256:32,1,70
288,32,215055,2,0,B|288:32|192:32,1,70
128,32,215737,1,0
32,32,216419,6,0,B|32:32|32:128,1,70
32,96,216873,2,0,B|32:96|32:192,1,70
32,256,217555,1,0
192,256,218237,5,0
288,256,218691,1,0
288,256,218919,1,0
384,256,219373,1,0
384,96,220055,5,0
288,96,220510,1,0
288,96,220737,1,0
192,96,221191,1,0
256,192,221419,12,0,223919
256,192,225282,1,0
256,192,225510,1,0
256,192,225737,1,0
352,192,226191,1,0
352,192,226419,1,0
352,192,226646,1,0
352,288,227100,6,0,B|352:288|192:288,1,140
128,288,228010,2,0,B|128:288|128:192,2,70
224,288,228919,1,0
224,288,229146,1,0
224,288,229373,1,0
256,192,229828,1,0
480,352,230964,5,0
384,352,231419,1,0
384,256,231873,1,0
480,256,232328,1,0
480,256,232555,2,0,B|480:256|480:160,1,70
480,192,233010,1,0
480,96,233464,6,0,B|480:96|384:96,1,70
410,96,233919,1,0
320,96,234373,2,0,B|320:96|320:192,1,70
320,160,234828,1,0
224,160,235282,5,0
224,160,235510,1,0
224,160,235737,1,0
224,256,236191,2,0,B|224:256|384:256,1,140
448,256,237100,1,0
192,160,238237,5,0
96,160,238691,1,0
96,64,239146,1,0
192,64,239600,1,0
192,64,239828,1,0
192,64,240055,1,0
192,64,240282,1,0
288,64,240737,6,0,B|288:64|288:224,1,140
384,192,241646,2,0,B|384:192|384:32,1,140
480,64,242555,2,0,B|480:64|480:224,1,140
480,288,243464,6,0,B|480:288|384:288,2,70
480,192,244373,1,0
320,256,245510,5,0
192,256,245964,1,0
192,128,246419,1,0
320,128,246873,1,0
192,192,247782,5,0
320,192,248464,1,0
256,128,249600,5,0
256,256,250282,1,0
256,32,251419,5,0
256,160,252100,1,0
256,288,252782,1,0
256,288,253010,1,0
256,192,253237,12,0,255055
352,96,256191,2,0,B|352:96|192:96,1,140
128,96,257101,2,0,B|128:96|128:192,2,70
224,96,258010,5,0
224,96,258237,1,0
224,96,258464,1,0
256,192,258919,1,0
480,32,260055,5,0
384,32,260510,1,0
384,128,260964,1,0
480,128,261419,1,0
480,128,261646,2,0,B|480:128|480:224,1,70
480,192,262101,1,0
480,288,262555,6,0,B|480:288|384:288,1,70
410,288,263010,1,0
320,288,263464,2,0,B|320:288|320:192,1,70
320,224,263919,1,0
224,224,264373,5,0
224,224,264601,1,0
224,224,264828,1,0
224,128,265282,2,0,B|224:128|384:128,1,140
448,128,266191,1,0
192,224,267328,5,0
96,224,267782,1,0
96,320,268237,1,0
192,320,268691,1,0
192,320,268919,1,0
192,320,269146,1,0
192,320,269373,1,0
288,320,269828,6,0,B|288:320|288:160,1,140
384,192,270737,2,0,B|384:192|384:352,1,140
480,320,271646,2,0,B|480:320|480:160,1,140
480,96,272555,6,0,B|480:96|384:96,2,70
480,192,273464,1,0
320,128,274601,5,0
192,128,275055,1,0
192,256,275510,1,0
320,256,275964,1,0
192,192,276873,5,0
320,192,277555,1,0
256,128,278691,5,0
256,256,279373,1,0
256,32,280510,5,0
256,160,281191,1,0
256,288,281873,1,0
256,288,282101,1,0
256,192,282328,12,0,284146
448,128,284600,2,0,B|448:128|224:32|224:64,1,210
128,192,285963,2,0,B|128:192|96:256,3,70
448,128,288236,6,0,B|448:128|224:32|224:64,1,210
128,192,289600,1,0
128,192,289827,1,0
128,192,290054,1,0
128,192,290282,1,0
448,256,291873,6,0,B|448:256|224:352|224:320,1,210
128,192,293236,2,0,B|128:192|352:96|352:128,1,210
416,256,295509,6,0,B|416:256|320:256,3,70
416,160,296873,1,0
416,160,297100,1,0
416,160,297327,1,0
416,160,297554,1,0
416,160,297782,1,0
416,160,298009,1,0
416,160,298236,1,0
416,160,298463,1,0
416,160,298691,1,0
320,160,299145,5,0
320,160,299373,1,0
320,160,299600,1,0
320,160,299827,1,0
256,192,300054,12,0,302100
