osu file format v5

[General]
AudioFilename: OUENDAN 2 Bambina.mp3
AudioLeadIn: 0
PreviewTime: 77834
Countdown: 1
SampleSet: Normal
StackLeniency: 0.7
Mode: 0
LetterboxInBreaks: 1
EditorBookmarks: 14358,34882,49286,63354,77219,79122,91733,113731,119832,128004,153193

[Metadata]
Title:Bambina
Artist:Hotei Tomoyasu
Creator:Kai
Version:Normal
Source:
Tags:

[Difficulty]
HPDrainRate:3
CircleSize:3
OverallDifficulty:5
SliderMultiplier:1.6
SliderTickRate:2

[Events]
//Background and Video events
0,0,"wp32.jpg"
//Break Periods
2,35186,48104
2,63538,75896
2,91971,112389
2,120211,126852
//Storyboard Layer 0 (Background)
//Storyboard Layer 1 (Failing)
//Storyboard Layer 2 (Passing)
//Storyboard Layer 3 (Foreground)
//Storyboard Sound Samples
//Background Colour Transformations
3,100,163,162,255

[TimingPoints]
8936,447.761194029851,4,1,1,100,1

[HitObjects]
336,24,14309,1,0
256,48,14533,1,0
176,24,14756,1,0
256,248,15652,1,0
176,336,16100,5,0
256,360,16324,1,0
336,336,16547,1,0
256,160,17443,1,0
376,112,17891,5,0
376,112,18115,1,0
136,112,18786,1,0
136,112,19010,1,0
256,288,19682,1,0
256,288,19906,1,0
456,240,20465,5,0
336,184,20801,1,0
256,152,21025,1,0
176,112,21249,1,0
176,24,21473,5,0
256,48,21697,1,0
336,24,21921,1,0
256,248,22816,1,0
336,336,23264,5,0
256,360,23488,1,0
176,336,23712,1,0
256,160,24607,1,0
136,112,25055,5,0
136,112,25279,1,0
376,112,25950,1,0
376,112,26174,1,0
256,288,26846,1,0
256,288,27070,1,0
8,80,27630,5,0
104,128,27965,1,0
176,160,28189,1,0
256,192,28413,1,0
336,160,28637,5,0
464,96,28973,1,4
336,296,29533,1,0
464,232,29868,1,4
176,160,30428,5,0
48,96,30764,1,4
176,296,31324,1,0
48,232,31659,1,4
360,184,32219,5,0
360,64,32555,1,4
152,184,33115,1,0
152,64,33450,1,4
192,304,34010,5,0
320,304,34346,1,0
256,192,34682,1,0
256,112,34906,1,6
176,24,49234,5,0
256,48,49458,1,0
336,24,49682,1,0
256,248,50577,1,0
336,336,51025,5,0
256,360,51249,1,0
176,336,51473,1,0
256,160,52368,1,0
136,112,52816,5,0
136,112,53040,1,0
376,112,53712,1,0
376,112,53936,1,0
256,288,54607,1,0
256,288,54831,1,0
56,240,55391,5,0
176,184,55727,1,0
256,152,55950,1,0
336,112,56174,1,0
336,24,56398,5,0
256,48,56622,1,0
176,24,56846,1,0
256,248,57741,1,0
176,336,58189,5,0
256,360,58413,1,0
336,336,58637,1,0
256,160,59533,1,0
376,112,59980,5,0
376,112,60204,1,0
136,112,60876,1,0
136,112,61100,1,0
256,288,61771,1,0
256,288,61995,1,0
504,80,62555,5,0
408,128,62891,1,0
336,160,63115,1,0
256,192,63338,1,0
16,176,77219,5,0
56,256,77443,1,0
120,320,77667,1,0
208,328,77891,2,0,B|352:336|424:216,1,240
320,216,78786,2,0,B|282:243|178:290|80:176,1,240
192,128,79682,1,0
320,128,80018,1,0
376,40,80801,5,0
464,40,81025,1,0
464,128,81249,1,0
376,128,81473,1,0
256,128,81809,1,0
136,40,82144,5,0
48,40,82368,1,0
48,128,82592,1,0
136,128,82816,1,0
176,256,83264,2,0,B|344:256,3,160
408,64,85055,5,0
408,192,85391,1,0
104,64,85950,1,0
104,192,86286,1,0
256,56,86846,5,0
256,192,87182,1,0
368,296,87741,1,0
296,328,87965,1,0
216,328,88189,1,0
144,296,88413,1,0
48,184,88861,5,8
160,48,89309,1,8
352,48,89756,1,8
456,192,90204,1,8
362,193,90428,6,0,B|358:107|255:39|141:112|145:202,1,320
256,208,91547,1,0
256,208,91771,1,0
176,160,113712,5,0
40,96,114047,1,4
176,296,114607,1,0
40,232,114943,1,4
336,160,115503,5,0
472,96,115838,1,4
336,296,116398,1,0
472,232,116734,1,4
152,184,117294,5,0
152,64,117630,1,4
360,184,118189,1,0
360,64,118525,1,4
320,304,119085,5,0
192,304,119421,1,0
256,192,119756,1,0
256,112,119980,1,6
256,344,128040,5,0
360,288,128376,1,0
256,200,128935,1,0
160,168,129271,1,0
256,56,129831,1,0
360,32,130167,1,0
8,48,130950,5,0
32,120,131174,1,0
104,96,131398,1,0
136,168,131622,1,0
256,184,131958,1,0
352,112,132294,5,0
376,184,132518,1,0
448,152,132741,1,0
480,224,132965,1,0
496,336,133413,2,0,B|0:336,1,480
104,64,135204,5,0
104,192,135540,1,0
408,64,136100,1,0
408,192,136435,1,0
256,64,136995,5,0
256,184,137331,1,0
88,240,137667,1,0
144,296,137890,1,0
216,328,138114,1,0
296,328,138338,1,0
368,296,138562,1,0
464,192,139010,5,8
352,40,139458,1,8
160,40,139906,1,8
48,192,140353,1,8
147,190,140577,6,0,B|153:107|256:39|370:112|366:202,1,320
496,176,141697,5,0
456,256,141921,1,0
392,320,142145,1,0
304,328,142369,2,0,B|160:336|88:216,1,240
192,216,143264,2,0,B|230:243|334:290|432:176,1,240
320,128,144160,1,0
192,128,144496,1,0
136,40,145279,5,0
48,40,145503,1,0
48,128,145727,1,0
136,128,145950,1,0
256,128,146286,1,0
376,40,146622,5,0
464,40,146846,1,0
464,128,147070,1,0
376,128,147294,1,0
336,264,147741,2,0,B|168:264,3,160
256,192,149533,12,0,153115
