osu file format v14

[General]
AudioFilename: audio.mp3
AudioLeadIn: 0
PreviewTime: 57193
Countdown: 0
SampleSet: Normal
StackLeniency: 0.7
Mode: 1
LetterboxInBreaks: 0
WidescreenStoryboard: 0

[Editor]
Bookmarks: 12046,22151,32256,42362,47414,52467,57519,67625,72677,77730,87835,95414,97940
DistanceSpacing: 0.5
BeatDivisor: 4
GridSize: 32
TimelineZoom: 1.7

[Metadata]
Title:Re:TrymenT
TitleUnicode:Re:TrymenT
Artist:Hotaru Murasaki
ArtistUnicode:紫咲ほたる
Creator:yuzu__rinrin
Version:Muzukashii
Source:Re:LieF〜親愛なるあなたへ〜
Tags:eroge visual novel relief 甘利紗陽 saya amari Shin'ainaru Anata e レリーフ DeaR YoU retryment miu yuu game op rask opening chaica
BeatmapID:1213401
BeatmapSetID:572690

[Difficulty]
HPDrainRate:6
CircleSize:4
OverallDifficulty:5
ApproachRate:5
SliderMultiplier:1.4
SliderTickRate:1

[Events]
//Background and Video events
0,0,"bg.jpg",0,50
//Break Periods
//Storyboard Layer 0 (Background)
//Storyboard Layer 1 (Fail)
//Storyboard Layer 2 (Pass)
//Storyboard Layer 3 (Foreground)
//Storyboard Sound Samples

[TimingPoints]
1930,315.789473684211,4,1,0,50,1,0
1930,-133.333333333333,4,1,0,50,0,0
11245,-125,4,1,0,50,0,0
11719,-111.111111111111,4,1,0,50,0,0
12035,-100,4,1,0,80,0,0
22140,-133.333333333333,4,1,0,50,0,0
32245,-133.333333333333,4,1,0,60,0,0
41087,-125,4,1,0,70,0,0
42351,-100,4,1,0,80,0,0
52456,-100,4,1,0,85,0,0
56561,-100,4,1,0,90,0,0
56719,-100,4,1,0,95,0,0
56877,-100,4,1,0,100,0,0
57508,-100,4,1,0,100,0,1
77719,-111.111111111111,4,1,0,60,0,0
78035,-111.111111111111,4,1,0,60,0,0
87824,-111.111111111111,4,1,0,50,0,0
89087,-117.647058823529,4,1,0,50,0,0
89719,-133.333333333333,4,1,0,50,0,0
90035,-142.857142857143,4,1,0,50,0,0
90351,-153.846153846154,4,1,0,40,0,0
91614,-181.818181818182,4,1,0,30,0,0
92877,-200,4,1,0,20,0,0

[HitObjects]
256,192,1930,5,8,0:0:0:0:
256,192,2403,1,8,0:0:0:0:
256,192,2877,1,8,0:0:0:0:
256,192,3193,1,0,0:0:0:0:
256,192,3666,1,0,0:0:0:0:
256,192,4140,1,8,0:0:0:0:
256,192,4456,1,8,0:0:0:0:
256,192,4772,1,0,0:0:0:0:
256,192,4930,1,8,0:0:0:0:
256,192,5403,1,8,0:0:0:0:
256,192,5719,1,0,0:0:0:0:
256,192,6193,1,8,0:0:0:0:
256,192,6666,1,8,0:0:0:0:
256,192,6982,1,8,0:0:0:0:
256,192,7456,1,8,0:0:0:0:
256,192,7930,1,8,0:0:0:0:
256,192,8245,1,0,0:0:0:0:
256,192,8877,1,0,0:0:0:0:
256,192,9193,1,8,0:0:0:0:
256,192,9508,1,8,0:0:0:0:
256,192,9982,1,8,0:0:0:0:
256,192,10456,1,0,0:0:0:0:
256,192,10772,1,8,0:0:0:0:
256,192,11245,1,8,0:0:0:0:
256,192,11719,1,8,0:0:0:0:
256,192,12035,1,4,0:0:0:0:
256,192,12351,1,8,0:0:0:0:
256,192,12666,1,0,0:0:0:0:
256,192,12824,1,0,0:0:0:0:
256,192,12982,1,8,0:0:0:0:
256,192,13298,1,0,0:0:0:0:
256,192,13614,1,8,0:0:0:0:
256,192,13772,1,0,0:0:0:0:
256,192,14087,1,0,0:0:0:0:
256,192,14245,1,8,0:0:0:0:
256,192,14561,1,12,0:0:0:0:
256,192,14877,1,8,0:0:0:0:
256,192,15035,1,0,0:0:0:0:
256,192,15351,1,8,0:0:0:0:
256,192,15666,1,0,0:0:0:0:
256,192,15982,1,0,0:0:0:0:
256,192,16140,1,8,0:0:0:0:
256,192,16456,1,0,0:0:0:0:
256,192,16614,1,8,0:0:0:0:
256,192,16693,1,8,0:0:0:0:
256,192,16772,1,8,0:0:0:0:
256,192,16930,1,0,0:0:0:0:
256,192,17087,1,8,0:0:0:0:
256,192,17403,1,0,0:0:0:0:
256,192,17561,1,8,0:0:0:0:
256,192,17877,1,0,0:0:0:0:
256,192,18035,1,8,0:0:0:0:
256,192,18193,1,0,0:0:0:0:
256,192,18351,1,8,0:0:0:0:
256,192,18666,1,0,0:0:0:0:
256,192,18824,1,8,0:0:0:0:
256,192,18982,1,0,0:0:0:0:
256,192,19140,1,0,0:0:0:0:
256,192,19298,1,8,0:0:0:0:
256,192,19456,1,8,0:0:0:0:
256,192,19614,1,0,0:0:0:0:
256,192,19930,1,8,0:0:0:0:
256,192,20087,1,8,0:0:0:0:
256,192,20245,1,0,0:0:0:0:
256,192,20561,1,8,0:0:0:0:
256,192,20719,1,0,0:0:0:0:
256,192,20877,1,0,0:0:0:0:
256,192,22140,1,0,0:0:0:0:
256,192,22456,1,0,0:0:0:0:
256,192,22772,1,8,0:0:0:0:
256,192,23245,1,8,0:0:0:0:
256,192,23403,1,0,0:0:0:0:
256,192,23719,1,8,0:0:0:0:
256,192,24035,1,8,0:0:0:0:
256,192,24351,1,8,0:0:0:0:
256,192,24982,1,0,0:0:0:0:
256,192,25298,1,8,0:0:0:0:
256,192,25772,1,0,0:0:0:0:
256,192,25930,1,8,0:0:0:0:
256,192,26245,1,8,0:0:0:0:
256,192,26561,1,0,0:0:0:0:
256,192,26877,1,8,0:0:0:0:
256,192,27508,1,0,0:0:0:0:
256,192,27824,1,8,0:0:0:0:
256,192,28140,1,8,0:0:0:0:
256,192,28298,1,0,0:0:0:0:
256,192,28772,1,8,0:0:0:0:
256,192,29087,1,0,0:0:0:0:
256,192,29403,1,0,0:0:0:0:
256,192,29719,1,8,0:0:0:0:
256,192,30035,1,8,0:0:0:0:
256,192,30193,1,0,0:0:0:0:
256,192,30666,1,8,0:0:0:0:
256,192,30982,1,0,0:0:0:0:
256,192,31298,1,8,0:0:0:0:
256,192,31614,1,8,0:0:0:0:
256,192,31772,1,8,0:0:0:0:
256,192,31930,1,8,0:0:0:0:
256,192,32245,1,0,0:0:0:0:
256,192,32561,1,8,0:0:0:0:
256,192,32877,1,0,0:0:0:0:
256,192,33035,1,8,0:0:0:0:
256,192,33350,1,8,0:0:0:0:
256,192,33508,1,8,0:0:0:0:
256,192,33824,1,0,0:0:0:0:
256,192,34140,1,8,0:0:0:0:
256,192,34456,1,0,0:0:0:0:
256,192,35087,1,8,0:0:0:0:
256,192,35403,1,8,0:0:0:0:
256,192,35561,1,0,0:0:0:0:
256,192,35877,1,0,0:0:0:0:
256,192,36035,1,8,0:0:0:0:
256,192,36350,1,8,0:0:0:0:
256,192,36666,1,0,0:0:0:0:
256,192,36982,1,8,0:0:0:0:
256,192,37613,1,0,0:0:0:0:
256,192,37929,1,8,0:0:0:0:
256,192,38245,1,8,0:0:0:0:
256,192,38403,1,0,0:0:0:0:
256,192,38877,1,0,0:0:0:0:
256,192,39192,1,8,0:0:0:0:
256,192,39508,1,8,0:0:0:0:
256,192,39824,1,0,0:0:0:0:
256,192,40456,1,8,0:0:0:0:
256,192,40772,1,0,0:0:0:0:
256,192,40930,1,8,0:0:0:0:
256,192,41245,1,0,0:0:0:0:
256,192,41403,1,8,0:0:0:0:
256,192,41561,1,0,0:0:0:0:
256,192,41719,1,8,0:0:0:0:
256,192,41877,1,8,0:0:0:0:
256,192,42035,1,0,0:0:0:0:
256,192,42351,1,12,0:0:0:0:
256,192,42824,1,0,0:0:0:0:
256,192,42982,1,8,0:0:0:0:
256,192,43298,1,8,0:0:0:0:
256,192,43456,1,0,0:0:0:0:
256,192,43772,1,0,0:0:0:0:
256,192,43930,1,0,0:0:0:0:
256,192,44245,1,0,0:0:0:0:
256,192,44561,1,8,0:0:0:0:
256,192,44877,1,12,0:0:0:0:
256,192,45351,1,8,0:0:0:0:
256,192,45508,1,0,0:0:0:0:
256,192,45824,1,0,0:0:0:0:
256,192,45982,1,8,0:0:0:0:
256,192,46298,1,8,0:0:0:0:
256,192,46456,1,0,0:0:0:0:
256,192,46614,1,8,0:0:0:0:
256,192,46693,1,8,0:0:0:0:
256,192,46772,1,8,0:0:0:0:
256,192,46930,1,8,0:0:0:0:
256,192,47087,1,0,0:0:0:0:
256,192,47245,1,0,0:0:0:0:
256,192,47403,1,12,0:0:0:0:
256,192,47719,1,8,0:0:0:0:
256,192,47877,1,0,0:0:0:0:
256,192,48035,1,8,0:0:0:0:
256,192,48351,1,0,0:0:0:0:
256,192,48508,1,8,0:0:0:0:
256,192,48824,1,8,0:0:0:0:
256,192,48982,1,0,0:0:0:0:
256,192,49298,1,8,0:0:0:0:
256,192,49456,1,8,0:0:0:0:
256,192,49614,1,0,0:0:0:0:
256,192,49772,1,0,0:0:0:0:
256,192,49930,1,8,0:0:0:0:
256,192,50245,1,0,0:0:0:0:
256,192,50561,1,8,0:0:0:0:
256,192,50877,1,8,0:0:0:0:
256,192,51035,1,0,0:0:0:0:
256,192,51351,1,0,0:0:0:0:
256,192,51508,1,8,0:0:0:0:
256,192,51824,1,8,0:0:0:0:
256,192,51982,1,0,0:0:0:0:
256,192,52140,1,8,0:0:0:0:
256,192,52456,1,4,0:0:0:0:
256,192,52772,1,8,0:0:0:0:
256,192,52930,1,0,0:0:0:0:
256,192,53008,1,0,0:0:0:0:
256,192,53087,1,0,0:0:0:0:
256,192,53245,1,0,0:0:0:0:
256,192,53403,1,8,0:0:0:0:
256,192,53719,1,8,0:0:0:0:
256,192,53877,1,0,0:0:0:0:
256,192,54035,1,8,0:0:0:0:
256,192,54351,1,8,0:0:0:0:
256,192,54666,1,0,0:0:0:0:
256,192,54824,1,8,0:0:0:0:
256,192,54903,1,8,0:0:0:0:
256,192,54982,1,8,0:0:0:0:
256,192,55298,1,8,0:0:0:0:
256,192,55456,1,0,0:0:0:0:
256,192,55614,1,8,0:0:0:0:
256,192,55772,1,0,0:0:0:0:
256,192,55930,1,8,0:0:0:0:
256,192,56087,12,8,56877,0:0:0:0:
256,192,57193,5,8,0:0:0:0:
256,192,57351,1,0,0:0:0:0:
256,192,57508,1,12,0:0:0:0:
256,192,57824,1,8,0:0:0:0:
256,192,57982,1,0,0:0:0:0:
256,192,58061,1,0,0:0:0:0:
256,192,58140,1,0,0:0:0:0:
256,192,58298,1,0,0:0:0:0:
256,192,58456,1,8,0:0:0:0:
256,192,58772,1,0,0:0:0:0:
256,192,58930,1,0,0:0:0:0:
256,192,59087,1,8,0:0:0:0:
256,192,59403,1,8,0:0:0:0:
256,192,59719,1,0,0:0:0:0:
256,192,59877,1,0,0:0:0:0:
256,192,60035,1,8,0:0:0:0:
256,192,60351,1,8,0:0:0:0:
256,192,60508,1,0,0:0:0:0:
256,192,60666,1,8,0:0:0:0:
256,192,60982,1,0,0:0:0:0:
256,192,61140,1,8,0:0:0:0:
256,192,61219,1,8,0:0:0:0:
256,192,61298,1,8,0:0:0:0:
256,192,61456,1,0,0:0:0:0:
256,192,61614,1,8,0:0:0:0:
256,192,61930,1,8,0:0:0:0:
256,192,62087,1,0,0:0:0:0:
256,192,62245,1,8,0:0:0:0:
256,192,62561,1,4,0:0:0:0:
256,192,63508,1,8,0:0:0:0:
256,192,63666,1,8,0:0:0:0:
256,192,63824,1,0,0:0:0:0:
256,192,64140,1,8,0:0:0:0:
256,192,64456,1,0,0:0:0:0:
256,192,64614,1,0,0:0:0:0:
256,192,64772,1,8,0:0:0:0:
256,192,65087,1,4,0:0:0:0:
256,192,65403,1,8,0:0:0:0:
256,192,65719,1,4,0:0:0:0:
256,192,66035,1,0,0:0:0:0:
256,192,66351,1,4,0:0:0:0:
256,192,66666,1,8,0:0:0:0:
256,192,66982,1,12,0:0:0:0:
256,192,67614,1,4,0:0:0:0:
256,192,67930,1,0,0:0:0:0:
256,192,68088,1,8,0:0:0:0:
256,192,68245,1,8,0:0:0:0:
256,192,68561,1,0,0:0:0:0:
256,192,68719,1,0,0:0:0:0:
256,192,68877,1,8,0:0:0:0:
256,192,69193,1,8,0:0:0:0:
256,192,69351,1,8,0:0:0:0:
256,192,69430,1,8,0:0:0:0:
256,192,69508,1,8,0:0:0:0:
256,192,69666,1,0,0:0:0:0:
256,192,69824,1,8,0:0:0:0:
256,192,69982,1,8,0:0:0:0:
256,192,70140,1,0,0:0:0:0:
256,192,70456,1,8,0:0:0:0:
256,192,70772,1,0,0:0:0:0:
256,192,71087,1,0,0:0:0:0:
256,192,71403,1,8,0:0:0:0:
256,192,71719,1,8,0:0:0:0:
256,192,72035,1,0,0:0:0:0:
256,192,72193,1,0,0:0:0:0:
256,192,72351,1,8,0:0:0:0:
256,192,72666,1,8,0:0:0:0:
256,192,72824,1,0,0:0:0:0:
256,192,72982,1,8,0:0:0:0:
256,192,73140,1,0,0:0:0:0:
256,192,73298,1,8,0:0:0:0:
256,192,73456,1,0,0:0:0:0:
256,192,73614,1,8,0:0:0:0:
256,192,73930,1,8,0:0:0:0:
256,192,74087,1,0,0:0:0:0:
256,192,74245,1,8,0:0:0:0:
256,192,74403,1,0,0:0:0:0:
256,192,74561,1,8,0:0:0:0:
256,192,74719,1,0,0:0:0:0:
256,192,74877,1,8,0:0:0:0:
256,192,75193,1,8,0:0:0:0:
256,192,75351,1,8,0:0:0:0:
256,192,75508,1,0,0:0:0:0:
256,192,75666,1,8,0:0:0:0:
256,192,75982,1,8,0:0:0:0:
256,192,76140,1,0,0:0:0:0:
256,192,76298,12,0,77403,0:0:0:0:
256,192,77719,5,4,0:0:0:0:
256,192,78035,1,8,0:0:0:0:
256,192,78193,1,0,0:0:0:0:
256,192,78508,1,0,0:0:0:0:
256,192,78666,1,8,0:0:0:0:
256,192,78824,1,0,0:0:0:0:
288,192,78982,1,0,0:0:0:0:
256,192,79614,1,8,0:0:0:0:
256,192,79930,1,0,0:0:0:0:
256,192,80087,1,0,0:0:0:0:
256,192,80245,1,8,0:0:0:0:
256,192,80561,1,8,0:0:0:0:
256,192,80719,1,0,0:0:0:0:
256,192,81035,1,0,0:0:0:0:
256,192,81193,1,8,0:0:0:0:
256,192,81351,1,8,0:0:0:0:
256,192,81508,1,0,0:0:0:0:
256,192,82140,1,8,0:0:0:0:
256,192,82456,1,8,0:0:0:0:
256,192,82772,1,0,0:0:0:0:
256,192,83719,1,8,0:0:0:0:
256,192,83877,1,8,0:0:0:0:
256,192,84035,1,8,0:0:0:0:
256,192,84351,1,0,0:0:0:0:
256,192,84666,1,8,0:0:0:0:
256,192,84982,1,0,0:0:0:0:
256,192,85298,1,8,0:0:0:0:
256,192,85930,1,0,0:0:0:0:
256,192,86245,1,0,0:0:0:0:
256,192,86561,1,8,0:0:0:0:
256,192,87193,1,8,0:0:0:0:
256,192,87824,1,0,0:0:0:0:
256,192,89087,1,8,0:0:0:0:
256,192,89719,1,8,0:0:0:0:
256,192,90035,1,8,0:0:0:0:
256,192,90351,1,0,0:0:0:0:
256,192,91614,1,8,0:0:0:0:
256,192,92877,12,8,95403,0:0:0:0:
