osu file format v14

[General]
AudioFilename: audio.mp3
AudioLeadIn: 0
PreviewTime: 57193
Countdown: 0
SampleSet: Normal
StackLeniency: 0.7
Mode: 1
LetterboxInBreaks: 0
WidescreenStoryboard: 0

[Editor]
Bookmarks: 12046,22151,32256,42362,47414,52467,57519,67625,72677,77730,87835,95414,97940
DistanceSpacing: 0.5
BeatDivisor: 4
GridSize: 32
TimelineZoom: 1.7

[Metadata]
Title:Re:TrymenT
TitleUnicode:Re:TrymenT
Artist:Hotaru Murasaki
ArtistUnicode:紫咲ほたる
Creator:yuzu__rinrin
Version:Futsuu
Source:Re:LieF〜親愛なるあなたへ〜
Tags:eroge visual novel relief 甘利紗陽 saya amari Shin'ainaru Anata e レリーフ DeaR YoU retryment miu yuu game op rask opening chaica
BeatmapID:1213806
BeatmapSetID:572690

[Difficulty]
HPDrainRate:7
CircleSize:4
OverallDifficulty:4
ApproachRate:5
SliderMultiplier:1.2
SliderTickRate:1

[Events]
//Background and Video events
0,0,"bg.jpg",0,50
//Break Periods
//Storyboard Layer 0 (Background)
//Storyboard Layer 1 (Fail)
//Storyboard Layer 2 (Pass)
//Storyboard Layer 3 (Foreground)
//Storyboard Sound Samples

[TimingPoints]
1930,315.789473684211,4,1,0,50,1,0
1930,-100,4,1,0,50,0,0
12035,-100,4,1,0,80,0,0
22140,-100,4,1,0,50,0,0
32245,-100,4,1,0,60,0,0
42351,-100,4,1,0,80,0,0
52456,-100,4,1,0,85,0,0
56561,-100,4,1,0,90,0,0
56719,-100,4,1,0,95,0,0
56877,-100,4,1,0,100,0,0
57508,-100,4,1,0,100,0,1
77719,-100,4,1,0,60,0,0
87824,-100,4,1,0,50,0,0
90351,-100,4,1,0,40,0,0
91614,-100,4,1,0,30,0,0
92877,-100,4,1,0,20,0,0

[HitObjects]
256,192,1930,5,8,0:0:0:0:
256,192,3193,1,0,0:0:0:0:
256,192,3666,1,8,0:0:0:0:
256,192,4456,1,0,0:0:0:0:
256,192,5719,1,0,0:0:0:0:
256,192,6193,1,8,0:0:0:0:
256,192,6982,1,8,0:0:0:0:
256,192,8245,1,0,0:0:0:0:
256,192,8877,1,0,0:0:0:0:
256,192,9508,1,8,0:0:0:0:
256,192,10772,1,0,0:0:0:0:
256,192,11245,1,8,0:0:0:0:
256,192,11719,1,8,0:0:0:0:
256,192,12035,1,4,0:0:0:0:
256,192,12666,1,0,0:0:0:0:
256,192,13298,1,8,0:0:0:0:
256,192,13772,1,0,0:0:0:0:
256,192,14245,1,0,0:0:0:0:
256,192,14561,1,12,0:0:0:0:
256,192,14877,1,8,0:0:0:0:
256,192,15035,1,8,0:0:0:0:
256,192,15351,1,8,0:0:0:0:
256,192,15666,1,0,0:0:0:0:
256,192,16456,1,8,0:0:0:0:
256,192,16772,1,0,0:0:0:0:
256,192,17087,1,8,0:0:0:0:
256,192,17403,1,0,0:0:0:0:
256,192,17561,1,8,0:0:0:0:
256,192,18035,1,8,0:0:0:0:
256,192,18193,1,8,0:0:0:0:
256,192,18351,1,8,0:0:0:0:
256,192,18666,1,0,0:0:0:0:
256,192,18824,1,8,0:0:0:0:
256,192,19298,1,8,0:0:0:0:
256,192,19614,12,0,20877,0:0:0:0:
256,192,22140,5,0,0:0:0:0:
256,192,22772,1,8,0:0:0:0:
256,192,23403,1,0,0:0:0:0:
256,192,24035,1,8,0:0:0:0:
256,192,24351,1,8,0:0:0:0:
256,192,24666,1,0,0:0:0:0:
256,192,25298,1,8,0:0:0:0:
256,192,25930,1,0,0:0:0:0:
256,192,26245,1,0,0:0:0:0:
256,192,26561,1,8,0:0:0:0:
256,192,26877,1,8,0:0:0:0:
256,192,27193,1,0,0:0:0:0:
256,192,27824,1,8,0:0:0:0:
256,192,28456,1,0,0:0:0:0:
256,192,29087,1,8,0:0:0:0:
256,192,29403,1,8,0:0:0:0:
256,192,29719,1,0,0:0:0:0:
256,192,30035,1,0,0:0:0:0:
256,192,30193,1,0,0:0:0:0:
256,192,30666,1,8,0:0:0:0:
256,192,30982,1,0,0:0:0:0:
256,192,31298,1,8,0:0:0:0:
256,192,31456,1,8,0:0:0:0:
256,192,32245,5,0,0:0:0:0:
256,192,32877,1,8,0:0:0:0:
256,192,33508,1,8,0:0:0:0:
256,192,33824,1,8,0:0:0:0:
256,192,34140,1,0,0:0:0:0:
256,192,34456,1,0,0:0:0:0:
256,192,34771,1,8,0:0:0:0:
256,192,35403,1,0,0:0:0:0:
256,192,36035,1,8,0:0:0:0:
256,192,36351,1,8,0:0:0:0:
256,192,36666,1,0,0:0:0:0:
256,192,36982,1,0,0:0:0:0:
256,192,37298,1,0,0:0:0:0:
256,192,37930,1,0,0:0:0:0:
256,192,38561,1,8,0:0:0:0:
256,192,39193,1,8,0:0:0:0:
256,192,39508,1,8,0:0:0:0:
256,192,39824,1,0,0:0:0:0:
256,192,40456,1,0,0:0:0:0:
256,192,40772,1,8,0:0:0:0:
256,192,40930,1,8,0:0:0:0:
256,192,41719,1,8,0:0:0:0:
256,192,42035,1,8,0:0:0:0:
256,192,42351,1,4,0:0:0:0:
256,192,42824,1,0,0:0:0:0:
256,192,43298,1,8,0:0:0:0:
256,192,43456,1,8,0:0:0:0:
256,192,43772,1,8,0:0:0:0:
256,192,43930,1,0,0:0:0:0:
256,192,44245,1,0,0:0:0:0:
256,192,44561,1,8,0:0:0:0:
256,192,44877,1,4,0:0:0:0:
256,192,45351,1,8,0:0:0:0:
256,192,45824,1,0,0:0:0:0:
256,192,45982,1,0,0:0:0:0:
256,192,46298,1,8,0:0:0:0:
256,192,46456,1,0,0:0:0:0:
256,192,46772,1,0,0:0:0:0:
256,192,47087,1,8,0:0:0:0:
256,192,47403,1,12,0:0:0:0:
256,192,48035,1,0,0:0:0:0:
256,192,48351,1,0,0:0:0:0:
256,192,48982,1,0,0:0:0:0:
256,192,49298,1,8,0:0:0:0:
256,192,49614,1,8,0:0:0:0:
256,192,49930,1,0,0:0:0:0:
256,192,50561,1,8,0:0:0:0:
256,192,50877,1,0,0:0:0:0:
256,192,51508,1,8,0:0:0:0:
256,192,51824,1,8,0:0:0:0:
256,192,51982,1,8,0:0:0:0:
256,192,52140,1,8,0:0:0:0:
256,192,52456,1,4,0:0:0:0:
256,192,53087,1,8,0:0:0:0:
256,192,53403,1,8,0:0:0:0:
256,192,53719,1,0,0:0:0:0:
256,192,54035,1,0,0:0:0:0:
256,192,54351,1,8,0:0:0:0:
256,192,54666,1,8,0:0:0:0:
256,192,54982,12,8,56877,0:0:0:0:
256,192,57508,5,4,0:0:0:0:
256,192,57824,1,8,0:0:0:0:
256,192,57982,1,0,0:0:0:0:
256,192,58140,1,0,0:0:0:0:
256,192,58456,1,8,0:0:0:0:
256,192,58772,1,0,0:0:0:0:
256,192,59087,1,0,0:0:0:0:
256,192,59403,1,8,0:0:0:0:
256,192,60035,1,0,0:0:0:0:
256,192,60351,1,0,0:0:0:0:
256,192,60508,1,0,0:0:0:0:
256,192,60666,1,8,0:0:0:0:
256,192,60982,1,8,0:0:0:0:
256,192,61298,1,8,0:0:0:0:
256,192,61614,1,0,0:0:0:0:
256,192,62245,1,8,0:0:0:0:
256,192,62561,1,4,0:0:0:0:
256,192,63824,1,0,0:0:0:0:
256,192,64140,1,0,0:0:0:0:
256,192,64456,1,8,0:0:0:0:
256,192,64772,1,8,0:0:0:0:
256,192,65087,1,4,0:0:0:0:
256,192,65719,1,4,0:0:0:0:
256,192,66351,1,4,0:0:0:0:
256,192,66982,1,12,0:0:0:0:
256,192,67614,1,4,0:0:0:0:
256,192,67930,1,0,0:0:0:0:
256,192,68087,1,0,0:0:0:0:
256,192,68245,1,8,0:0:0:0:
256,192,68561,1,0,0:0:0:0:
256,192,68877,1,12,0:0:0:0:
256,192,69193,1,8,0:0:0:0:
256,192,69351,1,0,0:0:0:0:
256,192,69508,1,8,0:0:0:0:
256,192,69824,1,8,0:0:0:0:
256,192,70140,1,0,0:0:0:0:
256,192,70772,1,8,0:0:0:0:
256,192,71087,1,0,0:0:0:0:
256,192,71403,1,8,0:0:0:0:
256,192,71719,1,0,0:0:0:0:
256,192,71877,1,0,0:0:0:0:
256,192,72035,1,0,0:0:0:0:
256,192,72351,1,0,0:0:0:0:
256,192,72666,1,12,0:0:0:0:
256,192,73298,1,0,0:0:0:0:
256,192,73930,1,8,0:0:0:0:
256,192,74245,1,8,0:0:0:0:
256,192,74561,1,0,0:0:0:0:
256,192,74877,1,0,0:0:0:0:
256,192,75193,12,0,77087,0:0:0:0:
256,192,77719,5,4,0:0:0:0:
256,192,78982,1,8,0:0:0:0:
256,192,79298,1,8,0:0:0:0:
256,192,79614,1,0,0:0:0:0:
256,192,80245,1,8,0:0:0:0:
256,192,81508,1,0,0:0:0:0:
256,192,81824,1,0,0:0:0:0:
256,192,82140,1,0,0:0:0:0:
256,192,82772,1,8,0:0:0:0:
256,192,84035,1,8,0:0:0:0:
256,192,85298,1,8,0:0:0:0:
256,192,85930,1,0,0:0:0:0:
256,192,86561,1,8,0:0:0:0:
256,192,87193,1,8,0:0:0:0:
256,192,87824,1,0,0:0:0:0:
256,192,89087,1,8,0:0:0:0:
256,192,89719,1,8,0:0:0:0:
256,192,90035,1,8,0:0:0:0:
256,192,90351,1,8,0:0:0:0:
256,192,91614,1,8,0:0:0:0:
256,192,92877,12,0,95403,0:0:0:0:
