osu file format v14

[General]
AudioFilename: re tryment.mp3
AudioLeadIn: 0
PreviewTime: 56888
Countdown: 0
SampleSet: Soft
StackLeniency: 0.3
Mode: 0
LetterboxInBreaks: 1
WidescreenStoryboard: 1

[Editor]
Bookmarks: 12046,22151,42362
DistanceSpacing: 1
BeatDivisor: 4
GridSize: 4
TimelineZoom: 1.5

[Metadata]
Title:Re:TrymenT
TitleUnicode:Re:TrymenT
Artist:Hotaru Murasaki
ArtistUnicode:紫咲ほたる
Creator:toybot
Version:Normal
Source:Re:LieF〜親愛なるあなたへ〜
Tags:eroge visual novel relief 甘利紗陽 saya amari Shin'ainaru Anata e レリーフ DeaR YoU retryment miu yuu game op rask opening Anxient Kanau Mamayu fuyuyu- Lasse Xexxar Left
BeatmapID:1100228
BeatmapSetID:517706

[Difficulty]
HPDrainRate:4
CircleSize:3.5
OverallDifficulty:4.5
ApproachRate:5.5
SliderMultiplier:1.2
SliderTickRate:1

[Events]
//Background and Video events
0,0,"bg.jpg",0,0
Video,-1369,"ReTrymenT.avi"
//Break Periods
//Storyboard Layer 0 (Background)
//Storyboard Layer 1 (Fail)
//Storyboard Layer 2 (Pass)
//Storyboard Layer 3 (Foreground)
//Storyboard Sound Samples

[TimingPoints]
1941,315.789473684211,4,2,3,40,1,0
1941,-111.111111111111,4,2,3,40,0,0
2888,-100,4,2,4,40,0,0
3204,-111.111111111111,4,2,5,30,0,0
4151,-111.111111111111,4,2,4,40,0,0
4467,-111.111111111111,4,2,5,40,0,0
4783,-111.111111111111,4,2,5,30,0,0
4941,-111.111111111111,4,2,4,30,0,0
5414,-111.111111111111,4,2,5,40,0,0
6204,-111.111111111111,4,2,4,40,0,0
6362,-111.111111111111,4,2,6,40,0,0
6677,-111.111111111111,4,2,3,40,0,0
7941,-111.111111111111,4,2,4,40,0,0
8256,-111.111111111111,4,2,4,30,0,0
8572,-111.111111111111,4,2,5,30,0,0
9519,-111.111111111111,4,2,4,40,0,0
9993,-111.111111111111,4,2,5,40,0,0
10467,-111.111111111111,4,2,4,40,0,0
10783,-111.111111111111,4,2,3,50,0,0
11256,-111.111111111111,4,2,3,60,0,0
11730,-111.111111111111,4,2,6,70,0,0
11809,-111.111111111111,4,2,3,50,0,0
12046,-100,4,2,1,70,0,0
20256,-100,4,2,1,70,0,0
20888,-100,4,2,1,40,0,0
22151,-111.111111111111,4,2,1,40,0,0
42362,-100,4,2,1,50,0,0
46783,-100,4,2,1,30,0,0
47098,-100,4,2,1,40,0,0
47414,-100,4,2,1,50,0,0
52467,-100,4,2,1,60,0,0
54993,-100,4,2,1,70,0,0
55309,-100,4,2,1,40,0,0
55467,-100,4,2,1,45,0,0
55625,-100,4,2,1,50,0,0
55783,-100,4,2,1,55,0,0
55941,-100,4,2,1,60,0,0
56098,-100,4,2,1,60,0,0
56888,-100,4,2,2,50,0,0
57204,-100,4,2,1,50,0,0
57362,-100,4,2,1,60,0,0
57519,-100,4,2,1,70,0,1
72677,-100,4,2,1,80,0,1
77177,-100,4,2,1,75,0,1
77256,-100,4,2,1,70,0,1
77335,-100,4,2,1,65,0,1
77414,-100,4,2,1,60,0,1
77493,-100,4,2,1,55,0,1
77572,-100,4,2,1,50,0,1
77651,-100,4,2,1,45,0,1
77730,-111.111111111111,4,2,5,40,0,0
78046,-111.111111111111,4,2,4,40,0,0
78677,-111.111111111111,4,2,3,40,0,0
78835,-111.111111111111,4,2,4,40,0,0
79941,-111.111111111111,4,2,5,40,0,0
80256,-111.111111111111,4,2,4,40,0,0
81204,-111.111111111111,4,2,3,40,0,0
81519,-111.111111111111,4,2,5,40,0,0
82151,-111.111111111111,4,2,4,40,0,0
84993,-111.111111111111,4,2,5,40,0,0
86414,-111.111111111111,4,2,4,40,0,0
86572,-111.111111111111,4,2,5,40,0,0
87204,-111.111111111111,4,2,6,40,0,0
87835,-111.111111111111,4,2,6,40,0,0
89730,-111.111111111111,4,2,4,40,0,0
91625,-100,4,2,5,35,0,0
92572,-100,4,2,3,35,0,0
92888,-100,4,2,3,35,0,0
93204,-100,4,2,3,30,0,0
93835,-100,4,2,4,30,0,0
94625,-100,4,2,5,25,0,0
95098,-100,4,2,4,30,0,0
95256,-100,4,2,4,25,0,0
95414,-100,4,2,3,30,0,0
95730,-100,4,2,3,25,0,0
96046,-100,4,2,3,25,0,0
96362,-100,4,2,3,25,0,0
96677,-100,4,2,3,25,0,0
96993,-100,4,2,3,20,0,0
97309,-100,4,2,3,15,0,0
97625,-100,4,2,3,10,0,0
97783,-100,4,2,3,5,0,0

[Colours]
Combo1 : 147,240,156
Combo2 : 208,208,208
Combo3 : 158,141,241
Combo4 : 225,142,208

[HitObjects]
128,135,1941,6,0,P|108:185|124:235,1,107.999996704102,2|0,0:0|0:0,0:0:0:0:
172,264,2414,2,0,L|292:244,1,107.999996704102,2|0,0:1|0:0,0:0:0:0:
328,272,2888,1,2,0:0:0:0:
428,232,3204,2,0,B|472:208|472:208|488:148|440:88,2,161.999995056153,0|0|2,0:1|0:0|0:3,0:0:0:0:
344,164,4467,6,0,P|292:140|236:156,1,107.999996704102,2|0,0:0|0:0,0:0:0:0:
204,184,4941,2,0,P|151:194|104:170,1,107.999996704102,0|0,0:3|0:0,0:0:0:0:
80,124,5414,1,2,0:1:0:0:
176,72,5730,2,0,B|208:56|224:24|224:24|252:80|316:88,1,161.999995056153,2|2,0:3|0:0,0:0:0:0:
348,88,6362,2,0,L|452:52,1,107.999996704102,2|2,0:1|0:1,0:0:0:0:
500,148,6993,6,0,P|516:204|498:254,1,107.999996704102,2|0,0:0|0:0,0:0:0:0:
456,280,7467,2,0,L|336:256,1,107.999996704102,2|0,0:1|0:0,0:0:0:0:
296,272,7941,1,2,0:0:0:0:
196,316,8256,2,0,P|156:324|88:280,1,107.999996704102,0|0,0:3|0:3,0:0:0:0:
72,188,8888,2,0,P|85:149|157:112,1,107.999996704102,0|2,0:1|0:0,0:0:0:0:
244,144,9519,6,0,B|339:158|304:100|404:112,2,161.999995056153,2|2|2,0:3|0:0|0:0,0:0:0:0:
156,208,10783,2,0,P|132:260|148:316,1,107.999996704102,2|0,0:1|0:0,0:0:0:0:
184,340,11256,2,0,P|241:334|281:292,1,107.999996704102,2|0,0:0|0:0,0:0:0:0:
284,249,11730,2,0,L|272:180,1,53.9999983520508,2|0,0:0|0:0,0:0:0:0:
264,136,12046,5,6,3:2:0:0:
364,72,12362,1,0,3:0:0:0:
456,148,12677,2,0,P|480:196|456:260,1,120,0|0,3:0|3:0,0:0:0:0:
404,272,13151,1,0,0:0:0:0:
404,272,13309,2,0,B|352:264|352:264|336:248|336:248|280:240,1,120,2|0,3:2|3:0,0:0:0:0:
260,292,13783,2,0,B|208:300|208:300|192:316|192:316|136:324,1,120,4|0,2:3|0:0,0:0:0:0:
92,296,14256,1,2,3:0:0:0:
31,191,14572,6,0,P|21:134|54:86,1,120,6|0,3:2|3:0,0:0:0:0:
112,68,15046,2,0,L|244:80,1,120,2|0,0:0|0:0,0:0:0:0:
280,116,15519,1,0,3:0:0:0:
280,116,15677,2,0,P|320:127|380:59,1,120,2|8,0:0|0:0,0:0:0:0:
432,60,16151,2,0,L|424:-4,2,60,2|8|2,3:2|0:0|3:2,0:0:0:0:
496,160,16783,1,2,3:2:0:0:
424,256,17098,6,0,B|388:260|364:248|364:248|336:272|304:268,1,120,2|0,3:2|3:0,0:0:0:0:
252,260,17572,2,0,B|216:248|200:204|200:204|208:268|168:316,1,180,2|2,0:0|3:2,0:0:0:0:
60,304,18362,2,0,P|8:264|24:192,1,120,2|0,3:2|3:0,0:0:0:0:
60,184,18835,2,0,P|108:151|111:94,1,120,2|0,0:0|0:0,0:0:0:0:
72,48,19309,1,2,3:2:0:0:
192,32,19625,5,4,3:2:0:0:
256,192,20256,1,4,3:2:0:0:
320,352,20888,1,4,3:2:0:0:
320,352,22151,5,4,1:2:0:0:
396,276,22467,1,0,0:0:0:0:
312,208,22783,2,0,P|288:168|352:76,1,161.999995056153,2|0,0:0|0:0,0:0:0:0:
396,84,23414,2,0,P|428:140|416:184,1,107.999996704102,2|0,0:0|0:0,0:0:0:0:
312,208,24046,2,0,L|204:192,1,107.999996704102,2|2,0:0|0:0,0:0:0:0:
100,176,24677,5,2,0:0:0:0:
20,248,24993,1,0,0:0:0:0:
84,336,25309,2,0,B|172:348|140:284|236:296,1,161.999995056153,2|0,0:0|0:0,0:0:0:0:
284,316,25941,2,0,P|296:268|268:200,1,107.999996704102,2|0,0:0|0:0,0:0:0:0:
184,160,26572,2,0,P|167:109|178:57,1,107.999996704102,2|2,0:0|0:0,0:0:0:0:
280,16,27204,6,0,L|408:24,1,107.999996704102,2|0,3:2|0:0,0:0:0:0:
440,116,27835,2,0,P|408:148|336:148,1,107.999996704102,2|0,0:0|0:0,0:0:0:0:
296,136,28309,2,0,B|264:124|252:100|252:100|252:160|204:192,1,161.999995056153,2|0,0:0|0:0,0:0:0:0:
100,200,29098,1,2,0:0:0:0:
144,100,29414,1,2,0:0:0:0:
56,36,29730,6,0,P|36:72|44:144,1,107.999996704102,2|0,0:0|0:0,0:0:0:0:
71,181,30204,2,0,P|105:204|177:202,1,107.999996704102,2|0,0:0|0:0,0:0:0:0:
216,178,30677,1,2,0:0:0:0:
260,80,30993,2,0,L|248:20,2,53.9999983520508,0|0|2,0:0|0:0|0:0,0:0:0:0:
352,136,31625,2,0,L|340:200,1,53.9999983520508,2|2,0:0|0:0,0:0:0:0:
296,220,31941,2,0,L|308:284,1,53.9999983520508,0|0,0:0|0:0,0:0:0:0:
340,312,32256,6,0,P|396:328|444:300,1,107.999996704102,0|2,1:2|0:0,0:0:0:0:
488,212,32888,1,0,0:0:0:0:
488,212,33046,2,0,L|472:100,1,107.999996704102,2|0,0:0|0:0,0:0:0:0:
428,76,33519,2,0,P|372:60|324:88,1,107.999996704102,2|0,0:0|0:0,0:0:0:0:
264,168,34151,2,0,P|208:184|160:156,1,107.999996704102,2|2,0:0|0:0,0:0:0:0:
112,68,34783,6,0,L|232:56,1,107.999996704102,0|2,0:0|0:0,0:0:0:0:
316,100,35414,1,0,0:0:0:0:
316,100,35572,2,0,L|436:88,1,107.999996704102,2|0,0:0|0:0,0:0:0:0:
472,60,36046,1,2,0:0:0:0:
508,160,36362,1,0,0:0:0:0:
471,259,36677,1,2,0:0:0:0:
378,311,36994,1,2,0:0:0:0:
274,292,37309,6,0,P|248:244|272:184,1,107.999996704102,2|0,3:2|0:0,0:0:0:0:
348,132,37941,2,0,P|292:156|208:96,2,161.999995056153,2|2|0,0:0|0:0|0:0,0:0:0:0:
444,180,39204,2,0,P|470:228|446:288,1,107.999996704102,2|2,0:0|0:0,0:0:0:0:
360,328,39835,6,0,B|304:340|264:292|264:292|208:284|156:340,1,215.999993408203,2|0,0:0|0:0,0:0:0:0:
60,356,40783,1,0,0:0:0:0:
60,356,40941,2,0,P|44:312|80:248,1,107.999996704102,2|0,0:0|0:0,0:0:0:0:
112,228,41414,2,0,L|88:112,2,107.999996704102,2|2|2,0:0|0:0|0:0,0:0:0:0:
232,208,42362,6,0,P|264:216|328:156,1,120,4|0,0:0|3:0,0:0:0:0:
328,104,42835,2,0,P|318:72|234:46,1,120,2|0,0:0|0:0,0:0:0:0:
192,76,43309,1,2,3:2:0:0:
192,76,43467,2,0,P|169:99|189:185,1,120,6|4,3:0|3:0,0:0:0:0:
232,208,43941,2,0,L|356:192,1,120,0|0,3:0|3:0,0:0:0:0:
420,292,44572,1,0,3:0:0:0:
304,320,44888,6,0,P|256:324|208:268,1,120,6|0,0:0|3:0,0:0:0:0:
204,216,45362,2,0,P|224:172|297:158,1,120,0|0,0:0|0:0,0:0:0:0:
344,181,45835,1,0,3:0:0:0:
344,181,45993,2,0,P|371:220|346:290,1,120,12|4,3:0|3:0,0:0:0:0:
304,320,46467,1,0,0:0:0:0:
192,280,46783,2,0,L|176:216,1,60,8|10,0:0|0:0,0:0:0:0:
120,208,47098,2,0,L|136:144,1,60,8|10,0:0|0:0,0:0:0:0:
120,92,47414,6,0,B|148:88|168:68|168:68|192:112|240:120,1,120,4|0,0:0|3:0,0:0:0:0:
336,120,48046,2,0,P|360:84|340:8,2,120,8|0|0,0:0|3:0|0:0,0:0:0:0:
256,208,48993,1,0,3:0:0:0:
344,292,49309,2,0,P|392:300|424:292,1,60,8|8,0:0|0:0,0:0:0:0:
456,272,49625,2,0,P|486:234|496:202,1,60,4|4,3:0|0:3,0:0:0:0:
494,165,49941,5,4,0:0:0:0:
388,108,50256,1,0,0:0:0:0:
288,176,50572,2,0,P|232:180|176:128,1,120,8|0,0:0|3:0,0:0:0:0:
160,88,51046,2,0,P|104:84|48:136,1,120,2|0,3:2|0:0,0:0:0:0:
12,164,51519,1,10,0:0:0:0:
0,281,51835,1,10,0:0:0:0:
119,293,52151,1,10,0:0:0:0:
130,175,52467,6,0,L|112:56,2,120,4|0|2,3:2|3:0|3:2,0:0:0:0:
232,236,53414,2,0,P|264:240|296:224,1,60,0|0,3:0|0:0,0:0:0:0:
332,188,53730,2,0,P|344:140|308:72,1,120,0|0,3:0|3:0,0:0:0:0:
200,48,54362,1,0,3:0:0:0:
144,152,54677,1,0,3:0:0:0:
232,236,54993,5,4,0:0:0:0:
256,192,55309,12,4,56888,0:0:0:0:
328,144,57519,6,0,B|288:140|288:140|256:152|256:152|200:144,1,120,4|8,3:2|0:0,0:0:0:0:
156,124,57993,2,0,B|128:172|128:172|156:248,1,120,0|0,0:0|3:0,0:0:0:0:
204,260,58467,2,0,L|280:248,1,60,8|0,0:0|0:0,0:0:0:0:
320,276,58783,1,0,0:0:0:0:
432,232,59098,1,10,0:0:0:0:
424,111,59414,1,2,0:0:0:0:
306,81,59730,1,10,0:0:0:0:
196,128,60046,6,0,P|152:136|88:96,1,120,0|8,3:0|0:0,0:0:0:0:
60,48,60519,2,0,L|48:184,1,120,0|0,0:0|3:0,0:0:0:0:
20,220,60993,2,0,P|44:248|92:256,1,60,8|0,0:0|0:0,0:0:0:0:
124,248,61309,1,0,3:0:0:0:
232,200,61625,1,10,0:0:0:0:
308,292,61941,1,2,0:0:0:0:
384,200,62256,1,10,0:0:0:0:
492,248,62572,6,0,P|504:304|464:356,2,120,4|8|2,3:2|0:0|0:0,0:0:0:0:
372,244,63519,2,0,P|365:208|372:168,1,60,8|0,0:0|0:0,0:0:0:0:
396,132,63835,2,0,B|352:152|352:152|268:140,1,120,0|10,0:0|0:0,0:0:0:0:
264,28,64467,2,0,B|193:17|193:17|149:37,1,120,2|10,0:0|0:0,0:0:0:0:
56,116,65098,5,4,3:2:0:0:
44,236,65414,1,8,0:0:0:0:
136,316,65730,1,4,0:0:0:0:
148,196,66046,1,8,0:0:0:0:
248,132,66362,2,0,P|292:120|356:168,1,120,4|8,3:2|0:0,0:0:0:0:
364,216,66835,1,0,0:0:0:0:
364,216,66993,2,0,P|352:260|278:291,1,120,4|8,3:0|0:0,0:0:0:0:
172,280,67625,6,0,B|124:272|124:272|96:308|48:300,1,120,4|8,3:2|0:0,0:0:0:0:
24,256,68098,1,0,0:0:0:0:
24,256,68256,2,0,L|36:120,1,120,0|8,0:0|0:0,0:0:0:0:
96,32,68888,2,0,B|144:24|144:24|172:60|220:52,1,120,4|8,3:2|0:0,0:0:0:0:
256,20,69362,1,0,3:0:0:0:
256,20,69519,2,0,P|308:12|372:64,1,120,0|8,0:0|0:0,0:0:0:0:
404,159,70151,6,0,L|272:172,1,120,0|8,3:0|0:0,0:0:0:0:
220,68,70783,2,0,L|339:56,1,120,0|8,3:0|0:0,0:0:0:0:
404,159,71414,1,0,3:0:0:0:
368,272,71730,1,8,0:0:0:0:
248,264,72046,2,0,B|180:272|208:232|132:240,1,120,8|8,0:0|0:0,0:0:0:0:
16,256,72677,6,0,L|7:196,1,60,12|0,0:0|3:0,0:0:0:0:
56,160,72993,2,0,L|72:16,1,120,8|8,0:0|0:0,0:0:0:0:
180,84,73625,2,0,P|212:100|252:92,1,60,8|0,0:0|3:0,0:0:0:0:
292,76,73941,6,0,P|328:72|396:148,1,120,12|8,0:0|0:0,0:0:0:0:
412,176,74414,1,0,3:0:0:0:
412,176,74572,2,0,L|392:304,1,120,8|8,0:0|0:0,0:0:0:0:
280,332,75204,5,4,3:2:0:0:
280,332,75362,2,0,L|200:324,1,60,0|8,0:0|0:0,0:0:0:0:
167,353,75677,2,0,B|131:333|131:333|119:237,1,120,2|2,0:0|0:0,0:0:0:0:
60,152,76309,6,0,P|100:128|172:152,1,120,4|0,3:2|0:0,0:0:0:0:
192,201,76783,2,0,L|200:273,1,60,8|2,3:2|0:0,0:0:0:0:
212,320,77098,2,0,P|252:332|284:324,1,60,10|0,0:0|0:0,0:0:0:0:
324,308,77414,1,8,0:0:0:0:
428,288,77730,6,0,P|440:244|404:188,1,107.999996704102,2|2,0:1|0:0,0:0:0:0:
356,180,78204,2,0,L|368:56,1,107.999996704102
324,40,78677,1,2,0:3:0:0:
220,64,78993,5,2,0:0:0:0:
112,44,79309,1,2,0:1:0:0:
44,124,79625,1,2,0:3:0:0:
152,144,79941,1,2,0:1:0:0:
152,144,80256,6,0,P|172:196|148:248,1,107.999996704102,2|2,0:3|0:0,0:0:0:0:
104,264,80730,2,0,P|84:316|108:368,1,107.999996704102,2|0,0:0|0:0,0:0:0:0:
156,376,81204,1,2,0:0:0:0:
256,344,81519,5,2,0:1:0:0:
364,364,81835,1,2,0:0:0:0:
459,309,82151,1,2,0:3:0:0:
497,206,82467,1,2,0:1:0:0:
459,103,82783,6,0,B|344:88|372:168|252:152,1,215.999993408203,2|0,0:3|0:0,0:0:0:0:
168,88,83730,1,2,0:1:0:0:
72,132,84046,2,0,P|60:164|92:236,1,107.999996704102,2|2,0:0|0:1,0:0:0:0:
188,268,84677,2,0,L|304:256,1,107.999996704102,2|2,0:3|0:0,0:0:0:0:
392,208,85309,6,0,P|436:272|348:376,1,215.999993408203,2|2,0:0|0:1,0:0:0:0:
145,373,86572,2,0,P|75:299|120:208,1,215.999993408203,2|2,0:3|0:3,0:0:0:0:
220,168,87519,1,0,0:0:0:0:
188,64,87835,6,0,B|180:39|164:16|164:16|240:64|340:36,1,215.999993408203,2|0,0:1|0:0,0:0:0:0:
420,4,88783,1,0,0:0:0:0:
476,96,89098,2,0,P|484:156|456:204,1,107.999996704102,2|0,0:0|0:0,0:0:0:0:
360,232,89730,2,0,P|304:208|276:160,1,107.999996704102,2|2,0:1|0:3,0:0:0:0:
300,63,90362,5,2,0:0:0:0:
122,218,91625,1,2,0:0:0:0:
345,294,92888,1,6,0:0:0:0:
256,192,93204,12,10,95414,0:1:0:0:
