osu file format v14

[General]
AudioFilename: re tryment.mp3
AudioLeadIn: 0
PreviewTime: 56888
Countdown: 0
SampleSet: Soft
StackLeniency: 0.3
Mode: 0
LetterboxInBreaks: 1
WidescreenStoryboard: 0

[Editor]
Bookmarks: 12046,22151,42362
DistanceSpacing: 0.5
BeatDivisor: 4
GridSize: 4
TimelineZoom: 1.3

[Metadata]
Title:Re:TrymenT
TitleUnicode:Re:TrymenT
Artist:Hotaru Murasaki
ArtistUnicode:紫咲ほたる
Creator:toybot
Version:Ai
Source:Re:LieF〜親愛なるあなたへ〜
Tags:eroge visual novel relief 甘利紗陽 saya amari Shin'ainaru Anata e レリーフ DeaR YoU retryment miu yuu game op rask opening Anxient Kanau Mamayu fuyuyu- Lasse Xexxar Left
BeatmapID:1099936
BeatmapSetID:517706

[Difficulty]
HPDrainRate:6
CircleSize:4.5
OverallDifficulty:9
ApproachRate:9.3
SliderMultiplier:1.8
SliderTickRate:1

[Events]
//Background and Video events
Video,-1369,"ReTrymenT.avi"
0,0,"bg.jpg",0,0
//Break Periods
//Storyboard Layer 0 (Background)
//Storyboard Layer 1 (Fail)
//Storyboard Layer 2 (Pass)
//Storyboard Layer 3 (Foreground)
//Storyboard Sound Samples

[TimingPoints]
1941,315.789473684211,4,2,3,40,1,0
1941,-200,4,2,3,40,0,0
2888,-200,4,2,4,40,0,0
3204,-200,4,2,5,30,0,0
4151,-200,4,2,4,40,0,0
4467,-200,4,2,5,40,0,0
4783,-200,4,2,5,30,0,0
4941,-200,4,2,4,30,0,0
5414,-200,4,2,5,40,0,0
6204,-200,4,2,4,40,0,0
6362,-200,4,2,6,40,0,0
6677,-200,4,2,3,40,0,0
7941,-200,4,2,4,40,0,0
8888,-200,4,2,5,30,0,0
9519,-200,4,2,4,40,0,0
9993,-200,4,2,5,40,0,0
10467,-200,4,2,4,40,0,0
10783,-133.333333333333,4,2,3,50,0,0
11256,-133.333333333333,4,2,3,60,0,0
11730,-133.333333333333,4,2,6,70,0,0
11809,-133.333333333333,4,2,3,50,0,0
12046,-111.111111111111,4,2,1,70,0,0
20256,-142.857142857143,4,2,1,70,0,0
20888,-200,4,2,1,40,0,0
41414,-200,4,2,4,20,0,0
41572,-200,4,2,5,20,0,0
42046,-200,4,2,6,20,0,0
42204,-200,4,2,7,20,0,0
42362,-125,4,2,1,50,0,0
46783,-125,4,2,1,30,0,0
47098,-125,4,2,1,40,0,0
47414,-125,4,2,1,50,0,0
52467,-111.111111111111,4,2,1,60,0,0
54993,-111.111111111111,4,2,1,70,0,0
55309,-111.111111111111,4,2,1,40,0,0
55467,-111.111111111111,4,2,1,45,0,0
55625,-111.111111111111,4,2,1,50,0,0
55783,-111.111111111111,4,2,1,55,0,0
55941,-111.111111111111,4,2,1,60,0,0
56098,-166.666666666667,4,2,1,60,0,0
56888,-166.666666666667,4,2,2,50,0,0
57204,-111.111111111111,4,2,1,50,0,0
57362,-111.111111111111,4,2,1,60,0,0
57519,-100,4,2,1,70,0,1
72677,-100,4,2,1,80,0,1
77177,-100,4,2,1,75,0,1
77256,-100,4,2,1,70,0,1
77335,-100,4,2,1,65,0,1
77414,-133.333333333333,4,2,1,60,0,1
77493,-133.333333333333,4,2,1,55,0,1
77572,-133.333333333333,4,2,1,50,0,1
77651,-133.333333333333,4,2,1,45,0,1
77730,-166.666666666667,4,2,5,40,0,0
78046,-166.666666666667,4,2,4,40,0,0
78677,-166.666666666667,4,2,3,40,0,0
78835,-166.666666666667,4,2,4,40,0,0
79941,-166.666666666667,4,2,5,40,0,0
80256,-166.666666666667,4,2,4,40,0,0
81204,-166.666666666667,4,2,3,40,0,0
81519,-166.666666666667,4,2,5,40,0,0
82151,-166.666666666667,4,2,4,40,0,0
84993,-166.666666666667,4,2,5,40,0,0
86414,-166.666666666667,4,2,4,40,0,0
86572,-166.666666666667,4,2,5,40,0,0
87204,-166.666666666667,4,2,6,40,0,0
87835,-166.666666666667,4,2,6,40,0,0
89730,-166.666666666667,4,2,4,40,0,0
90362,-166.666666666667,4,2,4,40,0,0
91625,-200,4,2,5,35,0,0
92572,-200,4,2,3,35,0,0
92888,-200,4,2,3,35,0,0
93204,-200,4,2,3,30,0,0
93835,-200,4,2,4,30,0,0
94151,-200,4,2,4,30,0,0
94625,-200,4,2,5,25,0,0
95098,-200,4,2,4,30,0,0
95256,-200,4,2,4,25,0,0
95414,-500,4,2,3,30,0,0
95730,-500,4,2,3,25,0,0
96046,-500,4,2,3,25,0,0
96362,-500,4,2,3,25,0,0
96677,-500,4,2,3,25,0,0
96993,-500,4,2,3,20,0,0
97309,-500,4,2,3,15,0,0
97625,-500,4,2,3,10,0,0
97783,-500,4,2,3,5,0,0

[Colours]
Combo1 : 147,240,156
Combo2 : 208,208,208
Combo3 : 158,141,241
Combo4 : 225,142,208

[HitObjects]
116,68,1941,6,0,P|123:117|128:168,1,90,2|0,0:0|0:0,0:0:0:0:
200,84,2414,2,0,P|207:133|212:184,1,90,2|0,0:1|0:0,0:0:0:0:
284,100,2888,1,2,0:0:0:0:
284,100,3204,6,0,P|328:96|384:84,1,90
300,186,3677,2,0,P|256:182|200:170,1,90,0|0,0:0|0:0,0:0:0:0:
316,272,4151,1,2,0:3:0:0:
316,272,4467,6,0,P|309:335|308:368,1,90,2|0,0:0|0:0,0:0:0:0:
232,292,4941,2,0,P|225:355|224:388,1,90
148,312,5414,2,0,P|143:346|140:374,1,45,2|0,0:1|0:0,0:0:0:0:
64,364,5730,6,0,P|24:336|40:248,1,135,2|2,0:3|0:0,0:0:0:0:
128,192,6362,1,2,0:1:0:0:
64,364,6677,1,2,0:1:0:0:
128,192,6993,6,0,L|121:150|112:96,1,90,2|0,0:0|0:0,0:0:0:0:
184,264,7467,2,0,P|199:224|218:172,1,90,2|0,0:1|0:0,0:0:0:0:
196,354,7941,2,0,P|218:343|244:328,1,45,2|0,0:0|0:0,0:0:0:0:
285,204,8256,5,0,0:0:0:0:
344,252,8572,1,0,0:0:0:0:
356,176,8888,1,0,0:0:0:0:
184,52,9204,5,2,0:0:0:0:
252,8,9519,2,0,P|299:4|348:0,1,90,2|0,0:3|0:0,0:0:0:0:
200,128,9993,2,0,L|152:124|104:120,1,90,2|0,0:0|0:0,0:0:0:0:
280,96,10467,2,0,P|285:123|288:144,1,45,2|0,0:0|0:0,0:0:0:0:
4,216,10783,6,0,P|-12:184|40:100,1,135.000005149842,2|0,0:1|0:0,0:0:0:0:
152,196,11256,2,0,P|168:228|116:312,1,135.000005149842,2|0,0:0|0:0,0:0:0:0:
124,84,11730,2,0,L|172:76,1,33.7500012874604,2|0,0:0|0:0,0:0:0:0:
244,160,11888,2,0,L|296:168,1,33.7500012874604
344,64,12046,6,0,B|372:64|400:40|400:40|424:96|484:92,1,161.999995056153,4|0,3:2|3:0,0:0:0:0:
476,12,12519,1,0,0:0:0:0:
384,148,12677,2,0,P|372:196|388:240,1,80.9999975280763,0|0,3:0|0:0,0:0:0:0:
452,280,12993,1,0,3:0:0:0:
272,344,13151,1,0,0:0:0:0:
280,324,13230,1,0,0:0:0:0:
284,304,13309,6,0,P|264:248|168:240,1,161.999995056153,2|0,3:2|3:0,0:0:0:0:
44,320,13783,2,0,P|102:330|157:251,1,161.999995056153,4|0,2:3|0:0,0:0:0:0:
122,132,14256,2,0,P|110:189|148:234,1,121.499996292114,2|0,3:0|0:0,0:0:0:0:
171,237,14572,6,0,L|251:222,1,80.9999975280763,6|0,3:2|0:0,0:0:0:0:
288,112,14888,1,0,3:0:0:0:
394,260,15046,2,0,B|338:244|338:244|318:308|254:312,1,161.999995056153,2|0,0:0|0:0,0:0:0:0:
192,156,15519,1,0,3:0:0:0:
376,168,15677,1,2,0:0:0:0:
376,168,15993,5,8,0:0:0:0:
396,164,16072,1,8,0:0:0:0:
416,160,16151,1,2,3:2:0:0:
272,228,16309,1,8,0:0:0:0:
394,260,16467,1,2,3:2:0:0:
232,312,16625,1,8,0:0:0:0:
292,136,16783,1,2,3:2:0:0:
316,352,16941,1,2,0:0:0:0:
128,240,17098,6,0,P|100:200|148:96,1,161.999995056153,2|0,3:2|3:0,0:0:0:0:
272,228,17572,1,2,0:0:0:0:
177,305,17730,2,0,P|131:320|85:310,1,80.9999975280763,0|0,3:0|0:0,0:0:0:0:
176,173,18046,1,2,3:2:0:0:
277,314,18204,1,0,0:0:0:0:
293,302,18283,1,0,0:0:0:0:
312,297,18362,6,0,B|406:289|363:355|474:347,1,161.999995056153,2|0,3:2|3:0,0:0:0:0:
507,138,18835,1,2,0:0:0:0:
451,191,18993,2,0,P|437:228|444:267,1,80.9999975280763,0|0,3:0|0:0,0:0:0:0:
292,191,19309,2,0,P|299:151|285:114,1,80.9999975280763,2|0,3:2|3:0,0:0:0:0:
279,108,19546,1,0,0:0:0:0:
272,102,19625,6,0,P|317:111|364:116,1,80.9999975280763,4|0,3:2|0:0,0:0:0:0:
320,276,19941,1,0,0:0:0:0:
192,136,20098,1,0,0:0:0:0:
388,188,20256,6,0,P|404:228|400:260,1,62.9999980773926,4|0,3:2|0:0,0:0:0:0:
256,216,20572,2,0,P|280:176|312:160,1,62.9999980773926
320,276,20888,6,0,B|240:288|272:236|180:248,1,135,4|0,3:2|0:0,0:0:0:0:
192,246,21441,1,0,0:0:0:0:
192,246,21519,1,2,0:0:0:0:
192,246,22151,5,4,1:2:0:0:
96,304,22467,2,0,P|86:339|84:360,1,45
4,216,22783,2,0,P|11:273|16:316,1,90,2|0,0:0|0:0,0:0:0:0:
88,216,23256,1,0,0:0:0:0:
48,144,23414,6,0,P|40:86|36:44,1,90,2|0,0:0|0:0,0:0:0:0:
124,20,24046,1,2,0:0:0:0:
196,80,24362,1,2,0:0:0:0:
280,40,24677,1,2,0:0:0:0:
372,156,24993,6,0,L|396:150|420:144,1,45
340,232,25309,2,0,P|292:216|240:208,1,90,2|0,0:0|0:0,0:0:0:0:
288,300,25783,1,0,0:0:0:0:
368,328,25941,6,0,P|412:319|454:305,1,90,2|0,0:0|0:0,0:0:0:0:
424,156,26572,2,0,P|388:148|360:144,1,45,2|0,0:0|0:0,0:0:0:0:
468,224,26888,1,2,0:0:0:0:
335,78,27204,5,2,3:2:0:0:
335,78,27362,1,0,3:0:0:0:
272,124,27519,2,0,P|240:128|184:96,1,90,0|2,0:0|0:0,0:0:0:0:
152,236,28151,1,0,0:0:0:0:
152,236,28309,6,0,B|224:248|204:200|288:212,1,135,2|0,0:0|0:0,0:0:0:0:
368,248,29098,1,2,0:0:0:0:
272,124,29414,1,2,0:0:0:0:
456,52,29730,6,0,P|458:96|445:139,1,90,2|0,0:0|0:0,0:0:0:0:
395,243,30204,2,0,B|404:172|356:192|368:116,1,135,2|2,0:0|0:0,0:0:0:0:
368,115,30993,1,0,0:0:0:0:
280,180,31151,5,0,0:0:0:0:
200,192,31309,1,2,0:0:0:0:
132,156,31467,1,0,0:0:0:0:
80,48,31625,5,2,0:0:0:0:
152,60,31783,1,2,0:0:0:0:
196,116,31941,1,0,0:0:0:0:
152,260,32098,5,0,0:0:0:0:
144,264,32177,1,0,0:0:0:0:
136,268,32256,2,0,P|107:270|84:272,1,45,0|0,1:2|0:0,0:0:0:0:
16,180,32572,2,0,P|56:188|116:192,1,90,2|0,0:0|0:0,0:0:0:0:
252,124,33046,2,0,P|212:132|152:136,1,90,2|0,0:0|0:0,0:0:0:0:
131,58,33519,5,2,0:0:0:0:
163,135,33835,1,0,0:0:0:0:
104,191,34151,1,2,0:0:0:0:
136,268,34467,1,2,0:0:0:0:
252,240,34783,6,0,P|255:219|256:192,1,45
328,76,35098,2,0,P|328:124|336:172,1,90,2|0,0:0|0:0,0:0:0:0:
388,312,35572,2,0,P|388:264|396:216,1,90,2|0,0:0|0:0,0:0:0:0:
334,165,36046,5,2,0:0:0:0:
256,195,36362,1,0,0:0:0:0:
394,222,36677,1,2,0:0:0:0:
472,192,36993,1,2,0:0:0:0:
316,87,37309,5,2,3:2:0:0:
316,87,37467,1,0,3:2:0:0:
334,165,37625,2,0,P|302:166|247:131,1,90,0|2,0:0|0:0,0:0:0:0:
136,248,38256,1,0,0:0:0:0:
116,324,38414,6,0,P|148:325|203:290,1,90,2|0,0:0|0:0,0:0:0:0:
211,227,38888,2,0,P|195:198|138:168,1,90,0|2,0:0|0:0,0:0:0:0:
80,192,39362,1,0,0:0:0:0:
40,256,39519,2,0,P|38:287|36:314,1,45,2|0,0:0|0:0,0:0:0:0:
80,192,39835,6,0,P|73:148|68:96,2,90,2|0|0,0:0|0:0|0:0,0:0:0:0:
80,192,40783,1,0,0:0:0:0:
144,136,40941,6,0,P|164:168|220:176,1,90,2|0,0:0|0:0,0:0:0:0:
332,100,41414,1,2,0:0:0:0:
280,152,41572,1,2,0:0:0:0:
272,224,41730,2,0,P|268:246|271:268,1,45,2|2,0:1|0:3,0:0:0:0:
383,204,42046,2,0,P|365:190|344:180,1,45,2|2,0:1|0:0,0:0:0:0:
344,310,42362,6,0,B|428:320|392:268|496:280,1,144,4|0,0:0|3:0,0:0:0:0:
480,278,42835,1,2,0:0:0:0:
280,360,42993,2,0,P|264:312|276:268,1,72,0|0,3:0|0:0,0:0:0:0:
344,310,43309,1,2,3:2:0:0:
209,183,43467,6,0,P|266:221|266:291,1,144,6|4,3:0|3:0,0:0:0:0:
200,348,43941,2,0,B|116:358|152:306|48:318,1,144,0|0,3:0|3:0,0:0:0:0:
63,316,44414,1,0,0:0:0:0:
75,156,44572,2,0,B|96:132|96:132|84:206,1,108,0|0,3:0|0:0,0:0:0:0:
83,207,44888,6,0,P|135:195|203:271,1,144,6|0,0:0|3:0,0:0:0:0:
200,348,45362,1,0,0:0:0:0:
272,211,45519,2,0,P|282:250|275:281,1,72,0|0,3:0|0:0,0:0:0:0:
120,320,45835,1,0,3:0:0:0:
275,280,45993,6,0,B|323:268|323:268|344:324|407:320,1,144,12|4,3:0|3:0,0:0:0:0:
484,264,46467,1,0,0:0:0:0:
496,332,46625,1,2,0:0:0:0:
404,192,46783,5,8,0:0:0:0:
416,116,46941,1,10,0:0:0:0:
280,224,47098,5,8,0:0:0:0:
304,356,47256,1,10,0:0:0:0:
152,176,47414,6,0,P|152:124|248:76,1,144,4|0,0:0|0:0,0:0:0:0:
225,150,47888,1,0,3:0:0:0:
126,254,48046,2,0,P|80:279|-8:220,1,144,8|0,0:0|3:0,0:0:0:0:
152,176,48519,6,0,B|228:184|192:232|288:240,1,144,0|8,3:0|0:0,0:0:0:0:
344,144,48993,2,0,P|308:144|275:158,1,72,0|0,3:0|0:0,0:0:0:0:
260,316,49309,2,0,P|295:315|328:301,1,72,8|8,0:0|0:0,0:0:0:0:
271,76,49625,2,0,P|237:85|211:109,1,72,4|4,3:0|0:3,0:0:0:0:
368,368,49941,5,4,0:0:0:0:
368,368,50256,2,0,P|400:324|364:236,1,144,0|8,0:0|0:0,0:0:0:0:
211,109,50888,1,0,3:0:0:0:
90,162,51046,6,0,B|142:150|142:150|178:206|250:182,1,144,2|0,3:2|0:0,0:0:0:0:
339,39,51519,2,0,P|304:36|270:47,1,72,10|0,0:0|0:0,0:0:0:0:
244,260,51835,1,10,0:0:0:0:
316,120,51993,1,8,0:0:0:0:
143,248,52151,2,0,L|160:336,1,72,10|0,0:0|0:0,0:0:0:0:
384,324,52467,5,4,3:2:0:0:
224,220,52625,1,0,0:0:0:0:
388,142,52783,2,0,P|408:182|400:230,1,80.9999975280763,0|0,3:0|3:0,3:0:0:0:
400,230,53019,1,2,0:0:0:0:
392,240,53098,2,0,L|291:223,1,80.9999975280763,2|0,3:2|0:0,0:0:0:0:
156,148,53414,2,0,L|257:131,1,80.9999975280763,0|0,3:0|0:0,0:0:0:0:
248,133,53651,1,0,0:0:0:0:
260,131,53730,5,0,3:0:0:0:
240,300,53888,1,0,0:0:0:0:
80,136,54046,1,0,3:0:0:0:
224,220,54204,1,0,0:0:0:0:
88,352,54362,2,0,P|64:319|61:279,1,80.9999975280763,0|0,3:0|0:0,0:0:0:0:
200,68,54677,1,0,3:0:0:0:
148,268,54835,1,0,0:0:0:0:
144,280,54914,1,0,0:0:0:0:
140,292,54993,6,0,B|228:272|196:336|296:316,1,161.999995056153,4|8,0:0|0:0,0:0:0:0:
509,239,55467,1,8,0:0:0:0:
290,173,55625,1,8,0:0:0:0:
428,356,55783,1,8,0:0:0:0:
424,128,55941,1,8,0:0:0:0:
294,316,56098,5,4,1:0:0:0:
256,192,56177,12,4,56888,0:0:0:0:
260,236,57204,6,0,L|316:224,1,40.4999987640381,2|2,0:0|0:0,0:0:0:0:
180,344,57362,2,0,L|124:332,1,40.4999987640381,2|2,0:0|0:0,0:0:0:0:
44,168,57519,6,0,B|72:140|72:140|116:124|172:168,1,135,4|0,3:2|0:0,0:0:0:0:
168,172,57835,2,0,P|180:224|156:272,1,90,8|0,0:0|0:0,0:0:0:0:
4,344,58151,2,0,P|-8:301|3:258,1,90,0|0,0:0|3:0,0:0:0:0:
168,76,58467,1,8,0:0:0:0:
260,236,58625,6,0,B|368:244|316:180|440:192,1,180,0|0,3:0|0:0,0:0:0:0:
441,193,59019,1,0,0:0:0:0:
453,197,59098,2,0,P|482:236|477:297,1,90,10|0,0:0|3:0,0:0:0:0:
288,152,59414,2,0,P|307:107|362:81,1,90,2|0,0:0|3:0,0:0:0:0:
332,318,59730,2,0,L|276:324,1,45,10|0,0:0|0:0,0:0:0:0:
216,208,59888,2,8,L|160:200,1,45
16,320,60046,6,0,B|80:308|80:308|124:364|188:344,1,180,0|8,3:0|0:0,0:0:0:0:
262,153,60519,1,0,0:0:0:0:
254,141,60598,1,8,0:0:0:0:
246,129,60677,2,0,P|214:181|234:241,1,90,0|0,0:0|3:0,0:0:0:0:
244,292,60993,1,8,0:0:0:0:
328,88,61151,1,0,0:0:0:0:
144,136,61309,6,0,P|96:136|52:96,1,90,0|0,3:0|0:0,0:0:0:0:
313,0,61625,2,0,L|328:88,1,90,10|0,0:0|3:0,0:0:0:0:
129,224,61941,2,0,L|144:136,1,90,2|0,0:0|3:0,0:0:0:0:
276,312,62256,1,10,0:0:0:0:
276,312,62335,1,0,0:0:0:0:
276,312,62414,1,8,0:0:0:0:
276,312,62493,1,8,0:0:0:0:
276,312,62572,6,0,B|324:300|324:300|376:364|452:340,1,180,4|8,3:2|0:0,0:0:0:0:
424,128,63046,2,0,L|440:196,1,45,2|8,0:0|0:0,0:0:0:0:
492,268,63204,2,0,L|392:244,1,90,2|0,0:0|3:0,0:0:0:0:
256,160,63519,1,8,0:0:0:0:
385,31,63677,6,0,B|417:-1|417:-1|465:87|405:151,1,180
172,144,64151,2,0,P|189:103|226:78,1,90,10|0,0:0|3:0,0:0:0:0:
285,241,64467,2,0,P|240:246|201:226,1,90,2|0,0:0|3:0,0:0:0:0:
313,95,64783,2,0,P|339:130|342:174,1,90,10|8,0:0|0:0,0:0:0:0:
340,183,65019,1,8,0:0:0:0:
338,191,65098,6,0,P|385:145|449:156,1,135,4|0,3:2|0:0,0:0:0:0:
488,224,65414,2,0,L|472:336,1,90,8|0,0:0|0:0,0:0:0:0:
160,168,65730,1,4,0:0:0:0:
240,56,65888,1,0,3:0:0:0:
228,248,66046,1,8,0:0:0:0:
76,128,66204,1,0,0:0:0:0:
288,176,66362,6,0,P|344:180|408:56,1,180,4|8,3:2|0:0,0:0:0:0:
212,100,66835,1,0,0:0:0:0:
204,112,66914,1,8,0:0:0:0:
197,123,66993,2,4,P|182:174|197:222,1,90,4|0,3:0|3:0,3:0:0:0:
308,336,67309,1,8,0:0:0:0:
308,336,67625,6,0,B|208:312|240:384|128:364,1,180,4|8,3:2|0:0,0:0:0:0:
32,324,68098,1,0,0:0:0:0:
148,188,68256,2,0,B|163:175|180:152|180:152|164:282,1,180,0|8,0:0|0:0,0:0:0:0:
100,116,68730,1,0,0:0:0:0:
260,192,68888,6,0,P|268:128|164:60,1,180,4|8,3:2|0:0,0:0:0:0:
16,132,69362,1,0,3:0:0:0:
164,282,69519,2,0,P|208:288|268:244,1,90,0|0,0:0|3:0,0:0:0:0:
100,116,69835,1,8,0:0:0:0:
92,336,69993,1,8,0:0:0:0:
260,192,70151,6,0,P|262:153|264:72,1,90,4|0,3:2|0:0,0:0:0:0:
95,26,70467,2,0,P|96:71|100:116,1,90,8|0,0:0|0:0,0:0:0:0:
345,85,70783,2,0,P|316:39|197:52,1,180,0|8,3:0|0:0,0:0:0:0:
24,208,71256,1,0,0:0:0:0:
256,281,71414,6,0,L|258:236|260:191,1,90,0|0,3:2|0:0,0:0:0:0:
141,111,71730,1,8,0:0:0:0:
368,264,71888,1,0,3:0:0:0:
148,384,72046,2,0,P|145:339|144:294,1,90,8|0,0:0|3:0,0:0:0:0:
180,104,72362,1,8,0:0:0:0:
141,111,72440,1,8,0:0:0:0:
112,140,72519,1,8,0:0:0:0:
107,180,72598,1,8,0:0:0:0:
119,219,72677,5,12,0:0:0:0:
252,20,72835,1,0,3:0:0:0:
368,264,72993,5,8,0:0:0:0:
260,32,73151,1,0,3:0:0:0:
144,324,73309,5,8,0:0:0:0:
255,44,73467,1,0,3:0:0:0:
332,372,73625,5,8,0:0:0:0:
258,56,73783,1,0,3:0:0:0:
80,156,73941,5,12,0:0:0:0:
256,292,74098,1,0,3:0:0:0:
432,128,74256,5,8,0:0:0:0:
256,308,74414,1,0,3:0:0:0:
128,52,74572,5,8,0:0:0:0:
328,292,74730,1,0,3:0:0:0:
384,52,74888,5,8,0:0:0:0:
184,292,75046,1,0,3:0:0:0:
171,290,75125,1,0,0:0:0:0:
157,288,75204,5,12,3:2:0:0:
360,172,75362,1,0,3:0:0:0:
256,384,75519,1,8,0:0:0:0:
152,172,75677,2,0,P|156:129|168:64,1,90,0|8,3:0|0:0,0:0:0:0:
264,332,75993,1,0,3:0:0:0:
52,304,76151,1,8,0:0:0:0:
232,244,76309,6,0,B|324:224|300:292|408:276,1,180,4|0,3:2|0:0,0:0:0:0:
512,344,76783,2,0,P|496:308|500:272,1,45,10|2,3:2|0:0,0:0:0:0:
368,196,76941,2,0,P|384:160|380:124,1,45,2|2,0:0|0:0,0:0:0:0:
420,60,77098,5,10,3:2:0:0:
464,63,77177,1,0,0:0:0:0:
499,92,77256,1,0,0:0:0:0:
510,135,77335,1,0,0:0:0:0:
493,177,77414,1,8,0:0:0:0:
455,201,77493,1,8,0:0:0:0:
410,198,77572,1,8,0:0:0:0:
375,169,77651,1,8,0:0:0:0:
364,125,77730,6,0,L|372:56,1,53.9999983520508,6|0,0:1|0:0,0:0:0:0:
296,24,78046,1,2,0:0:0:0:
236,84,78204,2,0,P|168:100|112:88,1,107.999996704102,2|0,0:0|0:3,0:0:0:0:
16,60,78677,2,0,P|9:30|9:6,1,53.9999983520508,2|0,0:3|0:0,0:0:0:0:
92,24,78993,5,2,0:0:0:0:
131,94,79309,1,2,0:1:0:0:
115,172,79625,1,2,0:3:0:0:
52,222,79941,1,2,0:1:0:0:
40,142,80098,1,0,0:0:0:0:
128,252,80256,6,0,P|180:264|233:249,1,107.999996704102,2|2,0:3|0:0,0:0:0:0:
272,176,80730,2,0,P|263:125|256:60,1,107.999996704102,2|0,0:0|0:0,0:0:0:0:
320,12,81204,1,2,0:0:0:0:
404,124,81362,1,0,0:0:0:0:
464,72,81519,6,0,P|436:52|404:44,1,53.9999983520508,2|0,0:1|0:0,0:0:0:0:
419,201,81835,2,0,P|450:186|473:163,1,53.9999983520508,2|0,0:0|0:0,0:0:0:0:
329,97,82151,2,0,P|325:131|334:162,1,53.9999983520508,2|0,0:3|0:0,0:0:0:0:
404,124,82467,1,2,0:1:0:0:
328,231,82783,6,0,P|389:310|483:274,1,215.999993408203,2|0,0:3|0:0,0:0:0:0:
329,97,83730,1,2,0:1:0:0:
372,164,83888,1,0,0:3:0:0:
328,231,84046,6,0,P|288:243|220:199,1,107.999996704102,2|2,0:0|0:1,0:0:0:0:
152,80,84677,2,0,P|192:68|260:112,1,107.999996704102,2|2,0:3|0:0,0:0:0:0:
328,231,85309,6,0,P|325:286|320:347,1,107.999996704102,2|0,0:0|0:0,0:0:0:0:
400,280,85783,1,0,0:0:0:0:
248,272,85941,2,0,P|251:217|256:156,1,107.999996704102,2|0,0:1|0:0,0:0:0:0:
289,94,86414,1,0,0:3:0:0:
352,142,86572,6,0,P|308:170|244:158,1,107.999996704102,2|0,0:3|0:0,0:0:0:0:
188,120,87046,1,0,0:0:0:0:
128,172,87204,1,2,0:3:0:0:
207,253,87519,1,0,0:0:0:0:
44,320,87835,6,0,B|77:304|129:269|129:269|149:335|217:333,1,215.999993408203,2|0,0:1|0:0,0:0:0:0:
257,159,88783,2,0,P|260:186|268:212,1,53.9999983520508
333,173,89098,5,2,0:0:0:0:
171,143,89414,1,0,0:0:0:0:
142,305,89730,1,2,0:1:0:0:
303,335,90046,1,2,0:3:0:0:
447,293,90362,6,0,B|487:250|477:188|410:164|375:177|331:213|353:273|353:273|323:253|307:213|335:165,1,377.999988464356,2|0,0:0|0:0,0:0:0:0:
388,116,91625,6,0,B|413:111|440:116|440:116|402:83|320:84|288:108|276:128,1,225,2|0,0:0|0:0,0:0:0:0:
227,183,92572,2,0,P|222:205|219:235,1,45,0|0,0:0|0:1,0:0:0:0:
131,159,92888,6,0,P|125:108|111:19,2,135,2|2|2,0:0|0:1|0:0,0:0:0:0:
89,227,94151,1,2,0:3:0:0:
89,227,94309,1,0,0:3:0:0:
91,87,94625,1,2,0:0:0:0:
211,159,94941,1,0,0:0:0:0:
211,159,95098,2,0,P|243:163|267:159,1,45,2|0,0:0|0:0,0:0:0:0:
372,144,95414,6,0,B|340:144|320:108|320:108|344:187|348:228|348:228|340:264|296:272|280:232|316:216,1,288,10|0,0:1|0:0,0:0:0:0:
