osu file format v10

[General]
AudioFilename: cutverserenadeoflove.mp3
AudioLeadIn: 2000
PreviewTime: 76650
Countdown: 0
SampleSet: Normal
StackLeniency: 0.7
Mode: 1
LetterboxInBreaks: 0

[Editor]
Bookmarks: 30479
DistanceSpacing: 0.1
BeatDivisor: 4
GridSize: 8

[Metadata]
Title:Serenade of Love
TitleUnicode:Serenade of Love
Artist:Hotaru
ArtistUnicode:Hotaru
Creator:- t e n n y a -
Version:Taiko
Source:Touhou
Tags:Laurier Halozy Nitori Kawashiro Tonic Triangle ZUN Mountain of Faith The Gensokyo the Gods Loved Sumijun c81 inverness
BeatmapID:169006
BeatmapSetID:53847

[Difficulty]
HPDrainRate:6
CircleSize:5
OverallDifficulty:6
ApproachRate:9
SliderMultiplier:1.6
SliderTickRate:2

[Events]
//Background and Video events
0,0,"moeness.jpg"
//Break Periods
//Storyboard Layer 0 (Background)
//Storyboard Layer 1 (Fail)
Sprite,Fail,Centre,"SB\taiko-slider-fail.png",260,61 F,0,-210,310,0,1 F,0,111226,111476,1,0
//Storyboard Layer 2 (Pass)
Sprite,Pass,Centre,"SB\taiko-slider.png",260,61 F,0,-210,310,0,1 F,0,111226,111476,1,0
//Storyboard Layer 3 (Foreground)
Sprite,Foreground,Centre,"thingy\inverness.png",320,240 M,0,-3257,,320,59 F,0,-3257,-3022,0,1 S,0,-3257,-210,0.8 F,0,-444,-210,1,0
Sprite,Foreground,Centre,"thingy\tennya.png",320,240 M,0,-3257,,312,109 F,0,-3257,-3022,0,1 S,0,-3257,-210,0.8 F,0,-444,-210,1,0
Sprite,Foreground,Centre,"SB\thankyou.png",320,69 F,0,107368,107836,0,1 F,0,109243,111118,1,0
//Storyboard Sound Samples
//Background Colour Transformations
3,100,163,162,255

[TimingPoints]
493,468.75,4,1,0,60,1,0
75493,-100,4,1,0,60,0,0
77368,-100,4,1,0,60,0,1
107368,-100,4,1,0,60,0,0

[Colours]
Combo1 : 35,155,243
Combo2 : 243,1,26
Combo3 : 113,145,255
Combo4 : 255,15,15

[HitObjects]
256,56,493,1,0,0:0:0
256,56,727,1,0,0:0:0
256,56,961,5,8,0:0:0
256,56,1430,5,0,0:0:0
256,56,1664,1,0,0:0:0
256,56,1899,5,8,0:0:0
256,56,2133,5,0,0:0:0
256,56,2368,1,0,0:0:0
256,56,2602,1,0,0:0:0
256,56,2836,5,8,0:0:0
256,56,3071,5,0,0:0:0
256,56,3305,1,0,0:0:0
256,56,3422,1,0,0:0:0
256,56,3539,5,8,0:0:0
256,56,3774,1,8,0:0:0
256,56,4243,5,0,0:0:0
256,56,4477,1,0,0:0:0
256,56,4711,5,8,0:0:0
256,56,5180,5,0,0:0:0
256,56,5414,1,0,0:0:0
256,56,5649,5,8,0:0:0
256,56,5883,5,0,0:0:0
256,56,6118,1,0,0:0:0
256,56,6352,1,0,0:0:0
256,56,6586,5,8,0:0:0
256,56,6821,5,0,0:0:0
256,56,7055,5,8,0:0:0
256,56,7172,5,0,0:0:0
256,56,7289,5,8,0:0:0
256,56,7407,5,0,0:0:0
256,56,7524,5,8,0:0:0
256,56,7758,5,0,0:0:0
256,56,8227,1,0,0:0:0
256,56,8461,5,8,0:0:0
256,56,8696,5,0,0:0:0
256,56,8930,1,0,0:0:0
256,56,9047,1,0,0:0:0
256,56,9164,1,0,0:0:0
256,56,9282,1,0,0:0:0
256,56,9399,5,8,0:0:0
256,56,9633,5,0,0:0:0
256,56,9868,1,0,0:0:0
256,56,10102,1,0,0:0:0
256,56,10336,5,8,0:0:0
256,56,10571,5,0,0:0:0
256,56,10805,1,0,0:0:0
256,56,10922,1,0,0:0:0
256,56,11039,5,8,0:0:0
256,56,11157,5,0,0:0:0
256,56,11274,5,8,0:0:0
256,56,11508,5,0,0:0:0
256,56,11743,1,0,0:0:0
256,56,12094,1,0,0:0:0
256,56,12211,5,8,0:0:0
256,56,12446,5,0,0:0:0
256,56,12681,1,0,0:0:0
256,56,12915,1,0,0:0:0
256,56,13149,5,8,0:0:0
256,56,13383,5,0,0:0:0
256,56,13618,1,0,0:0:0
256,56,13852,1,0,0:0:0
256,56,13969,1,0,0:0:0
256,56,14086,5,8,0:0:0
256,56,14321,1,8,0:0:0
256,56,14555,5,0,0:0:0
256,56,14789,5,8,0:0:0
256,56,15024,1,8,0:0:0
256,56,15258,5,0,0:0:0
256,56,15493,1,4,0:0:0
256,56,15961,5,8,0:0:0
256,56,16196,5,0,0:0:0
256,56,16313,1,0,0:0:0
256,56,16430,1,0,0:0:0
256,56,16664,1,0,0:0:0
256,56,16898,5,8,0:0:0
256,56,17133,5,0,0:0:0
256,56,17250,1,0,0:0:0
256,56,17368,1,0,0:0:0
256,56,17602,1,0,0:0:0
256,56,17719,1,0,0:0:0
256,56,17836,5,8,0:0:0
256,56,18071,1,8,0:0:0
256,56,18188,1,8,0:0:0
256,56,18305,5,0,0:0:0
256,56,18422,1,0,0:0:0
256,56,18539,5,8,0:0:0
256,56,18774,1,8,0:0:0
256,56,19008,5,0,0:0:0
256,56,19243,1,0,0:0:0
256,56,19711,5,8,0:0:0
256,56,19946,5,0,0:0:0
256,56,20063,1,0,0:0:0
256,56,20180,1,0,0:0:0
256,56,20414,1,0,0:0:0
256,56,20648,5,8,0:0:0
256,56,20883,5,0,0:0:0
256,56,21000,1,0,0:0:0
256,56,21118,1,0,0:0:0
256,56,21352,1,0,0:0:0
256,56,21469,1,0,0:0:0
256,56,21586,5,8,0:0:0
256,56,21821,1,8,0:0:0
256,56,22055,5,0,0:0:0
256,56,22172,1,0,0:0:0
256,56,22289,5,8,0:0:0
256,56,22407,5,0,0:0:0
256,56,22524,5,8,0:0:0
256,56,22758,5,0,0:0:0
256,56,22993,1,4,0:0:0
256,56,23227,1,0,0:0:0
256,56,23344,1,0,0:0:0
256,56,23461,5,8,0:0:0
256,56,23696,5,0,0:0:0
256,56,24164,5,8,0:0:0
256,56,24282,5,0,0:0:0
256,56,24399,1,0,0:0:0
256,56,24633,5,8,0:0:0
256,56,24868,1,8,0:0:0
256,56,25102,5,0,0:0:0
256,56,25219,1,0,0:0:0
256,56,25336,5,8,0:0:0
256,56,25571,5,0,0:0:0
256,56,25805,1,0,0:0:0
256,56,25922,1,0,0:0:0
256,56,26039,5,8,0:0:0
256,56,26274,1,8,0:0:0
256,56,26508,5,0,0:0:0
256,56,26743,1,0,0:0:0
256,56,26977,1,0,0:0:0
256,56,27211,5,8,0:0:0
256,56,27446,1,8,0:0:0
256,56,27680,5,0,0:0:0
256,56,27914,1,0,0:0:0
256,56,28032,1,0,0:0:0
256,56,28149,5,8,0:0:0
256,56,28383,1,8,0:0:0
256,56,28618,5,0,0:0:0
256,56,28735,1,0,0:0:0
256,56,28852,5,8,0:0:0
256,56,28969,5,0,0:0:0
256,56,29086,5,8,0:0:0
256,56,29203,5,0,0:0:0
256,56,29321,1,0,0:0:0
256,56,29438,1,0,0:0:0
256,56,29555,5,8,0:0:0
256,56,29672,5,0,0:0:0
256,56,29789,5,8,0:0:0
256,56,29907,5,0,0:0:0
256,56,30024,5,8,0:0:0
256,56,30258,1,8,0:0:0
256,56,30493,1,12,0:0:0
256,56,30727,1,8,0:0:0
256,56,30844,5,0,0:0:0
256,56,30961,1,0,0:0:0
256,56,31196,1,0,0:0:0
256,56,31313,1,0,0:0:0
256,56,31430,5,8,0:0:0
256,56,31664,5,0,0:0:0
256,56,31782,1,0,0:0:0
256,56,31899,5,8,0:0:0
256,56,32016,5,0,0:0:0
256,56,32133,5,8,0:0:0
256,56,32368,5,0,0:0:0
256,56,32602,1,0,0:0:0
256,56,32719,1,0,0:0:0
256,56,32836,5,8,0:0:0
256,56,32953,5,0,0:0:0
256,56,33071,5,8,0:0:0
256,56,33305,5,0,0:0:0
256,56,33422,1,0,0:0:0
256,56,33539,5,8,0:0:0
256,56,33774,1,8,0:0:0
256,56,34008,1,8,0:0:0
256,56,34243,5,0,0:0:0
256,56,34477,1,0,0:0:0
256,56,34594,1,0,0:0:0
256,56,34711,5,8,0:0:0
256,56,34946,1,8,0:0:0
256,56,35180,5,0,0:0:0
256,56,35414,1,0,0:0:0
256,56,35531,1,0,0:0:0
256,56,35648,5,8,0:0:0
256,56,35883,1,8,0:0:0
256,56,36118,5,0,0:0:0
256,56,36352,1,0,0:0:0
256,56,36469,1,0,0:0:0
256,56,36586,5,8,0:0:0
256,56,36821,5,0,0:0:0
256,56,37055,1,0,0:0:0
256,56,37172,1,0,0:0:0
256,56,37289,5,8,0:0:0
256,56,37407,1,8,0:0:0
256,56,37524,1,8,0:0:0
256,56,37758,1,8,0:0:0
256,56,37993,5,4,0:0:0
256,56,38227,5,8,0:0:0
256,56,38344,1,8,0:0:0
256,56,38461,5,0,0:0:0
256,56,38696,5,8,0:0:0
256,56,38930,5,0,0:0:0
256,56,39164,5,8,0:0:0
256,56,39281,1,8,0:0:0
256,56,39398,5,0,0:0:0
256,56,39633,5,8,0:0:0
256,56,39868,5,0,0:0:0
256,56,40102,5,8,0:0:0
256,56,40219,1,8,0:0:0
256,56,40336,5,0,0:0:0
256,56,40453,1,0,0:0:0
256,56,40571,5,8,0:0:0
256,56,40805,5,0,0:0:0
256,56,41039,5,8,0:0:0
256,56,41157,1,8,0:0:0
256,56,41274,5,0,0:0:0
256,56,41508,5,8,0:0:0
256,56,41743,5,0,0:0:0
256,56,41977,1,0,0:0:0
256,56,42094,1,0,0:0:0
256,56,42211,5,8,0:0:0
256,56,42446,1,8,0:0:0
256,56,42680,5,0,0:0:0
256,56,42797,1,0,0:0:0
256,56,42914,5,8,0:0:0
256,56,43032,1,8,0:0:0
256,56,43149,1,8,0:0:0
256,56,43266,1,8,0:0:0
256,56,43383,5,0,0:0:0
256,56,43618,5,12,0:0:0
256,192,43852,12,0,44789,0:0:0
256,56,45258,21,8,0:0:0
256,56,45493,5,4,0:0:0
256,56,45727,5,8,0:0:0
256,56,45844,5,0,0:0:0
256,56,45961,1,0,0:0:0
256,56,46195,5,8,0:0:0
256,56,46430,5,0,0:0:0
256,56,46664,5,8,0:0:0
256,56,46782,1,8,0:0:0
256,56,46899,5,0,0:0:0
256,56,47133,5,8,0:0:0
256,56,47368,5,0,0:0:0
256,56,47602,1,0,0:0:0
256,56,47719,5,8,0:0:0
256,56,47836,5,0,0:0:0
256,56,48070,5,8,0:0:0
256,56,48305,5,0,0:0:0
256,56,48539,5,8,0:0:0
256,56,48657,1,8,0:0:0
256,56,48774,5,0,0:0:0
256,56,49008,5,8,0:0:0
256,56,49243,5,0,0:0:0
256,56,49477,5,8,0:0:0
256,56,49594,1,8,0:0:0
256,56,49711,5,0,0:0:0
256,56,49946,5,8,0:0:0
256,56,50180,5,0,0:0:0
256,56,50414,5,8,0:0:0
256,56,50532,1,8,0:0:0
256,56,50649,5,0,0:0:0
256,56,50883,5,8,0:0:0
256,56,51118,5,0,0:0:0
256,56,51352,5,8,0:0:0
256,56,51469,5,0,0:0:0
256,56,51586,1,0,0:0:0
256,56,51821,5,8,0:0:0
256,56,52055,5,0,0:0:0
256,56,52289,5,8,0:0:0
256,56,52407,5,0,0:0:0
256,56,52524,1,0,0:0:0
256,56,52758,5,8,0:0:0
256,56,52993,5,0,0:0:0
256,56,53227,5,8,0:0:0
256,56,53344,5,0,0:0:0
256,56,53461,1,0,0:0:0
256,56,53696,5,8,0:0:0
256,56,53930,5,0,0:0:0
256,56,54164,5,8,0:0:0
256,56,54282,1,8,0:0:0
256,56,54399,5,0,0:0:0
256,56,54633,5,8,0:0:0
256,56,54868,5,0,0:0:0
256,56,55102,1,0,0:0:0
256,56,55219,1,0,0:0:0
256,56,55336,5,8,0:0:0
256,56,55571,1,8,0:0:0
256,56,55805,5,0,0:0:0
256,56,56039,5,8,0:0:0
256,56,56157,1,8,0:0:0
256,56,56273,5,0,0:0:0
256,56,56508,1,0,0:0:0
256,56,56743,5,8,0:0:0
256,56,56977,1,8,0:0:0
256,56,57094,1,8,0:0:0
256,56,57211,1,8,0:0:0
256,56,57446,1,8,0:0:0
256,56,57680,5,0,0:0:0
256,56,57914,1,0,0:0:0
256,56,58032,1,0,0:0:0
256,56,58149,1,0,0:0:0
256,56,58383,1,0,0:0:0
256,56,58618,1,0,0:0:0
256,56,58852,5,8,0:0:0
256,56,58969,5,0,0:0:0
256,56,59086,1,0,0:0:0
256,56,59321,5,8,0:0:0
256,56,59555,5,0,0:0:0
256,56,59789,5,8,0:0:0
256,56,59907,5,0,0:0:0
256,56,60024,1,0,0:0:0
256,56,60141,1,0,0:0:0
256,56,60258,5,8,0:0:0
256,56,60493,5,4,0:0:0
256,56,60727,1,0,0:0:0
256,56,60844,1,0,0:0:0
256,56,60961,5,8,0:0:0
256,56,61196,1,8,0:0:0
256,56,61313,1,8,0:0:0
256,56,61430,5,0,0:0:0
256,56,61782,5,8,0:0:0
256,56,62133,1,8,0:0:0
256,56,62368,5,0,0:0:0
256,56,62602,1,0,0:0:0
256,56,62719,1,0,0:0:0
256,56,62836,5,8,0:0:0
256,56,63071,1,8,0:0:0
256,56,63305,5,0,0:0:0
256,56,63539,5,8,0:0:0
256,56,63774,5,0,0:0:0
256,56,64008,5,8,0:0:0
256,56,64243,5,0,0:0:0
256,56,64477,1,0,0:0:0
256,56,64594,1,0,0:0:0
256,56,64711,1,0,0:0:0
256,56,64946,1,0,0:0:0
256,56,65063,1,0,0:0:0
256,56,65180,5,8,0:0:0
256,56,65532,1,8,0:0:0
256,56,65883,1,8,0:0:0
256,56,66118,5,0,0:0:0
256,56,66352,5,8,0:0:0
256,56,66586,5,0,0:0:0
256,56,66821,5,8,0:0:0
256,56,67055,5,0,0:0:0
256,56,67172,1,0,0:0:0
256,56,67289,5,8,0:0:0
256,56,67407,1,0,0:0:0
256,56,67524,5,0,0:0:0
256,56,67758,5,8,0:0:0
256,56,67993,1,12,0:0:0
256,56,68344,1,8,0:0:0
256,56,68696,1,8,0:0:0
256,56,68930,5,0,0:0:0
256,56,69282,5,8,0:0:0
256,56,69633,1,8,0:0:0
256,56,69868,5,0,0:0:0
256,56,70102,1,0,0:0:0
256,56,70219,1,0,0:0:0
256,56,70336,5,8,0:0:0
256,56,70571,5,0,0:0:0
256,56,70805,1,0,0:0:0
256,56,70922,5,8,0:0:0
256,56,71039,1,8,0:0:0
256,56,71157,5,0,0:0:0
256,56,71274,5,8,0:0:0
256,56,71508,5,0,0:0:0
256,56,71743,5,8,0:0:0
256,56,72094,1,8,0:0:0
256,56,72446,1,8,0:0:0
256,56,72680,5,0,0:0:0
256,56,73032,5,8,0:0:0
256,56,73383,1,8,0:0:0
256,56,73618,1,12,0:0:0
256,56,73852,5,0,0:0:0
256,56,73969,1,0,0:0:0
256,56,74086,5,8,0:0:0
256,56,74321,1,8,0:0:0
256,56,74438,1,8,0:0:0
256,56,74555,5,0,0:0:0
256,56,74789,1,0,0:0:0
256,56,74907,1,0,0:0:0
256,56,75024,5,8,0:0:0
256,56,75258,1,8,0:0:0
256,56,75493,5,0,0:0:0
256,56,75844,1,0,0:0:0
256,56,75961,5,8,0:0:0
256,56,76430,5,0,0:0:0
256,56,76547,1,0,0:0:0
256,56,76664,5,8,0:0:0
256,56,76782,1,8,0:0:0
256,56,76899,5,0,0:0:0
256,56,77133,5,8,0:0:0
256,56,77368,1,12,0:0:0
256,56,77602,5,0,0:0:0
256,56,77719,1,0,0:0:0
256,56,77836,1,0,0:0:0
256,56,78071,1,0,0:0:0
256,56,78188,1,0,0:0:0
256,56,78305,5,8,0:0:0
256,56,78539,5,0,0:0:0
256,56,78656,5,8,0:0:0
256,56,78773,5,0,0:0:0
256,56,79008,5,8,0:0:0
256,56,79125,1,8,0:0:0
256,56,79242,5,0,0:0:0
256,56,79477,1,0,0:0:0
256,56,79594,5,8,0:0:0
256,56,79711,5,0,0:0:0
256,56,79828,1,0,0:0:0
256,56,79946,5,8,0:0:0
256,56,80063,1,8,0:0:0
256,56,80180,5,0,0:0:0
256,56,80414,5,8,0:0:0
256,56,80649,5,0,0:0:0
256,56,80883,5,8,0:0:0
256,56,81118,5,0,0:0:0
256,56,81352,1,0,0:0:0
256,56,81469,1,0,0:0:0
256,56,81586,5,8,0:0:0
256,56,81821,5,0,0:0:0
256,56,81938,5,8,0:0:0
256,56,82055,5,0,0:0:0
256,56,82289,5,8,0:0:0
256,56,82406,1,8,0:0:0
256,56,82523,5,0,0:0:0
256,56,82758,5,8,0:0:0
256,56,82875,5,0,0:0:0
256,56,82992,5,8,0:0:0
256,56,83227,5,0,0:0:0
256,56,83344,1,0,0:0:0
256,56,83461,5,8,0:0:0
256,56,83578,5,0,0:0:0
256,56,83696,5,8,0:0:0
256,56,83813,1,8,0:0:0
256,56,83930,5,0,0:0:0
256,56,84164,5,8,0:0:0
256,56,84282,1,8,0:0:0
256,56,84399,5,0,0:0:0
256,56,84633,5,8,0:0:0
256,56,84868,5,4,0:0:0
256,56,85102,1,0,0:0:0
256,56,85336,5,8,0:0:0
256,56,85571,1,8,0:0:0
256,56,85805,5,0,0:0:0
256,56,86039,1,0,0:0:0
256,56,86157,1,0,0:0:0
256,56,86274,5,8,0:0:0
256,56,86508,5,0,0:0:0
256,56,86743,5,8,0:0:0
256,56,86977,5,0,0:0:0
256,56,87094,5,8,0:0:0
256,56,87211,5,0,0:0:0
256,56,87446,5,8,0:0:0
256,56,87563,1,8,0:0:0
256,56,87680,5,0,0:0:0
256,56,87914,1,0,0:0:0
256,56,88032,1,0,0:0:0
256,56,88149,5,8,0:0:0
256,56,88383,1,8,0:0:0
256,56,88618,5,0,0:0:0
256,56,88852,1,0,0:0:0
256,56,88969,1,0,0:0:0
256,56,89086,5,8,0:0:0
256,56,89321,5,0,0:0:0
256,56,89438,1,0,0:0:0
256,56,89555,5,8,0:0:0
256,56,89672,5,0,0:0:0
256,56,89789,5,8,0:0:0
256,56,89907,5,0,0:0:0
256,56,90024,5,8,0:0:0
256,56,90141,1,8,0:0:0
256,56,90258,5,0,0:0:0
256,56,90493,5,8,0:0:0
256,56,90727,5,0,0:0:0
256,56,90844,1,0,0:0:0
256,56,90961,5,8,0:0:0
256,56,91196,5,0,0:0:0
256,56,91313,1,0,0:0:0
256,56,91430,1,0,0:0:0
256,56,91664,1,0,0:0:0
256,56,91782,1,0,0:0:0
256,56,91899,5,8,0:0:0
256,56,92133,1,8,0:0:0
256,56,92250,1,8,0:0:0
256,56,92368,5,0,0:0:0
256,56,92602,1,0,0:0:0
256,56,92719,1,0,0:0:0
256,56,92836,1,0,0:0:0
256,56,93071,1,0,0:0:0
256,56,93188,5,8,0:0:0
256,56,93305,5,0,0:0:0
256,56,93539,5,8,0:0:0
256,56,93656,1,8,0:0:0
256,56,93773,5,0,0:0:0
256,56,94008,1,0,0:0:0
256,56,94125,1,0,0:0:0
256,56,94242,1,0,0:0:0
256,56,94477,1,0,0:0:0
256,56,94594,1,0,0:0:0
256,56,94711,5,8,0:0:0
256,56,94828,5,0,0:0:0
256,56,94946,5,8,0:0:0
256,56,95063,5,0,0:0:0
256,56,95180,1,0,0:0:0
256,56,95414,5,8,0:0:0
256,56,95649,1,8,0:0:0
256,56,95883,5,0,0:0:0
256,56,96118,1,0,0:0:0
256,56,96352,1,0,0:0:0
256,56,96469,1,0,0:0:0
256,56,96586,5,8,0:0:0
256,56,96821,5,0,0:0:0
256,56,96938,1,0,0:0:0
256,56,97055,1,0,0:0:0
256,56,97289,1,0,0:0:0
256,56,97406,1,0,0:0:0
256,56,97523,5,8,0:0:0
256,56,97758,1,8,0:0:0
256,56,97875,1,8,0:0:0
256,56,97992,5,0,0:0:0
256,56,98227,1,0,0:0:0
256,56,98344,1,0,0:0:0
256,56,98461,5,8,0:0:0
256,56,98578,5,0,0:0:0
256,56,98696,1,0,0:0:0
256,56,98813,5,8,0:0:0
256,56,98930,5,0,0:0:0
256,56,99164,5,8,0:0:0
256,56,99282,5,0,0:0:0
256,56,99399,5,8,0:0:0
256,56,99633,1,8,0:0:0
256,56,99868,5,0,0:0:0
256,56,100102,1,0,0:0:0
256,56,100219,1,0,0:0:0
256,56,100336,5,8,0:0:0
256,56,100571,5,0,0:0:0
256,56,100688,1,0,0:0:0
256,56,100805,1,0,0:0:0
256,56,101039,5,8,0:0:0
256,56,101157,5,0,0:0:0
256,56,101274,5,8,0:0:0
256,56,101508,5,0,0:0:0
256,56,101743,1,0,0:0:0
256,56,101977,1,0,0:0:0
256,56,102094,1,0,0:0:0
256,56,102211,5,8,0:0:0
256,56,102446,5,0,0:0:0
256,56,102563,1,0,0:0:0
256,56,102680,1,0,0:0:0
256,56,102797,1,0,0:0:0
256,56,102914,5,8,0:0:0
256,56,103032,5,0,0:0:0
256,56,103149,5,8,0:0:0
256,56,103383,5,0,0:0:0
256,56,103618,5,8,0:0:0
256,56,103735,5,0,0:0:0
256,56,103852,1,0,0:0:0
256,56,103969,1,0,0:0:0
256,56,104086,5,8,0:0:0
256,56,104321,5,0,0:0:0
256,56,104555,5,8,0:0:0
256,56,104907,1,8,0:0:0
256,56,105258,1,8,0:0:0
256,56,105493,5,0,0:0:0
256,56,105610,1,0,0:0:0
256,56,105727,1,0,0:0:0
256,56,105844,1,0,0:0:0
256,56,105961,5,8,0:0:0
256,56,106078,1,8,0:0:0
256,56,106196,1,8,0:0:0
256,56,106313,1,8,0:0:0
256,56,106430,5,0,0:0:0
256,56,106547,1,0,0:0:0
256,56,106664,5,8,0:0:0
256,56,106781,1,8,0:0:0
256,56,106898,5,0,0:0:0
256,56,107015,1,0,0:0:0
256,56,107132,5,8,0:0:0
256,56,107368,1,12,0:0:0
