osu file format v10

[General]
AudioFilename: cutverserenadeoflove.mp3
AudioLeadIn: 2000
PreviewTime: 76650
Countdown: 0
SampleSet: Normal
StackLeniency: 0.7
Mode: 0
LetterboxInBreaks: 0

[Editor]
Bookmarks: 30479
DistanceSpacing: 1.4
BeatDivisor: 4
GridSize: 4

[Metadata]
Title:Serenade of Love
TitleUnicode:Serenade of Love
Artist:Hotaru
ArtistUnicode:Hotaru
Creator:- t e n n y a -
Version:Hard
Source:Touhou
Tags:Laurier Halozy Nitori Kawashiro Tonic Triangle ZUN Mountain of Faith The Gensokyo the Gods Loved Sumijun c81 inverness
BeatmapID:163983
BeatmapSetID:53847

[Difficulty]
HPDrainRate:5
CircleSize:4
OverallDifficulty:6
ApproachRate:7
SliderMultiplier:1.5
SliderTickRate:2

[Events]
//Background and Video events
0,0,"BG.jpg"
//Break Periods
//Storyboard Layer 0 (Background)
Sprite,Background,TopLeft,"BG.jpg",0,0
Sprite,Background,Centre,"SB\BG (1).jpg",320,240 S,0,493,,1.4096 F,0,493,7993,0,1 M,0,493,30493,320,449,320,381 F,0,28618,30493,1,0
Sprite,Background,Centre,"SB\BG (5).jpg",320,240 F,0,28618,30493,0,1 M,0,28618,45493,320,200,269,185 F,0,43618,45493,1,0
Sprite,Background,Centre,"SB\BG (3).jpg",320,240 S,0,43618,,1.16384 F,0,43618,45493,0,1 M,0,43618,66118,358,240,283,202 F,0,60493,69868,1,0
Sprite,Background,Centre,"SB\BG (2).jpg",320,240 S,0,60493,,1.08192 F,0,60493,69868,0,1 M,0,60493,77602,349,300,268,283 F,0,75493,75727,1,0.3 F,0,76664,77368,0.3,1 F,0,77368,77602,1,0 S,0,77368,77602,1,0.95
Sprite,Background,Centre,"SB\BG (4).jpg",320,240 M,0,77368,77602,321,394,319,392 F,0,77368,77602,0,1 S,0,77368,77602,0.95,1 M,0,77602,92602,319,392,321,318 F,0,92368,92602,1 S,0,92368,92602,1,0.95
Sprite,Background,Centre,"SB\BG (6).jpg",320,240 F,0,92368,92602,0,1 S,0,92368,92602,1,0.8771201 M,1,92368,111118,320,240,296,219 F,0,107368,111118,1,0
Sprite,Background,TopLeft,"SB\white.png",0,0 V,0,104555,,640,480 F,0,104555,107368,0,1 F,0,107368,109243,1,0
//Storyboard Layer 1 (Fail)
//Storyboard Layer 2 (Pass)
//Storyboard Layer 3 (Foreground)
Sprite,Foreground,Centre,"thingy\inverness.png",320,240 M,0,-3257,,320,217 F,0,-3257,-3022,0,1 F,0,-444,-210,0.9404255,0
Sprite,Foreground,Centre,"thingy\tennya.png",320,240 M,0,-3257,,320,263 F,0,-3257,-3022,0,1 F,0,-444,-210,0.9446809,0
Sprite,Foreground,Centre,"SB\thankyou.png",320,240 F,0,107368,107836,0,1 F,0,109243,111118,1,0
//Storyboard Sound Samples
//Background Colour Transformations
3,100,163,162,255

[TimingPoints]
493,468.75,4,1,1,30,1,0
14555,-133.333333333333,4,1,1,30,0,0
15258,-133.333333333333,4,2,1,30,0,0
15493,-100,4,1,1,50,0,1
15610,-100,4,1,1,50,0,0
43618,-100,4,2,0,40,0,0
45024,-100,4,2,0,20,0,0
45493,-100,4,2,1,60,0,0
77368,-100,4,1,1,50,0,1
88969,-100,4,2,2,50,0,1
89203,-100,4,1,1,50,0,1
90844,-100,4,2,2,50,0,1
91078,-100,4,1,1,50,0,1
92250,-100,4,1,1,50,0,0
92368,-100,4,1,1,50,0,1
106430,-100,4,2,1,70,0,1
107368,-100,4,2,1,50,0,0

[Colours]
Combo1 : 251,156,51
Combo2 : 158,206,254
Combo3 : 252,116,204

[HitObjects]
104,104,493,2,0,B|104:196,1,75
72,280,961,1,8,0:0:0
176,312,1196,1,0,0:0:0
376,264,1664,1,0,0:0:0
452,192,1899,2,0,B|452:104,2,75,8|0|0,0:0|0:0|0:0,0:0:0
376,264,2602,1,0,0:0:0
376,264,2836,6,0,B|364:220|320:212,1,75,8|0,0:0|0:0,0:0:0
244,148,3305,2,0,B|284:136|296:92,2,75,0|8|8,0:0|0:0|0:0,0:0:0
176,68,4008,1,0,0:0:0
92,214,4243,6,0,B|72:172|100:136,1,75
196,236,4711,2,0,B|224:280|188:328,1,75,8|0,0:0|0:0,0:0:0
300,116,5414,1,0,0:0:0
404,116,5649,2,0,B|504:116,2,75,8|0|0,0:0|0:0|0:0,0:0:0
352,16,6352,1,0,0:0:0
240,16,6586,1,8,0:0:0
176,108,6821,6,0,B|116:188,2,75,0|0|8,0:0|0:0|0:0,0:0:0
232,208,7524,1,8,0:0:0
344,228,7758,1,0,0:0:0
428,304,7993,6,0,B|400:344|340:340,1,75
252,352,8461,1,8,0:0:0
252,352,8696,1,0,0:0:0
88,224,9164,1,0,0:0:0
92,120,9399,2,0,B|0:120,2,75,8|0|0,0:0|0:0|0:0,0:0:0
180,180,10102,1,0,0:0:0
260,112,10336,6,0,B|336:64|408:120,1,150,8|0,0:0|0:0,0:0:0
448,208,11039,1,8,0:0:0
400,304,11274,1,8,0:0:0
304,344,11508,1,0,0:0:0
248,256,11743,6,0,B|216:160,1,75
120,152,12211,1,8,0:0:0
48,232,12446,1,0,0:0:0
184,72,12914,1,0,0:0:0
272,128,13149,2,0,B|336:180,1,75,8|0,0:0|0:0,0:0:0
408,248,13618,1,0,0:0:0
448,40,14086,2,0,B|392:104,1,75,8|0,0:0|0:0,0:0:0
332,176,14555,6,0,B|260:248|328:340,1,168.750006437302
432,328,15493,6,0,B|484:256|428:184,1,150,4|8,0:0|0:0,0:0:0
384,104,16196,1,0,0:0:0
288,104,16430,2,0,B|252:88|216:104,2,75,0|0|8,0:0|0:0|0:0,0:0:0
344,192,17133,1,0,0:0:0
344,192,17368,2,0,B|272:232|192:192,1,150,0|8,0:0|0:0,0:0:0
112,144,18071,1,0,0:0:0
48,224,18305,2,0,B|-8:312,2,75,0|8|8,0:0|0:0|0:0,0:0:0
152,232,19008,5,0,0:0:0
240,176,19243,2,0,B|312:216|400:172,1,150,0|8,0:0|0:0,0:0:0
456,100,19946,1,0,0:0:0
480,200,20180,2,0,B|512:236|512:296,1,75
408,252,20649,2,0,B|408:336,1,75,8|0,0:0|0:0,0:0:0
312,324,21118,6,0,B|276:376|180:340|204:260,1,150,0|8,0:0|0:0,0:0:0
288,192,21821,2,0,B|248:224|192:208,2,75,8|0|8,0:0|0:0|0:0,0:0:0
308,88,22524,1,8,0:0:0
212,128,22758,1,0,0:0:0
112,160,22993,6,0,B|92:68|8:48,1,150,4|8,0:0|0:0,0:0:0
12,156,23696,1,8,0:0:0
52,252,23930,1,0,0:0:0
144,304,24164,1,0,0:0:0
236,252,24399,1,8,0:0:0
292,164,24633,1,0,0:0:0
340,72,24868,6,0,B|388:88|408:60|408:60|428:88|488:72,2,150,0|8|0,0:0|0:0|0:0,0:0:0
236,88,26039,1,8,0:0:0
124,100,26274,2,8,B|76:112|32:76,1,75,8|0,0:0|0:0,0:0:0
0,188,26743,5,0,0:0:0
128,372,27211,1,8,0:0:0
264,192,27680,2,0,B|368:112,2,112.5,0|8|8,0:0|0:0|0:0,0:0:0
256,192,28500,12,0,30024,0:0:0
300,152,30493,5,6,0:0:0
300,152,30727,2,0,B|356:152,2,37.5,0|2|0,0:0|0:0|0:0,0:0:0
212,220,31196,1,2,0:0:0
104,252,31430,2,0,B|92:104,1,150,0|2,0:0|0:0,0:0:0
200,136,32133,1,2,0:0:0
288,64,32368,6,0,B|452:64,1,150,0|2,0:0|0:0,0:0:0
468,172,33071,1,2,0:0:0
440,280,33305,2,0,B|476:304,2,37.5,0|0|2,0:0|0:0|0:0,0:0:0
348,344,33774,1,0,0:0:0
268,264,34008,1,2,0:0:0
268,264,34243,6,0,B|296:196|272:108,1,150,0|2,0:0|0:0,0:0:0
176,60,34946,1,2,0:0:0
96,136,35180,2,0,B|104:192|160:212,2,75,0|0|2,0:0|0:0|0:0,0:0:0
20,220,35883,1,2,0:0:0
20,220,36118,6,0,B|20:320|20:320|52:356,1,150,0|2,0:0|0:0,0:0:0
164,372,36821,1,0,0:0:0
228,280,37055,2,0,B|312:324,1,75,2|0,0:0|0:0,0:0:0
464,278,37524,2,0,B|400:316,1,75,2|0,0:0|0:0,0:3:0
496,156,37993,6,2,B|502:92|407:56|372:133,1,150,6|2,0:0|0:0,0:0:0
332,200,38696,1,2,0:0:0
260,112,38930,2,2,B|216:66|127:116|163:192,1,150,2|2,0:0|0:0,0:0:0
140,272,39633,1,2,0:0:0
228,344,39868,6,0,B|269:353|297:333|297:333|333:349|373:329,1,150,0|2,0:0|0:0,0:0:0
424,256,40571,2,0,B|376:212|336:208,1,75,0|2,0:0|0:0,0:0:0
288,128,41039,2,0,B|244:176|240:216,2,75,0|2|0,0:0|0:0|0:0,0:0:0
196,76,41743,6,0,B|144:32|76:32,2,112.5,2|2|2,0:0|0:0|0:0,0:0:0
256,160,42680,2,0,B|308:204|376:204,2,112.5,2|2|2,0:0|0:0|0:0,0:0:0
256,192,43500,12,0,45024,0:0:0
460,308,45493,6,0,B|472:240|416:188,1,112.5,4|8,0:0|0:0,0:0:0
392,168,45961,1,8,0:0:0
320,256,46196,1,0,0:0:0
232,184,46430,2,0,B|288:160|328:96,2,112.5,0|8|8,0:0|0:0|0:0,0:0:0
116,164,47368,2,0,B|112:232|176:272,1,112.5,0|8,0:0|0:0,0:0:0
176,312,47836,1,8,0:0:0
256,240,48071,1,0,0:0:0
264,136,48305,6,0,B|328:148|360:212,1,112.5,0|8,0:0|0:0,0:0:0
392,236,48774,1,8,0:0:0
392,236,49008,1,0,0:0:0
444,336,49243,2,0,B|504:312|512:236,1,112.5,0|8,0:0|0:0,0:0:0
480,204,49711,1,8,0:0:0
396,128,49946,1,0,0:0:0
292,92,50180,2,0,B|256:56|200:64,1,75,0|8,0:0|0:0,0:0:0
120,189,50649,2,0,B|164:192|188:160,1,75,0|8,0:0|0:0,0:0:0
76,92,51118,6,0,B|40:136|48:208,1,112.5,0|8,0:0|0:0,0:0:0
20,244,51586,1,8,0:0:0
124,224,51821,1,0,0:0:0
200,296,52055,2,0,B|268:360,1,75,0|8,0:0|0:0,0:0:0
378,319,52524,2,0,B|324:268,1,75,0|8,0:0|0:0,0:3:0
460,252,52993,6,0,B|504:180|456:92,1,150,0|8,0:0|0:0,0:0:0
364,92,53696,1,0,0:0:0
364,92,53813,1,0,0:0:0
364,92,53930,2,0,B|336:152|252:168,1,112.5,0|8,0:0|0:0,0:0:0
240,196,54399,1,8,0:0:0
152,252,54633,1,0,0:0:0
68,188,54868,6,0,B|40:128|64:96,1,75,0|8,0:0|0:0,0:0:0
217,68,55336,2,0,B|176:52|144:64,1,75,0|8,0:0|0:0,0:0:0
316,112,55805,2,0,B|376:120|448:112,1,112.5,0|8,0:0|0:0,0:0:0
484,112,56274,1,8,0:0:0
504,224,56508,1,0,0:0:0
392,252,56743,6,0,B|316:288|248:248,1,150,0|8,0:0|0:0,0:0:0
136,252,57446,1,0,0:0:0
100,144,57680,2,0,B|176:108|244:148,1,150,0|8,0:0|0:0,0:0:0
288,252,58383,1,0,0:0:0
388,304,58618,6,0,B|388:160,1,112.5,8|0,0:0|0:0,0:0:0
436,164,59086,1,8,0:0:0
384,64,59321,1,0,0:0:0
384,64,59438,1,0,0:0:0
384,64,59555,2,0,B|320:88|220:84,1,150,8|0,0:0|0:0,0:0:0
168,176,60258,1,0,0:0:0
220,276,60493,6,0,B|260:320|336:332,1,112.5,4|8,0:0|0:0,0:0:0
348,288,60961,1,8,0:0:0
356,176,61196,2,0,B|356:108,2,37.5
304,64,61664,1,0,0:0:0
304,64,61782,1,0,0:0:0
304,64,61899,2,0,B|260:92|240:148,1,75,8|0,0:0|0:0,0:0:0
316,204,62368,6,0,B|264:220|224:208|192:152,1,112.5,0|0,0:0|0:0,0:0:0
172,152,62836,2,0,B|128:160|112:196,1,75,8|0,0:0|0:0,0:0:0
152,292,63305,2,0,B|240:292,1,75,0|8,0:0|0:0,0:0:0
386,361,63774,2,0,B|320:304,1,75,0|8,0:0|0:0,0:3:0
444,272,64243,6,0,B|476:216|452:140,1,112.5,0|0,0:0|0:0,0:0:0
458,162,64711,1,8,0:0:0
368,108,64946,1,0,0:0:0
268,132,65180,2,0,B|236:188|276:264,1,112.5,0|0,0:0|0:0,0:0:0
264,240,65649,1,8,0:0:0
256,344,65883,1,0,0:0:0
144,316,66118,2,0,B|104:344|48:348,1,75,2|0,0:0|0:0,0:0:0
44,244,66586,6,0,B|0:216,2,37.5,2|0|0,0:0|0:0|0:0,0:0:0
120,172,67055,1,2,0:0:0
120,172,67289,1,0,0:0:0
196,244,67524,2,0,B|248:220,2,37.5,2|0|0,0:0|0:0|0:0,0:0:0
120,172,67993,6,0,B|132:108|184:60,1,112.5,0|8,0:0|0:0,0:0:0
224,80,68461,1,8,0:0:0
320,124,68696,1,0,0:0:0
396,208,68930,2,0,B|444:240|464:312,2,112.5,0|8|8,0:0|0:0|0:0,0:0:0
328,276,69868,2,0,B|256:232|156:272,1,150,0|2,0:0|0:0,0:0:0
88,220,70571,1,2,0:0:0
124,120,70805,5,0,0:0:0
124,120,70922,1,0,0:0:0
124,120,71039,1,0,0:0:0
224,84,71274,1,2,0:0:0
304,152,71508,1,2,0:0:0
392,92,71743,5,0,0:0:0
480,148,71977,2,0,B|480:200|440:224,1,75,0|8,0:0|0:0,0:0:0
400,308,72446,1,8,0:0:0
308,248,72680,2,0,B|272:200|200:208,2,112.5,0|8|8,0:0|0:0|0:0,0:0:0
380,172,73618,6,0,B|416:96|380:20,1,150,0|4,0:0|0:0,0:0:0
128,26,74555,2,0,B|96:96|132:172,1,150,0|4,0:0|0:0,0:0:0
256,340,75493,6,0,B|324:332|344:312,1,75,2|0,0:0|0:0,0:0:0
344,220,75961,2,0,B|412:228|432:248,1,75,8|2,0:0|0:0,0:0:0
468,144,76430,1,2,0:0:0
392,72,76664,1,0,0:0:0
364,80,76782,1,0,0:0:0
336,84,76899,1,4,0:0:0
248,152,77133,1,0,0:0:0
124,128,77368,6,0,B|88:180|120:264,1,112.5,4|0,0:0|0:0,0:0:0
148,276,77836,1,8,0:0:0
252,320,78071,1,8,0:0:0
340,252,78305,2,0,B|400:220|392:172,1,75,0|0,0:0|0:0,0:0:0
304,128,78774,2,0,B|244:160|252:208,1,75,8|0,0:0|0:0,0:0:0
140,188,79243,6,0,B|148:124|196:76,1,112.5,0|0,0:0|0:0,0:0:0
236,68,79711,1,8,0:0:0
236,68,79946,1,8,0:0:0
348,68,80180,1,0,0:0:0
428,144,80414,1,0,0:0:0
480,252,80649,5,8,0:0:0
480,252,80766,1,0,0:0:0
480,252,80883,1,8,0:0:0
368,264,81118,2,0,B|320:300|236:284,1,112.5,0|0,0:0|0:0,0:0:0
224,244,81586,1,8,0:0:0
152,156,81821,1,8,0:0:0
68,80,82055,6,0,B|16:148|68:248,1,150,0|8,0:0|0:0,0:0:0
152,156,82758,1,0,0:0:0
240,84,82993,2,0,B|292:152|248:248,1,150,0|8,0:0|0:0,0:0:0
176,316,83696,1,8,0:0:0
280,364,83930,1,0,0:0:0
372,296,84164,2,0,B|424:296,2,37.5,0|0|8,0:0|0:0|0:0,0:0:0
304,204,84633,1,0,0:0:0
384,136,84868,6,0,B|344:88|264:88|232:128,1,150,0|8,0:0|0:0,0:0:0
248,228,85571,1,8,0:0:0
136,236,85805,1,0,0:0:0
104,128,86039,1,0,0:0:0
104,128,86157,1,0,0:0:0
104,128,86274,1,8,0:0:0
196,60,86508,1,0,0:0:0
308,60,86743,6,0,B|484:60,2,150,0|8|0,0:0|0:0|0:0,0:0:0
232,140,87914,1,0,0:0:0
272,244,88149,1,8,0:0:0
328,340,88383,1,0,0:0:0
384,240,88618,6,0,B|421:225|458:239|458:239|421:200|436:134|496:126,1,225,4|8,0:0|0:0,0:0:0
428,48,89555,1,0,0:0:0
328,84,89789,2,0,B|288:104|232:80,2,75,0|8|0,0:0|0:0|0:0,0:0:0
332,196,90493,2,0,B|344:248|292:316|216:316|152:268,1,225,0|8,0:0|0:0,0:0:0
80,216,91430,1,0,0:0:0
40,112,91664,5,0,0:0:0
152,100,91899,1,8,0:0:0
224,12,92133,1,0,0:0:0
336,28,92368,6,0,B|400:12|456:56,1,112.5,4|0,0:0|0:0,0:0:0
476,92,92836,1,8,0:0:0
456,204,93071,2,0,B|428:264|388:280,1,75,0|0,0:0|0:0,0:0:0
312,212,93539,2,0,B|340:152|380:136,1,75,0|8,0:0|0:0,0:0:0
272,80,94008,1,0,0:0:0
168,124,94243,6,0,B|104:104|40:112,1,112.5,0|0,0:0|0:0,0:0:0
0,124,94711,1,8,0:0:0
24,232,94946,2,0,B|24:296,2,37.5,0|0|0,0:0|0:0|0:0,0:0:0
132,241,95414,2,0,B|132:188,2,37.5,0|0|8,0:0|0:0|0:0,0:0:0
228,148,95883,1,0,0:0:0
228,148,96118,6,0,B|276:200|256:276,1,112.5,0|0,0:0|0:0,0:0:0
260,251,96586,1,8,0:0:0
332,332,96821,1,8,0:0:0
428,376,97055,1,0,0:0:0
512,320,97289,1,0,0:0:0
500,216,97524,2,0,B|436:140,1,75,8|0,0:0|0:0,0:0:0
376,84,97993,6,0,B|352:144|264:160,1,112.5,0|0,0:0|0:0,0:0:0
252,116,98461,1,8,0:0:0
152,64,98696,2,0,B|100:60|72:120,1,75,8|0,0:0|0:0,0:0:0
44,200,99164,1,0,0:0:0
44,200,99282,1,0,0:0:0
44,200,99399,2,0,B|132:176|140:204,1,75,8|0,0:0|0:0,0:0:0
196,316,99868,6,0,B|264:304|296:232,1,112.5,4|0,0:0|0:0,0:0:0
340,240,100336,1,8,0:0:0
452,248,100571,2,0,B|520:200|496:96,1,150,0|0,0:0|0:0,0:0:0
404,56,101274,2,0,B|336:28|308:44,1,75,8|0,0:0|0:0,0:0:0
204,40,101743,6,0,B|144:32|108:44,1,75,0|0,0:0|0:0,0:0:0
44,112,102211,2,0,B|36:180|48:208,1,75,8|0,0:0|0:0,0:0:0
92,288,102680,2,0,B|144:320|232:296,1,112.5,0|0,0:0|0:0,0:0:0
244,264,103149,1,8,0:0:0
348,308,103383,1,8,0:0:0
404,216,103618,6,0,B|448:148|416:64,1,150,4|8,0:0|0:0,0:0:0
308,84,104321,2,0,B|248:104,1,37.5,0|0,0:0|0:0,0:0:0
220,108,104555,2,0,B|136:128|60:104,1,150,0|8,0:0|0:0,0:0:0
52,220,105258,1,0,0:0:0
156,268,105493,6,0,B|204:284|212:344,1,75,0|0,0:0|0:0,0:0:0
316,336,105961,1,8,0:0:0
392,252,106196,1,0,0:0:0
296,192,106430,6,0,B|308:136,1,37.5,8|0,0:0|0:0,0:0:0
236,118,106664,2,0,B|232:156,1,37.5,8|0,0:0|0:0,0:0:0
164,140,106899,2,0,B|164:88,1,37.5,8|0,0:0|0:0,0:0:0
86,99,107133,2,0,B|96:136,2,37.5,8|0|12,0:0|0:0|0:0,0:0:0
