osu file format v14

[General]
AudioFilename: Light.mp3
AudioLeadIn: 0
PreviewTime: 91384
Countdown: 0
SampleSet: Normal
StackLeniency: 0.5
Mode: 0
LetterboxInBreaks: 1
EpilepsyWarning: 1
WidescreenStoryboard: 1

[Editor]
Bookmarks: 12396,24548,36700,48852,73156,97460,121763
DistanceSpacing: 0.8
BeatDivisor: 4
GridSize: 4
TimelineZoom: 1.1

[Metadata]
Title:Hikari
TitleUnicode:光
Artist:Hotaru
ArtistUnicode:ほたる
Creator:Krauv
Version:Normal
Source:Touhou
Tags:captain minamitsu murasa eastnewsound spectral rejection undefined fantastic object light 東方
BeatmapID:624581
BeatmapSetID:275377

[Difficulty]
HPDrainRate:4.7
CircleSize:3.5
OverallDifficulty:4.5
ApproachRate:5
SliderMultiplier:1.3
SliderTickRate:2

[Events]
//Background and Video events
0,0,"bg.jpg",0,0
//Break Periods
2,36899,47652
//Storyboard Layer 0 (Background)
//Storyboard Layer 1 (Fail)
//Storyboard Layer 2 (Pass)
//Storyboard Layer 3 (Foreground)
//Storyboard Sound Samples

[TimingPoints]
245,379.746835443038,4,1,1,50,1,0
22982,-100,4,1,1,60,0,0
24121,-100,4,2,1,100,0,0
24216,-100,4,1,1,50,0,0
25593,-100,4,1,2,50,0,0
25782,-100,4,1,1,50,0,0
27112,-100,4,1,2,50,0,0
27301,-100,4,1,1,50,0,0
28441,-100,4,1,4,50,0,0
28631,-100,4,1,1,50,0,0
31669,-100,4,1,2,50,0,0
31858,-100,4,1,1,50,0,0
33188,-100,4,1,2,50,0,0
33377,-100,4,1,1,50,0,0
33995,-100,4,1,2,50,0,0
34089,-100,4,1,1,50,0,0
35134,-100,4,1,1,60,0,0
36653,-100,4,1,1,100,0,0
36795,-100,4,1,1,50,0,0
49896,-100,4,1,2,50,0,0
50086,-100,4,1,1,50,0,0
55972,-100,4,1,2,50,0,0
56162,-100,4,1,1,50,0,0
58251,-100,4,1,2,50,0,0
58441,-100,4,1,1,50,0,0
60055,-100,4,1,1,70,0,0
60909,-100,4,1,1,50,0,0
70118,-133.333333333333,4,1,1,50,0,0
73061,-100,4,1,3,50,0,0
73441,-100,4,1,2,50,0,0
73631,-100,4,1,3,50,0,0
76479,-100,4,1,2,50,0,0
76669,-100,4,1,3,50,0,0
79517,-100,4,1,2,50,0,0
79707,-100,4,1,3,50,0,0
88631,-100,4,1,2,50,0,0
88820,-100,4,1,3,50,0,0
97460,-100,4,1,3,50,0,1
101542,-100,4,1,2,50,0,1
101732,-100,4,1,3,50,0,1
106906,-100,4,1,2,50,0,1
107001,-100,4,1,3,50,0,1
108045,-100,4,1,3,60,0,1
108409,-100,4,1,3,65,0,1
108789,-100,4,1,3,70,0,1
109169,-100,4,1,3,60,0,1
109517,-100,4,1,3,50,0,0
109612,-100,4,1,3,50,0,1
112175,-100,4,1,2,50,0,1
112365,-100,4,1,3,50,0,1
119058,-100,4,1,2,50,0,1
119153,-100,4,1,3,50,0,1
120197,-100,4,1,3,60,0,1
120561,-100,4,1,3,65,0,1
120941,-100,4,1,3,70,0,1
121320,-100,4,1,3,60,0,1
121700,-100,4,1,3,60,0,1
121763,-100,4,1,0,70,0,0

[Colours]
Combo1 : 0,81,81
Combo2 : 0,64,128
Combo3 : 0,138,138
Combo4 : 0,215,215

[HitObjects]
208,152,12396,5,4,0:0:0:0:
352,96,12776,1,0,0:0:0:0:
416,240,13156,1,0,0:0:0:0:
416,240,13346,2,0,B|384:232|384:232|352:240|352:240|320:232|320:232|288:240,2,130
480,192,14295,2,0,P|488:128|480:64,1,130
408,32,14865,2,0,P|400:96|408:160,1,130
336,192,15434,6,0,B|312:184|312:184|304:192|304:192|264:176|208:192,1,130,4|0,0:0|0:0,0:0:0:0:
96,296,16194,1,0,0:0:0:0:
96,296,16384,2,0,P|104:216|16:160,1,195,0|4,0:0|0:0,0:0:0:0:
136,56,17333,6,0,P|200:72|264:56,1,130
328,16,17903,2,0,P|360:40|360:184,1,195,0|4,0:0|0:0,0:0:0:0:
64,280,19232,5,4,0:0:0:0:
376,280,19991,1,4,0:0:0:0:
72,208,20751,1,4,0:0:0:0:
384,208,21510,2,0,B|392:144|392:144|384:112,2,97.5,4|0|0,0:0|0:0|0:0,0:0:0:0:
312,176,22270,2,0,B|304:240|304:240|256:288,1,130,4|0,0:0|0:0,0:0:0:0:
174,155,23029,6,0,L|166:107,9,43.3333333333333,8|0|0|8|0|0|8|0|0|4,0:0|0:0|0:0|0:0|0:0|0:0|0:0|0:0|0:0|0:0,0:0:0:0:
208,264,24548,6,0,P|272:248|336:264,2,130,6|10|2,0:0|0:0|0:0,0:0:0:0:
160,328,25498,2,0,P|128:280|160:200,1,130,2|2,0:0|0:0,0:0:0:0:
384,176,26447,2,0,P|440:136|440:64,1,130,10|2,0:0|0:0,0:0:0:0:
368,96,27017,2,0,B|304:104|304:104|240:88,1,130,2|2,0:0|0:0,0:0:0:0:
160,88,27586,6,0,P|152:152|160:216,1,130,0|10,0:0|0:0,0:0:0:0:
304,280,28346,2,0,P|312:216|304:152,1,130,2|8,0:0|0:0,0:0:0:0:
232,184,28915,1,2,0:0:0:0:
232,184,29105,2,0,L|232:320,2,130,2|10|2,0:0|0:0|0:0,0:0:0:0:
232,104,30055,1,2,0:0:0:0:
232,104,30434,1,2,0:0:0:0:
304,72,30624,6,0,P|368:72|440:80,1,130,2|10,0:0|0:0,0:0:0:0:
448,232,31384,1,2,0:0:0:0:
448,232,31574,2,0,P|424:174|358:151,2,130,2|2|0,0:0|0:0|0:0,0:0:0:0:
368,232,32523,1,10,0:0:0:0:
208,232,32903,1,2,0:0:0:0:
128,232,33093,2,0,P|152:174|218:151,1,130,2|2,0:0|0:0,0:0:0:0:
288,152,33662,6,0,L|288:256,2,97.5,2|2|2,0:0|0:0|0:0,0:0:0:0:
352,104,34422,2,0,P|288:72|224:104,1,130,2|8,0:0|0:0,0:0:0:0:
88,128,35181,6,0,L|40:136,12,43.3333333333333,8|0|0|8|0|0|8|0|0|8|0|0|4,0:0|0:0|0:0|0:0|0:0|0:0|0:0|0:0|0:0|0:0|0:0|0:0|0:0,0:0:0:0:
192,152,48852,6,0,L|328:160,1,130,4|8,0:0|0:0,0:0:0:0:
480,160,49612,1,0,0:0:0:0:
480,160,49801,2,0,P|488:224|480:288,1,130
400,280,50371,2,0,P|336:272|272:280,2,130,0|8|0,0:0|0:0|0:0,0:0:0:0:
400,120,51510,5,8,0:0:0:0:
400,120,51700,2,0,B|336:104|336:104|264:104,1,130
192,104,52270,2,0,B|128:104|128:104|64:88,1,130,8|0,0:0|0:0,0:0:0:0:
64,248,53029,1,8,0:0:0:0:
64,248,53219,2,0,B|80:248|80:248|96:240|96:240|145:268|192:240,1,130
144,176,53789,2,0,P|208:168|264:224,1,130,8|0,0:0|0:0,0:0:0:0:
256,360,54548,1,8,0:0:0:0:
400,304,54928,5,0,0:0:0:0:
344,160,55308,1,8,0:0:0:0:
400,16,55688,1,0,0:0:0:0:
400,16,55877,2,0,P|336:8|272:16,2,130
112,136,57586,5,8,0:0:0:0:
112,136,57776,1,0,0:0:0:0:
112,136,57966,2,0,B|160:144|160:144|208:136|208:136|288:168|368:136,1,260,4|0,0:0|0:0,0:0:0:0:
472,248,59105,5,8,0:0:0:0:
472,248,59295,2,0,B|400:240|400:240|376:248|376:248|352:240|352:240|272:248,1,195,0|8,0:0|0:0,0:0:0:0:
120,248,60245,2,0,B|138:143,2,97.5,8|8|8,0:0|0:0|0:0,0:0:0:0:
200,248,61004,6,0,L|224:112,1,130,4|8,0:0|0:0,0:0:0:0:
376,136,61763,1,0,0:0:0:0:
376,136,61953,2,0,L|384:200,2,65,0|8|0,0:0|0:0|0:0,0:0:0:0:
304,168,62523,2,0,B|310:235|310:235|310:298,2,130,0|8|0,0:0|0:0|0:0,0:0:0:0:
456,136,63662,5,0,0:0:0:0:
456,136,63852,2,0,P|484:223|456:320,1,195,0|8,0:0|0:0,0:0:0:0:
328,232,64801,1,0,0:0:0:0:
184,296,65181,5,8,0:0:0:0:
184,296,65371,2,0,B|152:272|152:272|105:292|64:264,1,130
115,203,65941,2,0,L|139:75,1,130,8|0,0:0|0:0,0:0:0:0:
296,88,66700,6,0,P|360:96|424:88,2,130,8|4|8,0:0|0:0|0:0,0:0:0:0:
240,232,67839,1,0,0:0:0:0:
240,232,68029,2,0,L|248:168,1,65,0|8,0:0|0:0,0:0:0:0:
320,200,68409,2,0,P|355:279|440:248,1,195,0|8,0:0|0:0,0:0:0:0:
463,93,69358,1,0,0:0:0:0:
312,56,69738,5,8,0:0:0:0:
312,56,69928,1,0,0:0:0:0:
312,56,70118,2,0,B|240:104|168:56|104:8|32:56,1,292.50001115799,4|0,0:0|0:0,0:0:0:0:
16,112,71447,1,8,0:0:0:0:
16,112,72396,1,8,0:0:0:0:
88,248,73156,5,4,0:0:0:0:
88,248,73346,2,0,B|152:256|152:256|200:248,2,97.5,2|2|2,0:0|0:0|0:0,0:0:0:0:
88,168,74105,2,0,B|88:136|88:136|96:104,2,65,0|8|2,0:0|0:0|0:0,0:0:0:0:
168,176,74675,2,0,P|232:168|296:176,1,130,0|8,0:0|0:0,0:0:0:0:
304,256,75245,2,0,P|368:264|432:256,1,130
464,184,75814,1,8,0:0:0:0:
464,184,76004,1,0,0:0:0:0:
336,88,76384,6,0,B|272:80|272:80|240:88,2,97.5,2|2|2,0:0|0:0|0:0,0:0:0:0:
328,168,77143,1,0,0:0:0:0:
328,168,77333,2,0,L|320:240,1,65,8|2,0:0|0:0,0:0:0:0:
312,312,77713,2,0,P|256:288|244:207,2,130,0|8|0,0:0|0:0|0:0,0:0:0:0:
472,312,78852,1,8,0:0:0:0:
472,152,79232,5,0,0:0:0:0:
472,152,79422,2,0,B|440:160|440:160|376:152,2,97.5,2|2|2,0:0|0:0|0:0,0:0:0:0:
440,80,80181,1,0,0:0:0:0:
368,48,80371,1,8,0:0:0:0:
288,52,80561,1,2,0:0:0:0:
240,112,80751,6,0,P|184:152|112:152,1,130,0|8,0:0|0:0,0:0:0:0:
80,92,81320,2,0,P|136:52|208:52,1,130
240,112,81890,1,8,0:0:0:0:
240,112,82080,1,0,0:0:0:0:
256,192,82270,12,0,85308,0:0:0:0:
144,152,86257,5,0,0:0:0:0:
144,152,86447,2,0,L|136:216,1,65,8|0,0:0|0:0,0:0:0:0:
208,248,86827,2,0,P|240:288|320:304,1,130,0|8,0:0|0:0,0:0:0:0:
392,305,87396,2,0,P|454:294|498:247,1,130
496,168,87966,1,8,0:0:0:0:
496,168,88156,1,0,0:0:0:0:
376,72,88536,6,0,B|376:136|376:136|368:168,2,97.5,2|2|2,0:0|0:0|0:0,0:0:0:0:
300,52,89295,2,0,B|249:52|249:52|230:46,2,65,0|0|2,0:0|0:0|0:0,0:0:0:0:
300,128,89865,2,0,B|236:128|236:128|164:104,2,130,0|8|0,0:0|0:0|0:0,0:0:0:0:
256,296,91384,5,4,0:0:0:0:
48,192,91953,1,4,0:0:0:0:
256,88,92523,1,4,0:0:0:0:
256,168,92713,2,0,L|392:176,2,130,4|4|4,0:0|0:0|0:0,0:0:0:0:
256,168,93662,5,8,0:0:0:0:
120,248,94042,1,8,0:0:0:0:
120,248,94422,5,4,0:0:0:0:
336,328,94991,1,4,0:0:0:0:
424,112,95561,1,4,0:0:0:0:
304,216,95941,1,4,0:0:0:0:
192,104,96320,1,4,0:0:0:0:
304,216,96700,1,4,0:0:0:0:
304,216,96890,2,0,L|312:80,1,130,4|0,0:0|0:0,0:0:0:0:
392,96,97460,6,0,L|384:232,1,130,4|8,0:0|0:0,0:0:0:0:
464,232,98029,2,0,L|472:96,1,130
472,24,98599,1,8,0:0:0:0:
396,8,98789,2,0,P|332:0|268:8,1,130
236,80,99358,2,0,L|228:216,1,130,8|0,0:0|0:0,0:0:0:0:
152,224,99928,1,0,0:0:0:0:
152,224,100118,1,8,0:0:0:0:
152,224,100308,1,0,0:0:0:0:
72,228,100498,6,0,P|64:164|72:100,2,130,2|10|2,0:0|0:0|0:0,0:0:0:0:
88,304,101447,2,0,B|120:312|120:312|216:304,1,130,2|2,0:0|0:0,0:0:0:0:
296,296,102017,2,0,L|304:232,2,65,2|0|2,0:0|0:0|0:0,0:0:0:0:
448,328,102776,1,2,0:0:0:0:
448,328,102966,2,0,L|456:264,1,65,2|8,0:0|0:0,0:0:0:0:
424,192,103346,5,0,0:0:0:0:
424,192,103536,2,0,B|416:128|416:128|384:64,1,130,4|8,0:0|0:0,0:0:0:0:
316,104,104105,2,0,B|252:120|252:120|188:104,1,130
119,69,104675,1,8,0:0:0:0:
119,69,104865,6,0,B|86:129|86:129|75:190,1,130
48,264,105434,2,0,B|80:272|80:272|176:264,1,130,8|0,0:0|0:0,0:0:0:0:
256,256,106004,2,0,L|288:312,2,65,0|8|0,0:0|0:0|0:0,0:0:0:0:
256,176,106574,6,0,B|288:168|288:168|312:176|312:176|352:168,2,97.5,4|0|0,0:0|0:0|0:0,0:0:0:0:
236,100,107333,2,0,B|288:88|288:88|317:96|317:96|392:79,1,130,0|8,0:0|0:0,0:0:0:0:
480,168,108093,6,0,L|488:232,12,43.3333333333333,8|0|0|8|0|0|8|0|0|8|0|0|4,0:0|0:0|0:0|0:0|0:0|0:0|0:0|0:0|0:0|0:0|0:0|0:0|0:0,0:0:0:0:
328,192,109991,5,8,0:0:0:0:
328,192,110181,2,0,P|264:208|200:192,1,130
176,120,110751,2,0,L|184:56,2,65,8|0|0,0:0|0:0|0:0,0:0:0:0:
24,160,111510,1,8,0:0:0:0:
136,272,111890,1,0,0:0:0:0:
136,272,112080,2,0,B|200:280|200:280|272:272,1,130
296,200,112650,6,0,B|360:200|360:200|424:184,2,130,2|10|2,0:0|0:0|0:0,0:0:0:0:
296,120,113599,2,0,B|352:120|352:120|384:112,1,65,2|8,0:0|0:0,0:0:0:0:
438,105,113979,2,0,L|488:96,2,32.5,2|0|2,0:0|0:0|0:0,0:0:0:0:
304,24,114548,1,10,0:0:0:0:
152,64,114928,1,2,0:0:0:0:
152,64,115118,2,0,L|160:128,1,65,2|8,0:0|0:0,0:0:0:0:
118,196,115498,5,0,0:0:0:0:
118,196,115688,2,0,B|158:204|158:204|246:196,1,130,4|8,0:0|0:0,0:0:0:0:
246,276,116257,2,0,L|382:260,1,130
453,249,116827,1,8,0:0:0:0:
453,249,117017,1,0,0:0:0:0:
453,171,117207,6,0,B|453:107|453:107|397:67,1,130,4|8,0:0|0:0,0:0:0:0:
248,104,117966,1,0,0:0:0:0:
96,64,118346,1,8,0:0:0:0:
96,64,118536,1,0,0:0:0:0:
96,144,118726,6,0,B|96:184|96:184|128:232,2,97.5,4|0|0,0:0|0:0|0:0,0:0:0:0:
173,159,119485,2,0,L|253:271,1,130,0|8,0:0|0:0,0:0:0:0:
256,192,120055,12,4,121763,0:0:0:0:
