osu file format v14

[General]
AudioFilename: Light.mp3
AudioLeadIn: 0
PreviewTime: 91384
Countdown: 0
SampleSet: Normal
StackLeniency: 0.5
Mode: 0
LetterboxInBreaks: 1
EpilepsyWarning: 1
WidescreenStoryboard: 1

[Editor]
Bookmarks: 12396,24548,36700,48852,73156,97460,121763
DistanceSpacing: 0.8
BeatDivisor: 4
GridSize: 8
TimelineZoom: 1.1

[Metadata]
Title:Hikari
TitleUnicode:光
Artist:Hotaru
ArtistUnicode:ほたる
Creator:Krauv
Version:Insane
Source:Touhou
Tags:captain minamitsu murasa eastnewsound spectral rejection undefined fantastic object light 東方
BeatmapID:624579
BeatmapSetID:275377

[Difficulty]
HPDrainRate:7.4
CircleSize:4.3
OverallDifficulty:7.4
ApproachRate:8.5
SliderMultiplier:1.8
SliderTickRate:2

[Events]
//Background and Video events
0,0,"bg.jpg",0,0
//Break Periods
2,36900,47797
//Storyboard Layer 0 (Background)
//Storyboard Layer 1 (Fail)
//Storyboard Layer 2 (Pass)
//Storyboard Layer 3 (Foreground)
//Storyboard Sound Samples

[TimingPoints]
245,379.746835443038,4,1,1,50,1,0
22982,-100,4,1,1,60,0,0
24121,-100,4,2,1,100,0,0
24216,-100,4,1,1,50,0,0
25593,-100,4,1,2,50,0,0
25782,-100,4,1,1,50,0,0
27112,-100,4,1,2,50,0,0
27301,-100,4,1,1,50,0,0
31669,-100,4,1,2,50,0,0
31858,-100,4,1,1,50,0,0
33995,-100,4,1,2,50,0,0
34089,-100,4,1,1,50,0,0
35134,-100,4,1,1,60,0,0
36653,-100,4,1,1,100,0,0
36795,-100,4,1,1,50,0,0
60055,-100,4,1,1,70,0,0
60909,-100,4,1,1,50,0,0
62048,-100,4,1,2,50,0,0
62238,-100,4,1,1,50,0,0
66700,-100,4,2,1,50,0,0
67080,-100,4,1,1,50,0,0
68124,-100,4,1,2,50,0,0
68314,-100,4,1,1,50,0,0
70118,-200,4,1,1,50,0,0
73061,-100,4,1,3,50,0,0
97460,-100,4,1,3,50,0,1
106906,-100,4,1,2,50,0,1
107001,-100,4,1,3,50,0,1
108045,-100,4,1,3,60,0,1
108409,-100,4,1,3,65,0,1
108789,-100,4,1,3,70,0,1
109169,-100,4,1,3,60,0,1
109517,-100,4,1,3,50,0,0
109612,-100,4,1,3,50,0,1
113694,-100,4,1,2,50,0,1
113884,-100,4,1,3,50,0,1
117301,-100,4,1,3,30,0,1
117966,-100,4,1,3,50,0,1
119058,-100,4,1,2,50,0,1
119153,-100,4,1,3,50,0,1
120197,-100,4,1,3,60,0,1
120561,-100,4,1,3,65,0,1
120941,-100,4,1,3,70,0,1
121320,-100,4,1,3,60,0,1
121700,-100,4,1,3,60,0,1
121763,-100,4,1,0,50,0,0

[Colours]
Combo1 : 0,81,81
Combo2 : 0,64,128
Combo3 : 0,138,138
Combo4 : 0,215,215

[HitObjects]
120,96,12396,5,4,0:0:0:0:
392,96,12776,1,0,0:0:0:0:
256,328,13156,1,0,0:0:0:0:
128,272,13346,2,0,B|120:184|120:184|128:176|128:176|120:96,1,180
206,297,13915,2,0,L|200:208,1,90,0|0,2:0|2:0,0:0:0:0:
48,152,14295,2,0,L|41:62,1,90,0|0,1:0|2:0,0:0:0:0:
200,208,14675,1,0,0:0:0:0:
200,208,14865,2,0,B|208:160|208:160|192:136|192:136|216:80|176:24,1,180
408,8,15434,6,0,P|434:69|392:168,1,180,4|0,0:0|0:0,0:0:0:0:
304,80,16004,1,0,0:0:0:0:
408,8,16194,1,0,0:0:0:0:
288,240,16384,2,0,P|262:179|304:80,1,180
352,88,16858,1,0,0:0:0:0:
400,96,16953,1,4,0:0:0:0:
112,120,17333,6,0,B|112:160|112:160|104:184|104:184|136:240|112:296,1,180
399,294,17903,2,0,B|376:240|408:184|408:184|400:160|400:160|400:120,1,180
240,248,18472,6,0,P|192:240|144:240,1,90,4|0,0:0|0:0,0:0:0:0:
216,48,18852,2,0,P|216:96|208:144,1,90
408,176,19232,2,0,P|360:176|312:168,1,90,4|0,0:0|0:0,0:0:0:0:
336,352,19612,2,0,P|328:304|328:256,1,90
448,72,19991,6,0,P|400:64|352:64,1,90,4|0,0:0|0:0,0:0:0:0:
358,63,20276,1,0,0:0:0:0:
358,63,20371,1,0,0:0:0:0:
248,136,20561,2,0,P|296:144|344:144,2,90,0|4|0,0:0|0:0|0:0,0:0:0:0:
248,136,21036,1,0,0:0:0:0:
248,136,21131,1,0,0:0:0:0:
88,96,21320,5,0,0:0:0:0:
224,320,21510,2,0,P|264:296|352:304,1,135,4|0,0:0|0:0,0:0:0:0:
408,232,21890,2,0,P|421:279|448:320,1,90,4|0,0:0|0:0,0:0:0:0:
472,176,22270,5,8,0:0:0:0:
476,144,22364,1,0,0:0:0:0:
471,112,22459,1,0,0:0:0:0:
457,83,22554,1,0,0:0:0:0:
435,60,22649,1,8,0:0:0:0:
407,44,22744,1,0,0:0:0:0:
376,37,22839,1,0,0:0:0:0:
344,39,22934,1,0,0:0:0:0:
312,48,23029,6,0,P|272:56|224:56,2,60,8|0|0,0:0|0:0|0:0,0:0:0:0:
216,192,23409,2,0,P|237:244|241:259,2,60,8|0|0,0:0|0:0|0:0,0:0:0:0:
120,88,23789,2,0,L|56:75,2,60,8|0|0,0:0|0:0|0:0,0:0:0:0:
216,192,24169,1,4,0:0:0:0:
400,88,24548,6,0,B|408:160|408:160|400:184|400:184|420:230|386:289,1,180,2|10,0:0|0:0,0:0:0:0:
336,144,25118,1,0,0:0:0:0:
144,208,25308,1,2,0:0:0:0:
144,208,25498,2,0,L|328:224,1,180,2|2,0:0|0:0,0:0:0:0:
256,96,26067,1,0,0:0:0:0:
208,99,26162,1,0,0:0:0:0:
160,104,26257,1,0,0:0:0:0:
160,312,26447,2,0,L|256:320,2,90,10|0|2,0:0|0:0|0:0,0:0:0:0:
256,96,27017,2,0,P|306:144|296:248,1,180,2|2,0:0|0:0,0:0:0:0:
216,192,27586,6,0,L|120:200,1,90
376,72,27966,2,0,P|408:144|392:272,1,180,10|2,0:0|0:0,0:0:0:0:
304,336,28536,1,2,0:0:0:0:
304,336,28726,1,8,0:0:0:0:
140,231,28915,2,0,L|96:224,1,45,2|2,0:0|0:0,0:0:0:0:
208,144,29105,2,0,P|248:232|208:320,1,180,2|10,0:0|0:0,0:0:0:0:
328,56,29675,1,0,0:0:0:0:
328,56,29865,2,0,P|309:106|309:146,2,90,2|2|8,0:0|0:0|0:0,0:0:0:0:
328,56,30434,1,2,0:0:0:0:
480,280,30624,6,0,B|432:272|432:272|408:280|408:280|352:264|304:280,1,180,2|10,0:0|0:0,0:0:0:0:
176,320,31194,1,0,0:0:0:0:
264,152,31384,1,2,0:0:0:0:
120,208,31574,2,0,B|104:160|120:104|120:104|112:80|112:80|120:32,1,180,2|2,0:0|0:0,0:0:0:0:
264,152,32143,5,0,0:0:0:0:
264,152,32333,1,0,0:0:0:0:
480,64,32523,2,0,P|449:146|368:176,1,180,10|2,0:0|0:0,0:0:0:0:
296,40,33093,2,0,P|360:56|392:96,1,90,2|8,0:0|0:0,0:0:0:0:
352,288,33472,1,2,0:0:0:0:
112,264,33662,6,0,P|120:200|96:136,2,135,2|2|2,0:0|0:0|0:0,0:0:0:0:
241,240,34422,2,0,P|238:285|224:328,2,90,2|0|8,0:0|0:0|0:0,0:0:0:0:
184,88,34991,5,0,0:0:0:0:
228,80,35085,1,0,0:0:0:0:
272,88,35181,2,0,P|311:95|343:95,1,60,8|0,0:0|0:0,0:0:0:0:
392,88,35434,1,0,0:0:0:0:
456,168,35561,2,0,P|417:175|385:175,1,60,8|0,0:0|0:0,0:0:0:0:
336,168,35814,1,0,0:0:0:0:
272,248,35941,2,0,P|301:254|331:255,1,60,8|0,0:0|0:0,0:0:0:0:
391,247,36194,1,0,0:0:0:0:
440,336,36320,2,0,P|400:328|376:328,2,60,8|0|0,0:0|0:0|0:0,0:0:0:0:
440,336,36700,5,4,0:0:0:0:
208,176,48472,6,0,L|200:224,1,45
296,224,48662,2,0,L|296:280,1,45
392,256,48852,2,0,P|437:269|481:253,1,90,4|0,0:0|0:0,0:0:0:0:
432,24,49232,2,0,P|458:92|432:192,1,180,8|0,0:0|0:0,0:0:0:0:
328,104,49801,1,0,0:0:0:0:
248,216,49991,1,8,0:0:0:0:
216,32,50181,2,0,P|240:64|248:112,1,90
88,144,50561,2,0,P|64:176|56:224,1,90,0|8,0:0|0:0,0:0:0:0:
152,352,50941,2,0,P|176:320|184:272,2,90,0|0|0,0:0|0:0|0:0,0:0:0:0:
88,144,51510,5,8,0:0:0:0:
432,140,51700,1,0,0:0:0:0:
432,140,51890,2,0,B|424:196|424:196|432:236|432:236|416:284|432:324,1,180,0|8,0:0|0:0,0:0:0:0:
340,228,52460,2,0,P|332:275|338:319,2,90
264,128,53029,1,8,0:0:0:0:
40,32,53219,2,0,P|96:80|80:176,1,180
0,288,53789,2,0,L|16:376,1,90,8|0,0:0|0:0,0:0:0:0:
104,352,54074,1,0,0:0:0:0:
104,352,54169,2,0,L|88:264,1,90
80,176,54453,1,0,0:0:0:0:
80,176,54548,2,0,L|168:160,1,90,8|0,0:0|0:0,0:0:0:0:
240,96,54928,6,0,B|248:152|248:152|240:232,1,135,0|0,0:0|2:0,0:0:0:0:
335,230,55308,2,0,B|328:152|328:152|336:96,1,135,8|0,0:0|2:0,0:0:0:0:
408,160,55688,1,0,0:0:0:0:
408,160,55782,2,0,L|416:96,1,45,0|0,2:0|0:0,0:0:0:0:
408,160,56067,2,0,L|421:264,1,90,8|0,0:0|0:0,0:0:0:0:
120,96,56447,6,0,B|88:128|88:128|80:176,1,90
297,184,56827,2,0,B|304:228|304:228|336:260,1,90,8|0,0:0|0:0,0:0:0:0:
392,96,57207,2,0,B|424:128|424:128|432:176,1,90
216,184,57587,2,0,B|208:228|208:228|176:260,1,90,8|0,0:0|0:0,0:0:0:0:
64,216,57966,2,0,P|112:256|112:368,2,180,4|8|0,0:0|0:0|0:0,0:0:0:0:
24,88,58915,1,0,0:0:0:0:
152,48,59105,5,8,0:0:0:0:
488,80,59295,2,0,L|312:64,1,180,0|0,0:0|0:0,0:0:0:0:
152,48,59865,1,8,0:0:0:0:
167,297,60245,5,8,0:0:0:0:
262,94,60434,1,0,0:0:0:0:
262,94,60529,1,8,0:0:0:0:
390,278,60719,1,0,0:0:0:0:
390,278,60814,1,8,0:0:0:0:
176,184,61004,6,0,P|128:179|72:192,1,90,4|0,0:0|0:0,0:0:0:0:
264,216,61384,2,0,P|312:224|440:192,1,180,8|0,0:0|0:0,0:0:0:0:
147,322,61953,2,0,P|202:280|176:184,1,180
48,224,62523,2,0,P|88:240|136:248,1,90
104,64,62903,1,8,0:0:0:0:
240,80,63093,1,0,0:0:0:0:
496,144,63282,1,0,0:0:0:0:
360,152,63472,1,0,0:0:0:0:
104,64,63662,5,8,0:0:0:0:
496,144,63852,1,0,0:0:0:0:
496,144,63947,1,0,0:0:0:0:
496,144,64042,2,0,P|488:224|408:296,2,180,0|8|0,0:0|0:0|0:0,0:0:0:0:
360,152,64991,1,0,0:0:0:0:
360,152,65181,1,8,0:0:0:0:
112,280,65371,2,0,P|136:216|104:112,1,180
224,360,65941,2,0,P|200:296|232:192,1,180,8|0,0:0|0:0,0:0:0:0:
360,152,66510,1,0,0:0:0:0:
175,93,66700,5,6,0:0:0:0:
197,90,66794,1,0,0:0:0:0:
219,90,66889,1,0,0:0:0:0:
242,92,66984,1,0,0:0:0:0:
264,96,67080,6,0,P|256:152|272:232,1,135,4|0,0:0|2:0,0:0:0:0:
352,280,67460,2,0,P|400:256|480:248,1,135,8|0,0:0|2:0,0:0:0:0:
480,248,67839,1,0,0:0:0:0:
448,48,68029,2,0,P|441:105|360:192,1,180
80,200,68599,2,0,P|128:192|176:192,1,90
136,328,68979,1,8,0:0:0:0:
200,56,69169,1,0,0:0:0:0:
169,191,69358,1,0,0:0:0:0:
169,191,69548,1,0,0:0:0:0:
272,64,69738,5,8,0:0:0:0:
272,64,69833,1,0,0:0:0:0:
272,64,69928,1,0,0:0:0:0:
272,64,70023,1,0,0:0:0:0:
272,64,70118,6,0,B|296:120|272:176|272:176|248:232|272:288,1,225,4|0,0:0|2:0,0:0:0:0:
336,216,71257,1,0,0:0:0:0:
336,216,71447,1,8,0:0:0:0:
336,216,72396,1,8,0:0:0:0:
160,168,72586,5,0,0:0:0:0:
160,168,72681,1,0,0:0:0:0:
216,312,72871,1,0,0:0:0:0:
216,312,72966,1,0,0:0:0:0:
216,312,73061,1,0,0:0:0:0:
216,312,73156,6,0,P|264:320|312:312,1,90,4|2,0:0|0:0,0:0:0:0:
440,56,73536,1,8,0:0:0:0:
392,64,73631,1,2,0:0:0:0:
112,56,73820,1,0,0:0:0:0:
160,64,73915,2,0,L|152:160,1,90,2|0,0:0|0:0,0:0:0:0:
128,200,74200,1,2,0:0:0:0:
216,312,74390,1,0,0:0:0:0:
216,312,74485,1,2,0:0:0:0:
248,200,74675,6,0,B|288:216|328:200|328:200|376:208|376:208|424:200,1,180,0|8,0:0|0:0,0:0:0:0:
288,128,75245,2,0,L|296:32,2,90,0|0|0,0:0|0:0|0:0,0:0:0:0:
376,288,75814,1,8,0:0:0:0:
376,288,76004,1,0,0:0:0:0:
56,272,76194,6,0,P|104:272|152:280,1,90,0|2,0:0|0:0,0:0:0:0:
280,304,76574,1,8,0:0:0:0:
272,256,76669,1,2,0:0:0:0:
104,168,76858,1,0,0:0:0:0:
120,120,76953,1,2,0:0:0:0:
312,80,77143,1,0,0:0:0:0:
328,128,77238,1,2,0:0:0:0:
496,280,77428,1,0,0:0:0:0:
504,232,77523,1,2,0:0:0:0:
424,72,77713,6,0,P|408:152|432:248,2,180,4|8|0,0:0|0:0|0:0,0:0:0:0:
240,72,78662,1,0,0:0:0:0:
240,72,78757,1,0,0:0:0:0:
208,312,78947,1,0,0:0:0:0:
208,312,79042,1,0,0:0:0:0:
208,312,79137,1,0,0:0:0:0:
208,312,79232,6,0,P|216:256|200:224,1,90,4|2,0:0|0:0,0:0:0:0:
96,144,79612,1,8,0:0:0:0:
104,200,79707,1,2,0:0:0:0:
240,72,79896,2,0,L|248:120,1,45,0|2,0:0|0:0,0:0:0:0:
400,272,80181,5,0,0:0:0:0:
392,216,80276,1,2,0:0:0:0:
384,160,80371,2,0,B|376:96|376:96|376:64,1,90,8|0,0:0|0:0,0:0:0:0:
488,288,80751,2,0,L|464:104,1,180,4|8,0:0|0:0,0:0:0:0:
296,168,81320,2,0,L|312:288,2,90,0|0|0,0:0|0:0|0:0,0:0:0:0:
296,168,81890,1,8,0:0:0:0:
296,168,82080,1,0,0:0:0:0:
56,96,82270,6,0,L|56:192,1,90,0|2,0:0|0:0,0:0:0:0:
168,320,82650,1,8,0:0:0:0:
216,312,82745,1,2,0:0:0:0:
448,184,82934,1,0,0:0:0:0:
400,192,83029,1,2,0:0:0:0:
176,56,83219,1,0,0:0:0:0:
168,104,83314,1,2,0:0:0:0:
160,152,83409,2,0,L|144:256,1,90,0|2,0:0|0:0,0:0:0:0:
256,192,83789,12,4,85308,0:0:0:0:
256,120,85498,5,2,0:0:0:0:
96,136,85688,2,0,L|104:184,1,45,8|2,0:0|0:0,0:0:0:0:
416,248,85972,2,0,L|408:200,1,45,0|2,0:0|0:0,0:0:0:0:
256,192,86257,1,0,0:0:0:0:
256,192,86352,1,2,0:0:0:0:
256,192,86447,2,0,P|264:240|256:280,1,90,8|2,0:0|0:0,0:0:0:0:
64,240,86827,2,0,B|176:232|176:232|157:184|184:136,1,180,4|8,0:0|0:0,0:0:0:0:
264,16,87396,2,0,B|237:81|291:127|256:192,1,180
256,192,87966,1,8,0:0:0:0:
256,192,88156,1,0,0:0:0:0:
440,88,88346,6,0,L|448:184,1,90,0|2,0:0|0:0,0:0:0:0:
384,304,88726,1,8,0:0:0:0:
384,304,88820,1,2,0:0:0:0:
136,280,89010,1,0,0:0:0:0:
136,280,89105,1,2,0:0:0:0:
272,72,89295,1,0,0:0:0:0:
272,72,89390,1,2,0:0:0:0:
272,72,89485,2,0,P|278:116|278:161,1,90,8|2,0:0|0:0,0:0:0:0:
112,64,89865,6,0,P|102:143|184:184,2,180,4|8|0,0:0|0:0|0:0,0:0:0:0:
112,64,90814,1,0,0:0:0:0:
320,96,91004,1,8,0:0:0:0:
284,69,91098,1,8,0:0:0:0:
240,62,91193,1,8,0:0:0:0:
198,77,91288,1,8,0:0:0:0:
168,111,91384,5,4,0:0:0:0:
136,184,91953,1,4,0:0:0:0:
192,240,92523,1,4,0:0:0:0:
264,224,92713,2,0,P|312:216|352:224,1,90,4|0,0:0|2:0,0:0:0:0:
280,32,93093,2,0,P|288:80|304:120,1,90,4|0,0:0|2:0,0:0:0:0:
256,320,93472,2,0,P|208:328|160:328,1,90,4|8,0:0|0:0,0:0:0:0:
152,64,94042,5,8,0:0:0:0:
208,80,94137,1,8,0:0:0:0:
248,120,94232,1,8,0:0:0:0:
264,176,94327,1,8,0:0:0:0:
264,232,94422,5,4,0:0:0:0:
200,272,94991,1,4,0:0:0:0:
128,256,95561,1,4,0:0:0:0:
400,232,95751,2,0,L|440:228,4,22.5,8|0|8|0|8,0:0|0:0|0:0|0:0|0:0,0:0:0:0:
408,152,96320,1,4,0:0:0:0:
384,80,96700,1,4,0:0:0:0:
264,16,96890,5,0,0:0:0:0:
266,33,96984,1,0,0:0:0:0:
270,51,97079,1,0,0:0:0:0:
276,68,97174,1,0,0:0:0:0:
284,84,97269,1,0,0:0:0:0:
293,100,97364,1,0,0:0:0:0:
303,113,97460,6,0,P|296:176|296:224,1,90,4|0,0:0|0:0,0:0:0:0:
312,336,97839,1,8,0:0:0:0:
32,208,98029,2,0,P|112:216|208:256,1,180
312,336,98599,1,8,0:0:0:0:
440,296,98789,5,0,0:0:0:0:
440,296,98884,1,0,0:0:0:0:
440,296,98979,2,0,P|432:240|440:192,1,90,0|0,0:0|0:0,0:0:0:0:
480,24,99358,2,0,P|488:72|480:112,1,90,8|0,0:0|0:0,0:0:0:0:
352,72,99738,1,0,0:0:0:0:
352,72,99928,2,0,L|256:72,1,90,0|8,0:0|0:0,0:0:0:0:
262,72,100308,1,0,0:0:0:0:
32,184,100498,6,0,P|120:136|128:64,1,180,2|10,0:0|0:0,0:0:0:0:
32,88,101067,1,0,0:0:0:0:
96,288,101257,1,2,0:0:0:0:
96,288,101447,1,2,0:0:0:0:
224,328,101637,2,0,P|232:280|224:240,1,90,8|2,0:0|0:0,0:0:0:0:
208,192,101922,1,0,0:0:0:0:
176,144,102017,5,2,0:0:0:0:
280,56,102207,1,0,0:0:0:0:
360,128,102396,2,0,P|384:192|392:304,1,180,10|2,0:0|0:0,0:0:0:0:
392,302,102871,1,0,0:0:0:0:
392,302,102966,1,2,0:0:0:0:
472,80,103156,1,8,0:0:0:0:
472,80,103346,5,0,0:0:0:0:
472,80,103536,2,0,B|480:128|480:128|464:168,1,90,4|0,0:0|0:0,0:0:0:0:
392,302,103915,1,8,0:0:0:0:
104,200,104105,2,0,P|192:200|296:248,1,180
392,302,104675,1,8,0:0:0:0:
328,152,104865,5,0,0:0:0:0:
328,152,104960,1,0,0:0:0:0:
328,152,105055,2,0,P|296:104|256:72,1,90
136,72,105434,1,8,0:0:0:0:
136,72,105814,1,0,0:0:0:0:
48,176,106004,2,0,P|40:224|40:272,1,90,0|8,0:0|0:0,0:0:0:0:
280,328,106384,1,0,0:0:0:0:
152,192,106574,6,0,B|192:200|192:200|208:192|208:192|248:208|288:192,2,135,4|0|0,0:0|0:0|0:0,0:0:0:0:
256,96,107333,2,0,L|264:280,1,180,0|8,0:0|0:0,0:0:0:0:
384,112,107903,5,0,0:0:0:0:
392,160,107998,1,0,0:0:0:0:
400,208,108093,2,0,L|412:286,2,60,8|0|0,0:0|0:0|0:0,0:0:0:0:
256,96,108472,2,0,L|176:88,2,60,8|0|0,0:0|0:0|0:0,0:0:0:0:
300,346,108852,2,0,L|360:352,2,60,8|0|0,0:0|0:0|0:0,0:0:0:0:
56,168,109232,2,0,L|144:176,2,60,8|0|0,0:0|0:0|0:0,0:0:0:0:
344,192,109612,6,0,L|248:184,1,90,4|0,0:0|0:0,0:0:0:0:
56,168,109991,1,8,0:0:0:0:
216,182,110181,2,0,P|208:246|112:296,1,180
72,288,110656,1,0,0:0:0:0:
32,280,110751,1,8,0:0:0:0:
120,72,110941,5,0,0:0:0:0:
120,72,111036,1,0,0:0:0:0:
120,72,111131,2,0,B|192:80|192:80|304:72,1,180,0|8,0:0|0:0,0:0:0:0:
432,64,111700,1,0,0:0:0:0:
424,200,111890,1,0,0:0:0:0:
424,200,112080,1,0,0:0:0:0:
432,64,112270,1,8,0:0:0:0:
280,160,112460,6,0,P|304:240|256:320,1,180,2|0,0:0|0:0,0:0:0:0:
120,224,113029,2,0,L|216:232,1,90,10|0,0:0|0:0,0:0:0:0:
200,96,113409,1,2,0:0:0:0:
432,64,113599,2,0,P|368:88|256:96,1,180,2|2,0:0|0:0,0:0:0:0:
200,96,114074,1,0,0:0:0:0:
136,96,114169,6,0,P|88:96|40:104,1,90,2|0,0:0|0:0,0:0:0:0:
24,256,114548,2,0,P|32:216|32:160,1,90,10|0,0:0|0:0,0:0:0:0:
168,216,114928,2,0,L|88:152,1,90,2|2,0:0|0:0,0:0:0:0:
97,159,115308,1,8,0:0:0:0:
280,160,115498,5,0,0:0:0:0:
480,56,115688,1,4,0:0:0:0:
480,56,116067,2,0,P|488:104|480:144,2,90,8|0|0,0:0|0:0|0:0,0:0:0:0:
232,320,116827,2,0,P|280:312|320:320,1,90,8|0,0:0|0:0,0:0:0:0:
184,232,117207,5,0,0:0:0:0:
225,213,117301,1,0,0:0:0:0:
269,206,117396,1,0,0:0:0:0:
313,211,117491,1,0,0:0:0:0:
355,227,117586,1,8,0:0:0:0:
392,253,117681,1,0,0:0:0:0:
421,287,117776,1,0,0:0:0:0:
440,328,117871,1,0,0:0:0:0:
448,372,117966,6,0,L|456:276,1,90,0|0,0:0|0:0,0:0:0:0:
216,192,118346,1,8,0:0:0:0:
216,192,118536,1,0,0:0:0:0:
200,328,118726,6,0,P|264:320|336:328,2,135,4|0|0,0:0|0:0|0:0,0:0:0:0:
216,192,119485,2,0,P|216:88|176:24,1,180,0|8,0:0|0:0,0:0:0:0:
64,216,120055,5,0,0:0:0:0:
64,216,120150,1,0,0:0:0:0:
64,216,120245,2,0,L|56:280,2,60,8|0|0,0:0|0:0|0:0,0:0:0:0:
344,320,120624,2,0,L|400:360,2,60,8|0|0,0:0|0:0|0:0,0:0:0:0:
288,24,121004,2,0,L|352:16,2,60,8|0|0,0:0|0:0|0:0,0:0:0:0:
232,184,121384,2,0,L|224:248,2,60,8|0|0,0:0|0:0|0:0,0:0:0:0:
288,24,121763,5,4,0:0:0:0:
