osu file format v14

[General]
AudioFilename: Light.mp3
AudioLeadIn: 0
PreviewTime: 91384
Countdown: 0
SampleSet: Normal
StackLeniency: 0.5
Mode: 0
LetterboxInBreaks: 1
EpilepsyWarning: 1
WidescreenStoryboard: 1

[Editor]
Bookmarks: 12396,24548,36700,48852,73156,97460,121763
DistanceSpacing: 0.8
BeatDivisor: 4
GridSize: 8
TimelineZoom: 1.1

[Metadata]
Title:Hikari
TitleUnicode:光
Artist:Hotaru
ArtistUnicode:ほたる
Creator:Krauv
Version:Hard
Source:Touhou
Tags:captain minamitsu murasa eastnewsound spectral rejection undefined fantastic object light 東方
BeatmapID:624577
BeatmapSetID:275377

[Difficulty]
HPDrainRate:6.3
CircleSize:4
OverallDifficulty:6.2
ApproachRate:7.6
SliderMultiplier:1.6
SliderTickRate:2

[Events]
//Background and Video events
0,0,"bg.jpg",0,0
//Break Periods
2,36900,47662
//Storyboard Layer 0 (Background)
//Storyboard Layer 1 (Fail)
//Storyboard Layer 2 (Pass)
//Storyboard Layer 3 (Foreground)
//Storyboard Sound Samples

[TimingPoints]
245,379.746835443038,4,1,1,50,1,0
22982,-100,4,1,1,60,0,0
24121,-100,4,2,1,100,0,0
24216,-100,4,1,1,50,0,0
31669,-100,4,1,2,50,0,0
31858,-100,4,1,1,50,0,0
33188,-100,4,1,2,50,0,0
33377,-100,4,1,1,50,0,0
33995,-100,4,1,2,50,0,0
34089,-100,4,1,1,50,0,0
35134,-100,4,1,1,60,0,0
36653,-100,4,1,1,100,0,0
36795,-100,4,1,1,50,0,0
49896,-100,4,1,2,50,0,0
50086,-100,4,1,1,50,0,0
60055,-100,4,1,1,70,0,0
60909,-100,4,1,1,50,0,0
70118,-200,4,1,1,50,0,0
73061,-100,4,1,3,50,0,0
97460,-100,4,1,3,50,0,1
106906,-100,4,1,2,50,0,1
107001,-100,4,1,3,50,0,1
108045,-100,4,1,3,60,0,1
108409,-100,4,1,3,65,0,1
108789,-100,4,1,3,70,0,1
109169,-100,4,1,3,60,0,1
109517,-100,4,1,3,50,0,0
109612,-100,4,1,3,50,0,1
119058,-100,4,1,2,50,0,1
119153,-100,4,1,3,50,0,1
120197,-100,4,1,3,60,0,1
120561,-100,4,1,3,65,0,1
120941,-100,4,1,3,70,0,1
121320,-100,4,1,3,60,0,1
121700,-100,4,1,3,60,0,1
121763,-100,4,1,0,80,0,0

[Colours]
Combo1 : 0,81,81
Combo2 : 0,64,128
Combo3 : 0,138,138
Combo4 : 0,215,215

[HitObjects]
208,112,12396,5,4,0:0:0:0:
208,112,12776,2,0,B|223:182|172:215|172:215|224:224,1,160
128,144,13346,2,0,P|96:184|128:288,2,160,0|0|0,0:0|0:0|2:0,0:0:0:0:
136,32,14295,1,0,0:0:0:0:
360,48,14675,1,0,0:0:0:0:
360,48,14865,2,0,B|368:88|360:128|360:128|352:168|360:208,1,160
472,208,15434,5,4,0:0:0:0:
264,120,15814,2,0,B|276:158|256:192|256:192|264:200|264:200|248:239|264:280,1,160
176,144,16384,2,0,P|176:88|288:32,1,160
252,27,16858,1,0,0:0:0:0:
252,27,16953,5,4,0:0:0:0:
344,240,17333,2,0,P|344:296|232:352,1,160
136,336,17903,2,0,B|176:344|176:344|183:293|225:264|264:264,1,160
152,200,18472,5,4,0:0:0:0:
152,200,18852,2,0,P|145:147|56:104,1,160,0|4,0:0|0:0,0:0:0:0:
40,216,19422,2,0,P|47:269|136:312,1,160
272,176,19991,5,4,0:0:0:0:
272,176,20371,2,0,P|312:176|352:184,2,80,0|0|4,0:0|2:0|0:0,0:0:0:0:
328,272,20941,2,0,P|400:264|445:183,1,160
360,56,21510,6,0,B|312:72|272:48|272:48|280:88,2,120,4|0|0,0:0|0:0|0:0,0:0:0:0:
360,56,22270,1,4,0:0:0:0:
144,296,22840,5,0,0:0:0:0:
144,296,22934,1,0,0:0:0:0:
144,296,23029,2,0,L|208:312,2,53.3333333333333,12|0|0,0:0|0:0|0:0,0:0:0:0:
184,208,23409,2,0,L|248:224,2,53.3333333333333,8|0|0,0:0|0:0|0:0,0:0:0:0:
224,120,23789,2,0,L|288:136,2,53.3333333333333,8|0|0,0:0|0:0|0:0,0:0:0:0:
224,120,24169,1,4,0:0:0:0:
448,104,24548,6,0,P|464:184|448:264,1,160,2|10,0:0|0:0,0:0:0:0:
344,224,25118,1,0,0:0:0:0:
344,224,25308,2,0,P|352:184|344:144,2,80,2|2|8,0:0|0:0|0:0,0:0:0:0:
240,184,25877,6,0,B|280:184|280:184|261:134|281:91|318:80,1,160,2|0,0:0|0:0,0:0:0:0:
344,224,26447,2,0,B|360:184|345:146|345:146|385:125|385:79,1,160,10|2,0:0|0:0,0:0:0:0:
296,8,27017,1,2,0:0:0:0:
296,8,27207,1,8,0:0:0:0:
80,64,27396,6,0,P|80:112|72:152,2,80,2|0|0,0:0|0:0|0:0,0:0:0:0:
192,96,27966,2,0,P|184:176|192:256,1,160,10|2,0:0|0:0,0:0:0:0:
192,256,28536,1,2,0:0:0:0:
272,176,28726,2,0,P|312:184|352:176,1,80,8|2,0:0|0:0,0:0:0:0:
368,168,29010,1,2,0:0:0:0:
381,155,29105,5,2,0:0:0:0:
184,47,29485,2,0,P|254:16|326:46,1,160,10|2,0:0|0:0,0:0:0:0:
256,136,30055,2,0,L|256:176|256:216,2,80,2|8|2,0:0|0:0|0:0,0:0:0:0:
184,304,30624,6,0,P|254:335|326:305,2,160,2|10|2,0:0|0:0|0:0,0:0:0:0:
184,192,31574,2,0,B|232:197|256:222|256:222|280:197|328:192,1,160,2|2,0:0|0:0,0:0:0:0:
328,304,32143,1,0,0:0:0:0:
256,216,32333,1,0,0:0:0:0:
184,304,32523,1,10,0:0:0:0:
184,304,32903,1,2,0:0:0:0:
184,304,33093,2,0,P|120:288|72:208,1,160,2|2,0:0|0:0,0:0:0:0:
104,104,33662,6,0,P|157:143|179:207,2,120,2|2|2,0:0|0:0|0:0,0:0:0:0:
104,104,34422,1,2,0:0:0:0:
360,80,34802,1,8,0:0:0:0:
472,80,34991,5,2,0:0:0:0:
472,80,35086,1,0,0:0:0:0:
472,80,35181,2,0,L|480:136,2,53.3333333333333,8|0|0,0:0|0:0|0:0,0:0:0:0:
400,144,35561,2,0,L|408:200,2,53.3333333333333,8|0|0,0:0|0:0|0:0,0:0:0:0:
328,208,35941,2,0,L|336:264,2,53.3333333333333,8|0|0,0:0|0:0|0:0,0:0:0:0:
256,272,36321,2,0,L|264:328,2,53.3333333333333,8|0|0,0:0|0:0|0:0,0:0:0:0:
256,272,36700,5,4,0:0:0:0:
200,152,48472,5,8,0:0:0:0:
200,152,48567,1,8,0:0:0:0:
200,152,48662,1,8,0:0:0:0:
200,152,48757,1,8,0:0:0:0:
200,152,48852,6,0,B|216:176|216:176|276:131|336:176,2,160,4|8|0,0:0|0:0|0:0,0:0:0:0:
275,235,49802,2,0,P|241:267|296:344,1,160
392,288,50371,2,0,L|472:280,1,80
416,184,50751,2,0,L|496:176,1,80,8|0,0:0|0:0,0:0:0:0:
440,80,51131,1,0,0:0:0:0:
440,80,51321,1,0,0:0:0:0:
328,88,51510,5,8,0:0:0:0:
104,64,51700,1,0,0:0:0:0:
104,64,51890,2,0,B|144:112|144:112|152:112|152:112|131:158|160:208,1,160,0|8,0:0|0:0,0:0:0:0:
256,152,52460,1,0,0:0:0:0:
256,152,52650,2,0,L|264:232,1,80
277,343,53029,5,8,0:0:0:0:
128,176,53219,1,0,0:0:0:0:
128,176,53599,1,0,0:0:0:0:
136,288,53789,2,0,L|144:384,2,80,8|0|0,0:0|0:0|0:0,0:0:0:0:
240,248,54358,1,0,0:0:0:0:
240,248,54548,2,0,P|280:256|320:248,1,80,8|0,0:0|0:0,0:0:0:0:
280,144,54928,5,0,0:0:0:0:
72,64,55308,1,8,0:0:0:0:
88,288,55688,1,0,0:0:0:0:
80,176,55877,2,0,P|128:182|168:216,1,80,0|8,0:0|0:0,0:0:0:0:
88,288,56257,2,0,P|160:312|248:256,1,160
256,168,56827,2,0,L|336:160,1,80,8|0,0:0|0:0,0:0:0:0:
272,64,57207,2,0,L|352:56,1,80
460,43,57586,5,8,0:0:0:0:
424,264,57776,1,0,0:0:0:0:
424,264,57871,1,0,0:0:0:0:
424,264,57966,2,0,B|384:272|344:264|344:264|304:256|264:264,2,160,4|8|0,0:0|0:0|0:0,0:0:0:0:
424,264,58915,1,0,0:0:0:0:
432,152,59105,5,8,0:0:0:0:
208,128,59295,1,0,0:0:0:0:
208,128,59485,2,0,P|216:208|208:288,1,160,0|8,0:0|0:0,0:0:0:0:
72,104,60245,5,8,0:0:0:0:
120,232,60434,1,0,0:0:0:0:
120,232,60529,1,8,0:0:0:0:
208,128,60719,1,0,0:0:0:0:
208,128,60814,1,8,0:0:0:0:
416,48,61004,5,4,0:0:0:0:
416,48,61384,2,0,P|424:128|416:208,1,160,8|0,0:0|0:0,0:0:0:0:
312,168,61953,2,0,P|316:128|312:88,1,80,0|8,0:0|0:0,0:0:0:0:
208,128,62333,2,0,P|205:168|208:208,2,80,0|0|0,0:0|0:0|0:0,0:0:0:0:
208,128,62903,1,8,0:0:0:0:
312,168,63093,1,0,0:0:0:0:
304,280,63283,2,0,P|344:284|384:280,1,80
496,264,63662,5,8,0:0:0:0:
432,48,63852,2,0,B|392:64|352:48|352:48|312:32|272:48,1,160
176,96,64422,2,0,P|136:112|96:112,2,80,8|0|0,0:0|0:0|0:0,0:0:0:0:
275,46,64991,1,0,0:0:0:0:
272,160,65181,5,8,0:0:0:0:
200,248,65371,2,0,B|240:256|272:283|272:283|304:256|344:248,1,160
272,160,65941,2,0,L|272:320,1,160,8|0,0:0|0:0,0:0:0:0:
160,320,66510,1,0,0:0:0:0:
160,320,66700,1,8,0:0:0:0:
40,112,67080,5,4,0:0:0:0:
256,40,67460,1,8,0:0:0:0:
472,112,67840,1,0,0:0:0:0:
360,120,68029,2,0,P|368:160|360:200,1,80,0|8,0:0|0:0,0:0:0:0:
256,160,68409,2,0,B|216:160|216:160|244:192|244:240|216:272,1,160
120,216,68979,2,0,L|160:216,2,40,8|0|0,0:0|2:0|0:0,0:0:0:0:
40,136,69358,1,0,0:0:0:0:
120,216,69548,1,0,0:0:0:0:
40,296,69738,5,8,0:0:0:0:
40,136,69928,1,0,0:0:0:0:
40,136,70118,6,0,B|96:96|152:136|152:136|208:176|264:136,1,240,4|0,0:0|0:0,0:0:0:0:
262,137,71447,1,8,0:0:0:0:
262,137,72396,1,8,0:0:0:0:
262,137,73156,6,0,P|272:216|264:296,1,160,4|8,0:0|0:0,0:0:0:0:
232,288,73631,1,2,0:0:0:0:
128,248,73821,1,0,0:0:0:0:
160,240,73915,1,2,0:0:0:0:
144,128,74105,6,0,P|136:88|144:48,1,80,0|8,0:0|0:0,0:0:0:0:
256,40,74485,1,2,0:0:0:0:
360,128,74675,2,0,P|352:208|408:264,1,160,4|8,0:0|0:0,0:0:0:0:
496,200,75245,2,0,P|504:120|448:64,1,160
360,128,75814,1,8,0:0:0:0:
360,128,76004,1,0,0:0:0:0:
368,320,76194,5,0,0:0:0:0:
272,264,76384,2,0,P|232:260|192:264,1,80,2|8,0:0|0:0,0:0:0:0:
184,296,76669,1,2,0:0:0:0:
80,256,76858,1,0,0:0:0:0:
72,224,76953,1,2,0:0:0:0:
168,168,77143,6,0,P|168:128|176:88,1,80,0|8,0:0|0:0,0:0:0:0:
256,8,77523,1,2,0:0:0:0:
280,120,77713,2,0,B|288:160|288:160|304:224|384:232,2,160,4|8|0,0:0|0:0|0:0,0:0:0:0:
392,112,78662,1,0,0:0:0:0:
392,112,78757,1,0,0:0:0:0:
392,112,78852,1,8,0:0:0:0:
64,184,79232,6,0,P|64:224|72:264,1,80,0|2,0:0|0:0,0:0:0:0:
152,344,79612,1,8,0:0:0:0:
160,312,79707,1,2,0:0:0:0:
264,272,79896,1,0,0:0:0:0:
272,304,79991,1,2,0:0:0:0:
384,288,80181,6,0,L|392:248,2,40,0|2|8,0:0|0:0|0:0,0:0:0:0:
480,352,80561,1,2,0:0:0:0:
480,352,80751,2,0,B|472:312|480:272|480:272|504:184,1,160,4|8,0:0|0:0,0:0:0:0:
424,112,81321,2,0,L|392:224,2,80
328,56,81890,1,8,0:0:0:0:
328,56,82080,1,0,0:0:0:0:
262,156,82270,5,0,0:0:0:0:
200,64,82460,2,0,P|160:72|120:64,1,80,2|8,0:0|0:0,0:0:0:0:
112,32,82745,1,2,0:0:0:0:
32,112,82934,1,0,0:0:0:0:
40,144,83029,1,2,0:0:0:0:
144,184,83219,1,0,0:0:0:0:
144,184,83314,1,2,0:0:0:0:
144,184,83409,2,0,L|152:264,1,80,8|2,0:0|0:0,0:0:0:0:
256,192,83789,12,4,85308,0:0:0:0:
176,144,85688,5,8,0:0:0:0:
184,176,85783,1,2,0:0:0:0:
280,232,85972,1,0,0:0:0:0:
288,200,86067,1,2,0:0:0:0:
400,184,86257,6,0,P|400:144|408:104,1,80,0|8,0:0|0:0,0:0:0:0:
512,152,86637,1,2,0:0:0:0:
512,152,86827,2,0,P|512:232|488:312,1,160,4|8,0:0|0:0,0:0:0:0:
384,344,87396,2,0,L|296:360,2,80
344,240,87966,1,8,0:0:0:0:
344,240,88061,1,0,0:0:0:0:
344,240,88156,1,0,0:0:0:0:
192,264,88346,5,0,0:0:0:0:
192,264,88536,1,2,0:0:0:0:
88,224,88726,2,0,L|96:184,1,40,8|2,0:0|0:0,0:0:0:0:
168,96,89010,2,0,L|160:136,1,40,0|2,0:0|0:0,0:0:0:0:
72,64,89295,2,0,L|80:104,2,40,0|2|8,0:0|0:0|0:0,0:0:0:0:
72,64,89675,1,2,0:0:0:0:
272,64,89865,6,0,P|352:72|432:64,2,160,4|8|0,0:0|0:0|0:0,0:0:0:0:
136,240,91004,1,8,0:0:0:0:
136,240,91099,1,8,0:0:0:0:
136,240,91194,1,8,0:0:0:0:
136,240,91289,1,0,0:0:0:0:
136,240,91384,5,4,0:0:0:0:
464,176,91953,1,4,0:0:0:0:
144,80,92523,1,0,0:0:0:0:
144,80,92713,1,4,0:0:0:0:
280,256,93093,1,4,0:0:0:0:
424,88,93472,1,4,0:0:0:0:
424,88,93662,5,8,0:0:0:0:
72,280,94042,1,8,0:0:0:0:
72,280,94422,5,4,0:0:0:0:
400,344,94991,1,4,0:0:0:0:
136,136,95561,1,8,0:0:0:0:
308,69,95941,1,8,0:0:0:0:
375,242,96321,1,8,0:0:0:0:
202,308,96700,1,8,0:0:0:0:
202,308,96890,1,4,0:0:0:0:
256,192,97080,5,0,0:0:0:0:
256,192,97175,1,8,0:0:0:0:
256,192,97270,1,8,0:0:0:0:
256,192,97365,1,8,0:0:0:0:
256,192,97460,6,0,P|296:184|336:168,1,80,4|0,0:0|0:0,0:0:0:0:
416,96,97840,1,8,0:0:0:0:
416,208,98029,2,0,P|420:248|432:289,2,80,0|0|0,0:0|2:0|0:0,0:0:0:0:
416,96,98599,1,8,0:0:0:0:
264,48,98789,5,0,0:0:0:0:
264,48,98884,1,0,0:0:0:0:
264,48,98979,2,0,P|184:40|104:48,1,160,0|8,0:0|0:0,0:0:0:0:
48,144,99548,1,0,0:0:0:0:
48,144,99738,1,0,0:0:0:0:
72,304,99928,2,0,P|112:304|152:296,2,80,0|8|0,0:0|0:0|0:0,0:0:0:0:
56,192,100498,6,0,P|96:184|136:184,1,80,2|0,0:0|0:0,0:0:0:0:
240,224,100877,1,10,0:0:0:0:
240,224,101257,1,2,0:0:0:0:
256,112,101447,2,0,P|260:72|261:32,1,80,2|8,0:0|0:0,0:0:0:0:
368,72,101827,5,2,0:0:0:0:
360,104,101922,1,0,0:0:0:0:
352,136,102017,2,0,P|339:193|340:297,1,160,2|8,0:0|0:0,0:0:0:0:
448,320,102586,2,0,P|440:272|440:239,1,80,0|2,0:0|0:0,0:0:0:0:
448,128,102966,1,2,0:0:0:0:
448,128,103156,1,0,0:0:0:0:
256,112,103346,5,0,0:0:0:0:
256,112,103536,2,0,P|264:192|256:272,1,160,4|8,0:0|0:0,0:0:0:0:
176,192,104105,2,0,P|175:153|168:112,2,80,0|0|0,0:0|0:0|0:0,0:0:0:0:
176,192,104675,1,8,0:0:0:0:
80,120,104865,2,0,P|88:200|80:280,1,160,0|0,0:0|0:0,0:0:0:0:
176,336,105434,2,0,L|176:256,2,80,8|0|0,0:0|0:0|0:0,0:0:0:0:
176,336,106004,1,0,0:0:0:0:
288,312,106194,1,8,0:0:0:0:
400,312,106384,1,0,0:0:0:0:
400,312,106574,6,0,P|408:272|408:192,2,120,4|0|0,0:0|0:0|0:0,0:0:0:0:
304,152,107333,2,0,P|320:232|304:320,1,160,0|8,0:0|0:0,0:0:0:0:
208,192,107903,5,0,0:0:0:0:
208,192,107998,1,0,0:0:0:0:
208,192,108093,2,0,L|248:232,2,53.3333333333333,12|0|0,0:0|0:0|0:0,0:0:0:0:
104,192,108472,2,0,L|64:232,2,53.3333333333333,8|0|0,0:0|0:0|0:0,0:0:0:0:
104,88,108852,2,0,L|64:48,2,53.3333333333333,8|0|0,0:0|0:0|0:0,0:0:0:0:
208,88,109232,2,0,L|248:48,2,53.3333333333333,8|0|0,0:0|0:0|0:0,0:0:0:0:
208,88,109612,6,0,P|288:112|368:88,1,160,4|8,0:0|0:0,0:0:0:0:
440,16,110181,2,0,P|424:56|440:168,1,160
512,256,110751,1,8,0:0:0:0:
408,312,110941,5,0,0:0:0:0:
384,320,111036,1,0,0:0:0:0:
360,328,111131,2,0,P|288:344|200:336,2,160,0|8|0,0:0|0:0|0:0,0:0:0:0:
368,216,112080,1,0,0:0:0:0:
200,176,112270,2,0,P|240:176|280:184,1,80,8|0,0:0|0:0,0:0:0:0:
208,272,112650,6,0,P|168:272|128:264,1,80,2|0,0:0|0:0,0:0:0:0:
24,224,113029,2,0,P|16:144|24:64,1,160,10|2,0:0|0:0,0:0:0:0:
128,96,113599,2,0,P|124:136|128:176,2,80,2|8|2,0:0|0:0|0:0,0:0:0:0:
128,96,114074,5,0,0:0:0:0:
128,96,114169,1,2,0:0:0:0:
352,72,114548,2,0,P|344:112|352:152,1,80,10|0,0:0|0:0,0:0:0:0:
464,152,114928,2,0,P|472:112|464:72,1,80,2|2,0:0|0:0,0:0:0:0:
352,72,115308,1,8,0:0:0:0:
256,128,115498,5,0,0:0:0:0:
192,280,115688,1,4,0:0:0:0:
192,280,116067,2,0,L|184:200,1,80,8|0,0:0|0:0,0:0:0:0:
72,184,116447,2,0,L|80:264,1,80,0|0,0:0|0:0,0:0:0:0:
96,376,116827,5,8,0:0:0:0:
256,368,117017,1,0,0:0:0:0:
256,368,117207,2,0,P|336:376|416:368,1,160,4|8,0:0|0:0,0:0:0:0:
424,144,117966,2,0,P|432:104|432:64,1,80,0|0,0:0|0:0,0:0:0:0:
256,64,118346,2,0,P|256:104|264:144,1,80,8|0,0:0|0:0,0:0:0:0:
344,48,118726,6,0,L|344:168,2,120,4|0|0,0:0|0:0|0:0,0:0:0:0:
344,48,119485,1,0,0:0:0:0:
64,232,120055,5,0,0:0:0:0:
64,232,120150,1,0,0:0:0:0:
64,232,120245,2,0,L|56:288,2,53.3333333333333,12|0|0,0:0|0:0|0:0,0:0:0:0:
200,216,120624,2,0,L|200:272,2,53.3333333333333,8|0|0,0:0|0:0|0:0,0:0:0:0:
328,168,121004,2,0,L|336:224,2,53.3333333333333,8|0|0,0:0|0:0|0:0,0:0:0:0:
432,80,121384,2,0,L|448:136,2,53.3333333333333,8|0|0,0:0|0:0|0:0,0:0:0:0:
432,80,121763,5,4,0:0:0:0:
