osu file format v14

[General]
AudioFilename: Light.mp3
AudioLeadIn: 0
PreviewTime: 91384
Countdown: 0
SampleSet: Normal
StackLeniency: 0.5
Mode: 0
LetterboxInBreaks: 1
EpilepsyWarning: 1
WidescreenStoryboard: 1

[Editor]
Bookmarks: 12396,24548,36700,48852,73156,97460,121763
DistanceSpacing: 0.8
BeatDivisor: 4
GridSize: 8
TimelineZoom: 1.1

[Metadata]
Title:Hikari
TitleUnicode:光
Artist:Hotaru
ArtistUnicode:ほたる
Creator:Krauv
Version:Easy
Source:Touhou
Tags:captain minamitsu murasa eastnewsound spectral rejection undefined fantastic object light 東方
BeatmapID:624575
BeatmapSetID:275377

[Difficulty]
HPDrainRate:3
CircleSize:2.5
OverallDifficulty:3
ApproachRate:3.5
SliderMultiplier:1
SliderTickRate:2

[Events]
//Background and Video events
0,0,"bg.jpg",0,0
//Break Periods
2,36899,47472
//Storyboard Layer 0 (Background)
//Storyboard Layer 1 (Fail)
//Storyboard Layer 2 (Pass)
//Storyboard Layer 3 (Foreground)
//Storyboard Sound Samples

[TimingPoints]
245,379.746835443038,4,1,1,50,1,0
22982,-100,4,1,1,60,0,0
23314,-100,4,1,2,60,0,0
23504,-100,4,1,1,60,0,0
23694,-100,4,1,2,60,0,0
23884,-100,4,1,1,60,0,0
24121,-100,4,2,1,100,0,0
24216,-100,4,1,1,50,0,0
25403,-100,4,1,4,40,0,0
25593,-100,4,1,1,50,0,0
26352,-100,4,1,4,40,0,0
26542,-100,4,1,1,50,0,0
26922,-100,4,1,4,40,0,0
27112,-100,4,1,1,50,0,0
27301,-100,4,1,4,40,0,0
27491,-100,4,1,1,50,0,0
28251,-100,4,1,4,40,0,0
28631,-100,4,1,1,50,0,0
28820,-100,4,1,4,40,0,0
29200,-100,4,1,1,50,0,0
31858,-100,4,1,4,40,0,0
32048,-100,4,1,1,50,0,0
32998,-100,4,1,4,40,0,0
33188,-100,4,1,1,50,0,0
33567,-100,4,1,4,40,0,0
33757,-100,4,1,1,50,0,0
35134,-100,4,1,1,60,0,0
35466,-100,4,1,2,60,0,0
35656,-100,4,1,1,60,0,0
36226,-100,4,1,2,60,0,0
36415,-100,4,1,1,60,0,0
36653,-100,4,1,1,100,0,0
36795,-100,4,1,1,50,0,0
58251,-100,4,1,2,50,0,0
58441,-100,4,1,1,50,0,0
60055,-100,4,1,1,70,0,0
60909,-100,4,1,1,50,0,0
62048,-100,4,1,2,50,0,0
62238,-100,4,1,1,50,0,0
68124,-100,4,1,2,50,0,0
68314,-100,4,1,1,50,0,0
71352,-100,4,1,2,50,0,0
71542,-100,4,1,1,50,0,0
73061,-100,4,1,3,50,0,0
73441,-100,4,1,2,50,0,0
73631,-100,4,1,3,50,0,0
77998,-100,4,1,2,50,0,0
78188,-100,4,1,3,50,0,0
78757,-100,4,1,2,50,0,0
78947,-100,4,1,3,50,0,0
82555,-100,4,1,2,50,0,0
82745,-100,4,1,3,50,0,0
89390,-100,4,1,2,50,0,0
89580,-100,4,1,3,50,0,0
90150,-100,4,1,2,50,0,0
90339,-100,4,1,3,50,0,0
97460,-100,4,1,3,50,0,1
97745,-100,4,1,2,50,0,1
97934,-100,4,1,3,50,0,1
102301,-100,4,1,2,50,0,1
102491,-100,4,1,3,50,0,1
106099,-100,4,1,2,50,0,1
106289,-100,4,1,3,50,0,1
108045,-100,4,1,3,60,0,1
108409,-100,4,1,2,65,0,1
108567,-100,4,1,3,65,0,1
108789,-100,4,1,2,70,0,1
108947,-100,4,1,3,70,0,1
109169,-100,4,1,2,60,0,1
109327,-100,4,1,3,60,0,1
109517,-100,4,1,3,50,0,0
109612,-100,4,1,3,50,0,1
110656,-100,4,1,2,50,0,1
110846,-100,4,1,3,50,0,1
121763,-100,4,1,0,50,0,0

[Colours]
Combo1 : 0,81,81
Combo2 : 0,64,128
Combo3 : 0,138,138
Combo4 : 0,215,215

[HitObjects]
128,160,12396,6,0,P|224:136|320:160,1,200,4|0,0:0|0:0,0:0:0:0:
368,312,13915,2,0,P|272:336|176:312,1,200,0|0,0:0|0:0,0:0:0:0:
128,160,15434,1,4,0:0:0:0:
440,88,16953,1,4,0:0:0:0:
128,160,18472,5,4,0:0:0:0:
195,305,19232,1,4,0:0:0:0:
340,237,19991,1,4,0:0:0:0:
273,92,20751,1,4,0:0:0:0:
128,160,21510,2,0,B|136:192|136:192|128:224|128:224|160:288|128:352,1,200,4|4,0:0|0:0,0:0:0:0:
4,288,23029,6,0,B|36:296|36:296|68:288|68:288|104:296|104:296|132:288|132:288|168:296|168:296|200:288|200:288|232:296|232:296|260:288|260:288|296:296,1,300,8|4,0:0|0:0,0:0:0:0:
376,304,24548,6,0,P|384:252|376:192,1,100,2|10,0:0|0:0,0:0:0:0:
360,128,25308,2,0,P|336:80|288:40,1,100,2|8,0:0|0:0,0:0:0:0:
224,40,26067,2,0,P|144:56|96:160,2,200,2|2|0,0:0|0:0|0:0,0:0:0:0:
224,120,27966,2,0,P|248:200|352:224,2,200,10|8|10,0:0|0:0|0:0,0:0:0:0:
296,80,29865,1,2,0:0:0:0:
296,240,30624,6,0,P|248:256|200:240,2,100,2|10|2,0:0|0:0|0:0,0:0:0:0:
296,160,31763,2,0,L|296:56,2,100,8|0|10,0:0|0:0|0:0,0:0:0:0:
368,200,32903,2,0,P|440:208|504:256,2,150,2|2|8,0:0|0:0|0:0,0:0:0:0:
296,240,34422,1,2,0:0:0:0:
296,80,35181,6,0,B|264:72|264:72|232:80|232:80|200:72|200:72|168:80|168:80|136:72|136:72|104:80|104:80|80:72,2,200,8|8|4,0:0|0:0|0:0,0:0:0:0:
112,200,48852,5,4,0:0:0:0:
112,200,49232,2,0,P|170:266|272:248,2,200,8|8|8,0:0|0:0|0:0,0:0:0:0:
232,96,51510,2,0,L|336:112,1,100,8|0,0:0|0:0,0:0:0:0:
408,128,52270,1,8,0:0:0:0:
408,288,53029,2,0,P|352:280|304:280,2,100,8|0|8,0:0|0:0|0:0,0:0:0:0:
312,160,54548,5,8,0:0:0:0:
232,168,54928,2,0,L|112:176,2,100,0|8|0,0:0|0:0|0:0,0:0:0:0:
280,232,56067,1,8,0:0:0:0:
248,304,56447,1,0,0:0:0:0:
211,373,56827,2,0,P|147:365|75:253,1,200,8|8,0:0|0:0,0:0:0:0:
152,240,57966,2,0,B|144:208|144:208|160:192|160:192|136:112|208:56,1,200,4|0,0:0|0:0,0:0:0:0:
280,64,59105,1,8,0:0:0:0:
280,64,59485,1,4,0:0:0:0:
240,216,60245,6,0,L|320:208,2,75,8|8|8,0:0|0:0|0:0,0:0:0:0:
160,120,61384,6,0,P|184:184|160:264,2,150,8|0|0,0:0|0:0|0:0,0:0:0:0:
80,128,62903,2,0,P|40:192|80:304,2,200,8|8|8,0:0|0:0|0:0,0:0:0:0:
240,112,65181,2,0,L|352:104,2,100,8|0|8,0:0|0:0|0:0,0:0:0:0:
248,272,66700,1,8,0:0:0:0:
168,264,67080,5,4,0:0:0:0:
88,256,67460,2,0,B|80:176|80:176|88:104,2,150,8|0|0,0:0|0:0|0:0,0:0:0:0:
168,264,68979,1,8,0:0:0:0:
168,104,69738,5,8,0:0:0:0:
168,104,70118,2,0,P|296:171|424:104,2,300,4|0|8,0:0|0:0|0:0,0:0:0:0:
184,264,73156,6,0,L|384:256,1,200,4|0,0:0|0:0,0:0:0:0:
392,176,74295,2,0,B|400:112|400:112|344:64|344:64|352:0,2,200,8|8|0,0:0|0:0|0:0,0:0:0:0:
240,128,76574,6,0,B|144:120|144:120|40:128,1,200,8|8,0:0|0:0,0:0:0:0:
40,208,77713,2,0,B|136:216|136:216|240:208,2,200
40,288,79612,1,8,0:0:0:0:
200,296,80371,2,0,B|280:288|280:288|352:296|352:296|400:288,1,200,8|8,0:0|0:0,0:0:0:0:
408,128,81890,1,8,0:0:0:0:
328,104,82270,6,0,B|264:96|264:96|112:120|112:120|24:112,1,300,0|8,0:0|0:0,0:0:0:0:
40,192,83789,2,0,L|48:296,2,100,0|8|0,0:0|0:0|0:0,0:0:0:0:
198,153,85308,5,4,0:0:0:0:
256,208,85688,2,0,B|304:224|304:224|344:216|344:216|400:232|456:216,2,200,8|8|8,0:0|0:0|0:0,0:0:0:0:
184,64,87966,2,0,L|104:144,2,100,8|0|8,0:0|0:0|0:0,0:0:0:0:
304,64,89295,6,0,P|320:136|304:216,1,150
228,193,90245,2,0,P|241:141|227:86,1,100
96,176,91384,6,0,L|144:320,2,150,4|4|4,0:0|0:0|0:0,0:0:0:0:
192,104,93093,2,0,P|200:144|208:208,1,100
208,240,93662,1,4,0:0:0:0:
208,240,94042,1,8,0:0:0:0:
288,240,94422,6,0,P|320:200|344:88,2,150,4|4|4,0:0|0:0|0:0,0:0:0:0:
256,312,95941,2,0,P|304:304|360:312,2,100,4|0|0,0:0|0:0|0:0,0:0:0:0:
400,240,97460,6,0,P|464:160|464:64,1,200,4|0,0:0|0:0,0:0:0:0:
352,104,98789,2,0,P|248:136|192:128,2,150,0|8|0,0:0|0:0|0:0,0:0:0:0:
248,40,100498,6,0,L|144:48,3,100,2|10|2|8,0:0|0:0|0:0|0:0,0:0:0:0:
72,72,102017,2,0,P|112:152|64:256,1,200,2|0,0:0|0:0,0:0:0:0:
216,288,103536,6,0,L|320:280,1,100,4|8,0:0|0:0,0:0:0:0:
340,205,104295,1,0,0:0:0:0:
352,128,104675,2,0,L|248:136,1,100,8|0,0:0|0:0,0:0:0:0:
176,144,105434,2,0,P|112:144|48:80,2,150,8|0|4,0:0|0:0|0:0,0:0:0:0:
480,232,108093,6,0,B|432:216|384:232|384:232|336:200|288:224|288:224|240:208|192:240|192:240|152:208|96:216,1,400,12|4,0:0|0:0,0:0:0:0:
64,144,109991,6,0,B|128:112|128:112|208:104,2,150,8|0|0,0:0|0:0|0:0,0:0:0:0:
56,224,111510,2,0,B|56:304|56:304|168:360,2,200,8|8|10,0:0|0:0|0:0,0:0:0:0:
136,224,113409,6,0,L|240:224,1,100,2|10,0:0|0:0,0:0:0:0:
312,208,114169,2,0,L|416:192,2,100,2|10|2,0:0|0:0|0:0,0:0:0:0:
312,128,115308,1,0,0:0:0:0:
312,48,115688,6,0,L|208:48,1,100,4|8,0:0|0:0,0:0:0:0:
96,160,116827,2,0,L|200:160,1,100,8|4,0:0|0:0,0:0:0:0:
360,160,117966,2,0,P|408:160|464:168,1,100,0|8,0:0|0:0,0:0:0:0:
456,248,118726,2,0,B|448:304|448:304|432:320,2,75,0|0|0,0:0|0:0|0:0,0:0:0:0:
256,192,120055,12,4,121763,0:0:0:0:
