osu file format v14

[General]
AudioFilename: 2-2.mp3
AudioLeadIn: 1500
PreviewTime: 67972
Countdown: 0
SampleSet: Soft
StackLeniency: 0.7
Mode: 0
LetterboxInBreaks: 0
WidescreenStoryboard: 0

[Editor]
DistanceSpacing: 1.2
BeatDivisor: 4
GridSize: 4
TimelineZoom: 1.7

[Metadata]
Title:2/2
TitleUnicode:2/2
Artist:Hotaka Miyabi (CV:Imamura Ayaka) xTachibana Tomoe (CV:Suwa Ayaka)
ArtistUnicode:穂高みやび(CV:今村彩夏)×橘巴(CV:諏訪彩花)
Creator:Setsurei
Version:Normal
Source:アブソリュート・デュオ
Tags:Absolute Duo ED Ending 3rd third TV size 白戸佑輔 高瀬愛虹 awaryuu Hinsvar
BeatmapID:651806
BeatmapSetID:289106

[Difficulty]
HPDrainRate:4
CircleSize:3
OverallDifficulty:4
ApproachRate:5
SliderMultiplier:0.799999999999999
SliderTickRate:1

[Events]
//Background and Video events
0,0,"BG.jpg",0,0
//Break Periods
//Storyboard Layer 0 (Background)
//Storyboard Layer 1 (Fail)
//Storyboard Layer 2 (Pass)
//Storyboard Layer 3 (Foreground)
//Storyboard Sound Samples

[TimingPoints]
-1060,322.58064516129,4,2,1,30,1,0
10552,-100,4,2,1,50,0,0
68617,-100,4,2,1,50,0,1
84101,-100,4,2,1,50,0,0
86681,-100,4,2,2,50,0,0

[Colours]
Combo1 : 192,192,192
Combo2 : 70,57,145
Combo3 : 255,197,100
Combo4 : 138,78,60

[HitObjects]
100,107,230,6,0,P|135:89|174:82,1,79.9999999999999,14|0,0:0|0:0,0:0:0:0:
272,84,875,1,8,0:0:0:0:
356,128,1198,1,0,0:0:0:0:
372,224,1520,2,0,B|380:255|356:296|356:296|304:284|272:298,1,160,8|8,0:0|0:0,0:0:0:0:
184,332,2488,1,8,0:0:0:0:
91,307,2810,6,0,P|39:280|16:226,2,120,8|0|8,0:0|0:0|0:0,0:0:0:0:
110,210,4101,2,0,P|105:133|162:81,1,160,8|0,0:0|0:0,0:0:0:0:
256,68,5069,1,4,0:0:0:0:
349,81,5391,6,0,P|406:133|401:210,1,160,6|8,0:0|0:0,0:0:0:0:
344,288,6359,1,0,0:0:0:0:
256,324,6681,2,0,P|216:321|180:303,1,79.9999999999999,8|8,0:0|0:3,0:0:0:0:
243,231,7326,2,0,P|188:210|131:222,1,120,8|0,0:0|0:0,0:0:0:0:
36,224,8133,6,0,L|32:104,1,120,4|0,0:0|0:0,0:0:0:0:
164,48,9101,2,0,P|222:47|261:90,1,120,4|8,0:0|0:0,0:0:0:0:
284,184,9907,6,0,P|299:252|365:227,1,160,8|8,0:0|0:0,0:0:0:0:
436,160,10875,1,0,0:0:0:0:
500,228,11198,1,8,0:0:0:0:
452,312,11520,2,0,P|425:341|391:361,1,79.9999999999999,0|8,0:0|0:0,0:0:0:0:
296,356,12165,1,0,0:0:0:0:
208,316,12488,2,0,L|157:254,1,79.9999999999999,2|0,0:0|0:0,0:0:0:0:
124,164,13133,6,0,P|134:106|161:53,2,120,8|0|0,0:0|0:0|0:0,0:0:0:0:
220,160,14423,2,0,P|245:105|285:61,2,120,8|0|0,0:0|0:0|0:0,0:0:0:0:
316,159,15714,6,0,P|393:151|452:202,1,160,4|8,0:0|0:0,0:0:0:0:
363,244,16681,2,0,P|324:251|285:249,1,79.9999999999999,0|8,0:0|0:0,0:0:0:0:
200,204,17326,2,0,P|161:213|128:240,2,79.9999999999999,0|8|0,0:0|0:0|0:0,0:0:0:0:
204,300,18294,1,8,0:0:0:0:
64,172,18939,1,8,0:0:0:0:
208,48,19584,6,0,L|243:65,1,40,4|0,0:0|0:0,0:0:0:0:
288,204,20230,2,0,L|324:186,1,40,4|0,0:0|0:0,0:0:0:0:
460,140,20875,6,0,P|473:217|446:292,1,160,4|8,0:0|0:0,0:0:0:0:
356,268,21843,1,2,0:0:0:0:
287,203,22165,2,0,P|209:208|143:252,1,160,8|8,0:0|0:0,0:0:0:0:
60,304,23133,1,2,0:0:0:0:
20,216,23455,6,0,P|9:177|14:138,1,79.9999999999999,8|0,0:0|0:0,0:0:0:0:
68,60,24101,1,8,0:0:0:0:
160,40,24423,1,2,0:0:0:0:
248,84,24746,2,0,P|307:85|359:56,2,120,8|0|2,0:0|0:0|0:0,0:0:0:0:
216,176,26036,6,0,P|254:187|293:183,1,79.9999999999999,4|0,0:0|0:0,0:0:0:0:
384,148,26681,2,0,B|412:140|436:112|436:112|451:109,1,79.9999999999999,0|2,0:0|0:0,0:0:0:0:
496,196,27327,2,0,P|470:226|436:248,1,79.9999999999999,8|2,0:0|0:0,0:0:0:0:
344,280,27972,2,0,B|316:280|292:264|292:264|272:280|244:288|244:288|224:264|200:264,1,160,8|8,0:0|0:0,0:0:0:0:
116,220,28939,5,2,0:0:0:0:
52,148,29262,1,8,0:0:0:0:
72,56,29585,1,2,0:0:0:0:
164,28,29907,2,0,L|204:28,1,40,2|2,0:0|0:0,0:0:0:0:
348,44,30552,2,0,L|394:108,1,79.9999999999999,8|2,0:0|0:0,0:0:0:0:
400,204,31198,6,0,P|385:241|357:268,2,79.9999999999999,4|2|8,0:0|0:0|0:0,0:0:0:0:
304,188,32165,1,2,0:0:0:0:
272,96,32488,2,0,P|214:147|216:225,1,160,8|8,0:0|0:0,0:0:0:0:
268,304,33456,1,2,0:0:0:0:
360,332,33778,6,0,P|399:330|435:312,2,79.9999999999999,8|2|8,0:0|0:0|0:0,0:0:0:0:
376,236,34746,1,2,0:0:0:0:
388,140,35069,2,0,B|379:108|379:108|317:80|279:31,1,160,8|8,0:0|0:0,0:0:0:0:
188,60,36036,1,2,0:0:0:0:
96,84,36359,6,0,P|71:115|53:150,1,79.9999999999999,8|2,0:0|0:0,0:0:0:0:
148,168,37004,2,0,L|172:244,1,79.9999999999999,8|2,0:0|0:0,0:0:0:0:
224,324,37649,2,0,P|248:292|266:257,1,79.9999999999999,8|2,0:0|0:0,0:0:0:0:
288,164,38294,1,8,0:0:0:0:
332,80,38617,1,2,0:0:0:0:
424,60,38939,6,0,P|457:81|477:115,1,79.9999999999999,4|2,0:0|0:0,0:0:0:0:
424,196,39585,2,0,P|390:217|370:251,1,79.9999999999999,4|2,0:0|0:0,0:0:0:0:
316,332,40230,2,0,P|236:327|163:297,1,160,4|4,0:0|0:0,0:0:0:0:
91,119,41520,6,0,P|78:82|56:49,2,79.9999999999999,8|2|8,0:0|0:0|0:0,0:0:0:0:
156,192,42488,2,0,L|188:216,1,40,2|0,0:0|0:0,0:0:0:0:
272,260,42972,1,0,0:0:0:0:
364,283,43294,2,0,P|361:225|323:180,1,120,0|2,0:0|0:0,0:0:0:0:
284,156,43939,1,0,0:0:0:0:
252,120,44101,6,0,L|360:69,1,120,8|0,0:0|0:0,0:0:0:0:
456,68,44907,1,8,0:0:0:0:
480,160,45230,2,0,B|468:200|488:237|488:237|448:248|410:229|410:229|384:256|384:304|384:304|368:320|348:319,1,280,12|4,0:0|0:0,0:0:0:0:
256,296,46681,2,0,L|223:272,1,40,4|4,0:0|0:0,0:0:0:0:
224,128,47327,2,0,L|256:151,1,40,2|0,0:0|0:0,0:0:0:0:
400,163,47972,6,0,P|391:104|360:54,1,120,4|0,0:0|0:0,0:0:0:0:
316,32,48617,1,2,0:0:0:0:
219,27,48939,2,0,P|142:43|86:99,1,160,8|8,0:0|0:0,0:0:0:0:
48,188,49907,1,2,0:0:0:0:
68,284,50230,1,8,0:0:0:0:
68,284,50552,6,0,P|107:279|146:286,1,79.9999999999999,2|8,0:0|0:0,0:0:0:0:
188,308,51036,2,0,P|226:317|266:317,1,79.9999999999999
316,312,51520,1,8,0:0:0:0:
396,255,51843,2,0,P|392:176|350:110,1,160,2|2,0:0|0:0,0:0:0:0:
161,110,53133,6,0,P|119:176|116:255,1,160,4|2,0:0|0:0,0:0:0:0:
160,340,54101,1,8,0:0:0:0:
256,356,54423,1,2,0:0:0:0:
444,316,55069,2,0,B|460:286|460:286|480:266|477:244,1,79.9999999999999,2|8,0:0|0:0,0:0:0:0:
447,151,55714,6,0,P|409:107|351:95,1,120,2|4,0:0|0:0,0:0:0:0:
256,108,56520,1,4,0:0:0:0:
160,95,56843,2,0,P|102:107|64:151,1,120,4|8,0:0|0:0,0:0:0:0:
152,188,57649,2,0,P|173:221|210:233,1,79.9999999999999,2|8,0:0|0:0,0:0:0:0:
244,323,58294,6,0,P|291:289|304:231,2,120,4|0|8,0:0|0:0|0:0,0:0:0:0:
147,328,59585,2,0,P|73:306|36:237,1,160,2|2,0:0|0:0,0:0:0:0:
36,140,60552,1,8,0:0:0:0:
124,100,60875,6,0,L|199:73,1,79.9999999999999,2|8,0:0|0:0,0:0:0:0:
276,132,61520,2,0,L|351:105,1,79.9999999999999,2|8,0:0|0:0,0:0:0:0:
444,72,62165,2,0,B|504:48|504:48|512:84|493:141,1,160,2|2,0:0|0:0,0:0:0:0:
392,308,63456,6,0,P|321:344|242:342,1,160,2|2,0:0|0:0,0:0:0:0:
259,152,64746,2,0,P|220:148|191:122,1,79.9999999999999,2|8,0:0|0:0,0:0:0:0:
97,98,65391,1,2,0:0:0:0:
24,160,65714,1,8,0:0:0:0:
24,256,66036,6,0,B|52:266|80:242|80:242|112:286|168:318|168:318|180:278|232:234|232:234|156:216|135:176,1,399.999999999999,2|4,0:0|0:0,0:0:0:0:
184,92,67972,2,0,L|210:61,1,40,6|0,0:0|0:0,0:0:0:0:
344,112,68617,6,0,P|395:82|432:35,2,120,4|0|2,0:0|0:0|0:0,0:0:0:0:
252,140,69907,1,8,0:0:0:0:
164,176,70230,1,2,0:0:0:0:
73,144,70552,1,8,0:0:0:0:
12,216,70875,1,2,0:0:0:0:
44,308,71198,6,0,P|74:333|112:346,1,79.9999999999999,8|2,0:0|0:0,0:0:0:0:
160,344,71681,2,0,B|192:344|192:344|212:348|212:348|239:348,1,79.9999999999999
288,344,72165,2,0,P|336:352|380:340,1,79.9999999999999,2|8,0:0|0:0,0:0:0:0:
424,268,72810,1,2,0:0:0:0:
356,200,73133,1,8,0:0:0:0:
272,248,73456,1,2,0:0:0:0:
176,260,73778,6,0,B|160:208|100:184|100:184|104:160|100:136,1,160,4|8,0:0|0:0,0:0:0:0:
144,52,74746,1,2,0:0:0:0:
240,44,75069,2,0,L|319:37,1,79.9999999999999,8|2,0:0|0:0,0:0:0:0:
412,60,75714,1,8,0:0:0:0:
448,148,76036,1,2,0:0:0:0:
403,232,76359,6,0,P|357:269|300:287,1,120,8|4,0:0|0:0,0:0:0:0:
204,284,77165,1,4,0:0:0:0:
116,240,77488,2,0,P|88:187|81:127,1,120,4|2,0:0|0:0,0:0:0:0:
160,72,78294,2,0,L|197:57,1,40,4|8,0:0|0:3,0:0:0:0:
319,132,78939,6,0,P|368:164|427:172,2,120,12|0|2,0:0|0:0|0:0,0:0:0:0:
244,192,80230,2,0,P|306:241|382:265,1,160,8|8,0:0|0:0,0:0:0:0:
476,256,81198,1,2,0:0:0:0:
428,171,81520,6,0,P|443:135|449:95,1,79.9999999999999,8|2,0:0|0:0,0:0:0:0:
364,48,82165,2,0,L|284:44,1,79.9999999999999,8|2,0:0|0:0,0:0:0:0:
188,56,82810,2,0,P|154:127|161:206,1,160,8|8,0:0|0:0,0:0:0:0:
216,284,83778,1,2,0:0:0:0:
304,324,84101,5,8,0:0:0:0:
400,308,84423,2,0,P|426:233|412:155,1,160,2|2,0:0|0:0,0:0:0:0:
360,76,85391,1,8,0:0:0:0:
167,72,86036,2,0,P|141:102|124:137,1,79.9999999999999,8|0,0:0|0:0,0:0:0:0:
256,192,86681,12,2,87972,0:0:0:0:
